  0
SECTION
  2
HEADER
  9
$ACADVER
  1
AC1015
  9
$ACADMAINTVER
 70
     6
  9
$DWGCODEPAGE
  3
ANSI_932
  9
$INSBASE
 10
0.0
 20
0.0
 30
0.0
  9
$EXTMIN
 10
6010.652169298479
 20
450.3227020337636
 30
0.0
  9
$EXTMAX
 10
6430.810494493791
 20
747.3545318677479
 30
0.0
  9
$LIMMIN
 10
0.0
 20
0.0
  9
$LIMMAX
 10
12.0
 20
9.0
  9
$ORTHOMODE
 70
     0
  9
$REGENMODE
 70
     1
  9
$FILLMODE
 70
     1
  9
$QTEXTMODE
 70
     0
  9
$MIRRTEXT
 70
     1
  9
$LTSCALE
 40
12.7
  9
$ATTMODE
 70
     1
  9
$TEXTSIZE
 40
0.2
  9
$TRACEWID
 40
1.0
  9
$TEXTSTYLE
  7
STANDARD
  9
$CLAYER
  8
一般
  9
$CELTYPE
  6
ByLayer
  9
$CECOLOR
 62
   256
  9
$CELTSCALE
 40
1.0
  9
$DISPSILH
 70
     0
  9
$DIMSCALE
 40
1.0
  9
$DIMASZ
 40
2.24482421875
  9
$DIMEXO
 40
1.5875
  9
$DIMDLI
 40
10.16
  9
$DIMRND
 40
0.0
  9
$DIMDLE
 40
1.5875
  9
$DIMEXE
 40
3.175
  9
$DIMTP
 40
0.0
  9
$DIMTM
 40
0.0
  9
$DIMTXT
 40
16.04134366925064
  9
$DIMCEN
 40
0.0
  9
$DIMTSZ
 40
0.0
  9
$DIMTOL
 70
     0
  9
$DIMLIM
 70
     0
  9
$DIMTIH
 70
     0
  9
$DIMTOH
 70
     0
  9
$DIMSE1
 70
     0
  9
$DIMSE2
 70
     0
  9
$DIMTAD
 70
     1
  9
$DIMZIN
 70
     8
  9
$DIMBLK
  1
VW_SLASH
  9
$DIMASO
 70
     1
  9
$DIMSHO
 70
     1
  9
$DIMPOST
  1
<>
  9
$DIMAPOST
  1
[]
  9
$DIMALT
 70
     0
  9
$DIMALTD
 70
     3
  9
$DIMALTF
 40
0.0393700787401575
  9
$DIMLFAC
 40
1.0
  9
$DIMTOFL
 70
     1
  9
$DIMTVP
 40
0.0
  9
$DIMTIX
 70
     1
  9
$DIMSOXD
 70
     0
  9
$DIMSAH
 70
     0
  9
$DIMBLK1
  1
VW_SLASH
  9
$DIMBLK2
  1
VW_SLASH
  9
$DIMSTYLE
  2
Arch
  9
$DIMCLRD
 70
     0
  9
$DIMCLRE
 70
     0
  9
$DIMCLRT
 70
     0
  9
$DIMTFAC
 40
1.0
  9
$DIMGAP
 40
1.5875
  9
$DIMJUST
 70
     0
  9
$DIMSD1
 70
     0
  9
$DIMSD2
 70
     0
  9
$DIMTOLJ
 70
     1
  9
$DIMTZIN
 70
     8
  9
$DIMALTZ
 70
     8
  9
$DIMALTTZ
 70
     8
  9
$DIMUPT
 70
     0
  9
$DIMDEC
 70
     0
  9
$DIMTDEC
 70
     0
  9
$DIMALTU
 70
     4
  9
$DIMALTTD
 70
     2
  9
$DIMTXSTY
  7
Osaka
  9
$DIMAUNIT
 70
     0
  9
$DIMADEC
 70
     2
  9
$DIMALTRND
 40
0.0
  9
$DIMAZIN
 70
     0
  9
$DIMDSEP
 70
    46
  9
$DIMATFIT
 70
     0
  9
$DIMFRAC
 70
     2
  9
$DIMLDRBLK
  1
VW_FILLEDARROW
  9
$DIMLUNIT
 70
     2
  9
$DIMLWD
 70
    -2
  9
$DIMLWE
 70
    -2
  9
$DIMTMOVE
 70
     0
  9
$LUNITS
 70
     2
  9
$LUPREC
 70
     4
  9
$SKETCHINC
 40
0.1
  9
$FILLETRAD
 40
0.5
  9
$AUNITS
 70
     0
  9
$AUPREC
 70
     0
  9
$MENU
  1
.
  9
$ELEVATION
 40
0.0
  9
$PELEVATION
 40
0.0
  9
$THICKNESS
 40
0.0
  9
$LIMCHECK
 70
     0
  9
$CHAMFERA
 40
0.5
  9
$CHAMFERB
 40
0.5
  9
$CHAMFERC
 40
1.0
  9
$CHAMFERD
 40
0.0
  9
$SKPOLY
 70
     0
  9
$TDCREATE
 40
2456133.442650463
  9
$TDUCREATE
 40
2456133.067650463
  9
$TDUPDATE
 40
2456133.442650463
  9
$TDUUPDATE
 40
2456133.067650463
  9
$TDINDWG
 40
0.0000000116
  9
$TDUSRTIMER
 40
0.0000000116
  9
$USRTIMER
 70
     1
  9
$ANGBASE
 50
0.0
  9
$ANGDIR
 70
     0
  9
$PDMODE
 70
     1
  9
$PDSIZE
 40
-2.0
  9
$PLINEWID
 40
0.0
  9
$SPLFRAME
 70
     0
  9
$SPLINETYPE
 70
     6
  9
$SPLINESEGS
 70
     8
  9
$HANDSEED
  5
2C4
  9
$SURFTAB1
 70
     6
  9
$SURFTAB2
 70
     6
  9
$SURFTYPE
 70
     6
  9
$SURFU
 70
     6
  9
$SURFV
 70
     6
  9
$UCSBASE
  2

  9
$UCSNAME
  2

  9
$UCSORG
 10
0.0
 20
0.0
 30
0.0
  9
$UCSXDIR
 10
1.0
 20
0.0
 30
0.0
  9
$UCSYDIR
 10
0.0
 20
1.0
 30
0.0
  9
$UCSORTHOREF
  2

  9
$UCSORTHOVIEW
 70
     0
  9
$UCSORGTOP
 10
0.0
 20
0.0
 30
0.0
  9
$UCSORGBOTTOM
 10
0.0
 20
0.0
 30
0.0
  9
$UCSORGLEFT
 10
0.0
 20
0.0
 30
0.0
  9
$UCSORGRIGHT
 10
0.0
 20
0.0
 30
0.0
  9
$UCSORGFRONT
 10
0.0
 20
0.0
 30
0.0
  9
$UCSORGBACK
 10
0.0
 20
0.0
 30
0.0
  9
$PUCSBASE
  2

  9
$PUCSNAME
  2

  9
$PUCSORG
 10
0.0
 20
0.0
 30
0.0
  9
$PUCSXDIR
 10
1.0
 20
0.0
 30
0.0
  9
$PUCSYDIR
 10
0.0
 20
1.0
 30
0.0
  9
$PUCSORTHOREF
  2

  9
$PUCSORTHOVIEW
 70
     0
  9
$PUCSORGTOP
 10
0.0
 20
0.0
 30
0.0
  9
$PUCSORGBOTTOM
 10
0.0
 20
0.0
 30
0.0
  9
$PUCSORGLEFT
 10
0.0
 20
0.0
 30
0.0
  9
$PUCSORGRIGHT
 10
0.0
 20
0.0
 30
0.0
  9
$PUCSORGFRONT
 10
0.0
 20
0.0
 30
0.0
  9
$PUCSORGBACK
 10
0.0
 20
0.0
 30
0.0
  9
$USERI1
 70
     0
  9
$USERI2
 70
     0
  9
$USERI3
 70
     0
  9
$USERI4
 70
     0
  9
$USERI5
 70
     0
  9
$USERR1
 40
0.0
  9
$USERR2
 40
0.0
  9
$USERR3
 40
0.0
  9
$USERR4
 40
0.0
  9
$USERR5
 40
0.0
  9
$WORLDVIEW
 70
     1
  9
$SHADEDGE
 70
     3
  9
$SHADEDIF
 70
    70
  9
$TILEMODE
 70
     0
  9
$MAXACTVP
 70
    64
  9
$PINSBASE
 10
0.0
 20
0.0
 30
0.0
  9
$PLIMCHECK
 70
     0
  9
$PEXTMIN
 10
-184.2318056329966
 20
-140.2666592094401
 30
0.0
  9
$PEXTMAX
 10
201.7681943670034
 20
139.7333407905599
 30
0.0
  9
$PLIMMIN
 10
-220.583120727539
 20
-155.9417106628417
  9
$PLIMMAX
 10
220.583120727539
 20
155.9417106628417
  9
$UNITMODE
 70
     0
  9
$VISRETAIN
 70
     1
  9
$PLINEGEN
 70
     0
  9
$PSLTSCALE
 70
     1
  9
$TREEDEPTH
 70
  3020
  9
$CMLSTYLE
  2
Standard
  9
$CMLJUST
 70
     0
  9
$CMLSCALE
 40
1.0
  9
$PROXYGRAPHICS
 70
     1
  9
$MEASUREMENT
 70
     1
  9
$CELWEIGHT
370
    -1
  9
$ENDCAPS
280
     0
  9
$JOINSTYLE
280
     0
  9
$LWDISPLAY
290
     1
  9
$INSUNITS
 70
     4
  9
$HYPERLINKBASE
  1

  9
$STYLESHEET
  1

  9
$XEDIT
290
     1
  9
$CEPSNTYPE
380
     0
  9
$PSTYLEMODE
290
     1
  9
$FINGERPRINTGUID
  2
{A9B617EC-79B3-7A29-D289-55856E38BEFA}
  9
$VERSIONGUID
  2
{FAEB1C32-E019-11D5-929B-00C0DF256EC4}
  9
$EXTNAMES
290
     1
  9
$PSVPSCALE
 40
0.0
  9
$OLESTARTUP
290
     0
  0
ENDSEC
  0
SECTION
  2
CLASSES
  0
CLASS
  1
ACDBDICTIONARYWDFLT
  2
AcDbDictionaryWithDefault
  3
ObjectDBX Classes
 90
        0
280
     0
281
     0
  0
CLASS
  1
VISUALSTYLE
  2
AcDbVisualStyle
  3
ObjectDBX Classes
 90
     4095
280
     0
281
     0
  0
CLASS
  1
MATERIAL
  2
AcDbMaterial
  3
ObjectDBX Classes
 90
     1153
280
     0
281
     0
  0
CLASS
  1
WIPEOUTVARIABLES
  2
AcDbWipeoutVariables
  3
WipeOut|AutoCAD Express Tool|expresstools@autodesk.com
 90
        0
280
     0
281
     0
  0
CLASS
  1
DICTIONARYVAR
  2
AcDbDictionaryVar
  3
ObjectDBX Classes
 90
        0
280
     0
281
     0
  0
CLASS
  1
SCALE
  2
AcDbScale
  3
ObjectDBX Classes
 90
     1153
280
     0
281
     0
  0
CLASS
  1
ACDBPLACEHOLDER
  2
AcDbPlaceHolder
  3
ObjectDBX Classes
 90
        0
280
     0
281
     0
  0
CLASS
  1
LAYOUT
  2
AcDbLayout
  3
ObjectDBX Classes
 90
        0
280
     0
281
     0
  0
ENDSEC
  0
SECTION
  2
TABLES
  0
TABLE
  2
VPORT
  5
8
330
0
100
AcDbSymbolTable
 70
     1
  0
VPORT
  5
29
330
8
100
AcDbSymbolTableRecord
100
AcDbViewportTableRecord
  2
*Active
 70
     0
 10
0.0
 20
0.0
 11
1.0
 21
1.0
 12
6220.731331896135
 22
598.8386169507557
 13
0.0
 23
0.0
 14
0.5
 24
0.5
 15
0.5
 25
0.5
 16
0.0
 26
0.0
 36
1.0
 17
0.0
 27
0.0
 37
0.0
 40
297.0318298339843
 41
0.0597806530215212
 42
2000.0
 43
0.0
 44
0.0
 50
0.0
 51
0.0
 71
     0
 72
   100
 73
     1
 74
     3
 75
     0
 76
     0
 77
     0
 78
     0
281
     0
 65
     1
110
0.0
120
0.0
130
0.0
111
1.0
121
0.0
131
0.0
112
0.0
122
1.0
132
0.0
 79
     0
146
0.0
  0
ENDTAB
  0
TABLE
  2
LTYPE
  5
5
330
0
100
AcDbSymbolTable
 70
    19
  0
LTYPE
  5
14
330
5
100
AcDbSymbolTableRecord
100
AcDbLinetypeTableRecord
  2
ByBlock
 70
     0
  3

 72
    65
 73
     0
 40
0.0
  0
LTYPE
  5
15
330
5
100
AcDbSymbolTableRecord
100
AcDbLinetypeTableRecord
  2
ByLayer
 70
     0
  3

 72
    65
 73
     0
 40
0.0
  0
LTYPE
  5
16
330
5
100
AcDbSymbolTableRecord
100
AcDbLinetypeTableRecord
  2
Continuous
 70
     0
  3
Solid line
 72
    65
 73
     0
 40
0.0
  0
LTYPE
  5
4C
330
5
100
AcDbSymbolTableRecord
100
AcDbLinetypeTableRecord
  2
ISO-02 破線
 70
     0
  3

 72
    65
 73
     2
 40
0.24
 49
0.24
 74
     0
 49
-0.06
 74
     0
  0
LTYPE
  5
4D
330
5
100
AcDbSymbolTableRecord
100
AcDbLinetypeTableRecord
  2
ISO-03 跳び破線
 70
     0
  3

 72
    65
 73
     2
 40
0.24
 49
0.24
 74
     0
 49
-0.36
 74
     0
  0
LTYPE
  5
4E
330
5
100
AcDbSymbolTableRecord
100
AcDbLinetypeTableRecord
  2
ISO-04 一点長鎖線
 70
     0
  3

 72
    65
 73
     4
 40
0.48
 49
0.48
 74
     0
 49
-0.0600000000000001
 74
     0
 49
0.01
 74
     0
 49
-0.0600000000000001
 74
     0
  0
LTYPE
  5
4F
330
5
100
AcDbSymbolTableRecord
100
AcDbLinetypeTableRecord
  2
ISO-05 二点長鎖線
 70
     0
  3

 72
    65
 73
     6
 40
0.48
 49
0.48
 74
     0
 49
-0.0600000000000001
 74
     0
 49
0.01
 74
     0
 49
-0.0600000000000001
 74
     0
 49
0.01
 74
     0
 49
-0.0600000000000001
 74
     0
  0
LTYPE
  5
50
330
5
100
AcDbSymbolTableRecord
100
AcDbLinetypeTableRecord
  2
ISO-06 三点長鎖線
 70
     0
  3

 72
    65
 73
     8
 40
0.48
 49
0.48
 74
     0
 49
-0.0600000000000001
 74
     0
 49
0.01
 74
     0
 49
-0.0600000000000001
 74
     0
 49
0.01
 74
     0
 49
-0.0600000000000001
 74
     0
 49
0.01
 74
     0
 49
-0.0600000000000001
 74
     0
  0
LTYPE
  5
51
330
5
100
AcDbSymbolTableRecord
100
AcDbLinetypeTableRecord
  2
ISO-07 点線
 70
     0
  3

 72
    65
 73
     2
 40
0.01
 49
0.01
 74
     0
 49
-0.06
 74
     0
  0
LTYPE
  5
52
330
5
100
AcDbSymbolTableRecord
100
AcDbLinetypeTableRecord
  2
ISO-08 一点鎖線
 70
     0
  3

 72
    65
 73
     4
 40
0.48
 49
0.48
 74
     0
 49
-0.0600000000000001
 74
     0
 49
0.12
 74
     0
 49
-0.0599999999999999
 74
     0
  0
LTYPE
  5
53
330
5
100
AcDbSymbolTableRecord
100
AcDbLinetypeTableRecord
  2
ISO-09 二点鎖線
 70
     0
  3

 72
    65
 73
     6
 40
0.48
 49
0.48
 74
     0
 49
-0.0600000000000001
 74
     0
 49
0.12
 74
     0
 49
-0.0599999999999999
 74
     0
 49
0.12
 74
     0
 49
-0.0599999999999999
 74
     0
  0
LTYPE
  5
54
330
5
100
AcDbSymbolTableRecord
100
AcDbLinetypeTableRecord
  2
ISO-10 一点短鎖線
 70
     0
  3

 72
    65
 73
     4
 40
0.24
 49
0.24
 74
     0
 49
-0.06
 74
     0
 49
0.01
 74
     0
 49
-0.06
 74
     0
  0
LTYPE
  5
55
330
5
100
AcDbSymbolTableRecord
100
AcDbLinetypeTableRecord
  2
ISO-11 一点二短鎖線
 70
     0
  3

 72
    65
 73
     6
 40
0.24
 49
0.24
 74
     0
 49
-0.06
 74
     0
 49
0.24
 74
     0
 49
-0.0600000000000001
 74
     0
 49
0.01
 74
     0
 49
-0.0600000000000001
 74
     0
  0
LTYPE
  5
56
330
5
100
AcDbSymbolTableRecord
100
AcDbLinetypeTableRecord
  2
ISO-12 二点短鎖線
 70
     0
  3

 72
    65
 73
     6
 40
0.24
 49
0.24
 74
     0
 49
-0.06
 74
     0
 49
0.01
 74
     0
 49
-0.06
 74
     0
 49
0.01
 74
     0
 49
-0.06
 74
     0
  0
LTYPE
  5
57
330
5
100
AcDbSymbolTableRecord
100
AcDbLinetypeTableRecord
  2
ISO-13 二点二短鎖線
 70
     0
  3

 72
    65
 73
     8
 40
0.24
 49
0.24
 74
     0
 49
-0.06
 74
     0
 49
0.24
 74
     0
 49
-0.0600000000000001
 74
     0
 49
0.01
 74
     0
 49
-0.0600000000000001
 74
     0
 49
0.01
 74
     0
 49
-0.0600000000000001
 74
     0
  0
LTYPE
  5
58
330
5
100
AcDbSymbolTableRecord
100
AcDbLinetypeTableRecord
  2
ISO-14 三点短鎖線
 70
     0
  3

 72
    65
 73
     8
 40
0.24
 49
0.24
 74
     0
 49
-0.06
 74
     0
 49
0.01
 74
     0
 49
-0.06
 74
     0
 49
0.01
 74
     0
 49
-0.06
 74
     0
 49
0.01
 74
     0
 49
-0.06
 74
     0
  0
LTYPE
  5
59
330
5
100
AcDbSymbolTableRecord
100
AcDbLinetypeTableRecord
  2
ISO-15 三点二短鎖線
 70
     0
  3

 72
    65
 73
    10
 40
0.24
 49
0.24
 74
     0
 49
-0.06
 74
     0
 49
0.24
 74
     0
 49
-0.0600000000000001
 74
     0
 49
0.01
 74
     0
 49
-0.0600000000000001
 74
     0
 49
0.01
 74
     0
 49
-0.0600000000000001
 74
     0
 49
0.01
 74
     0
 49
-0.0600000000000001
 74
     0
  0
LTYPE
  5
5A
330
5
100
AcDbSymbolTableRecord
100
AcDbLinetypeTableRecord
  2
VW-01 短破線
 70
     0
  3

 72
    65
 73
     2
 40
0.083312
 49
0.083312
 74
     0
 49
-0.083312
 74
     0
  0
LTYPE
  5
5B
330
5
100
AcDbSymbolTableRecord
100
AcDbLinetypeTableRecord
  2
VW-02 中破線
 70
     0
  3

 72
    65
 73
     2
 40
0.194428
 49
0.194428
 74
     0
 49
-0.083312
 74
     0
  0
LTYPE
  5
5C
330
5
100
AcDbSymbolTableRecord
100
AcDbLinetypeTableRecord
  2
HIDDEN
 70
     0
  3

 72
    65
 73
     2
 40
2.0
 49
2.0
 74
     0
 49
-1.0
 74
     0
  0
LTYPE
  5
5D
330
5
100
AcDbSymbolTableRecord
100
AcDbLinetypeTableRecord
  2
CENTER
 70
     0
  3

 72
    65
 73
     2
 40
8.0
 49
8.0
 74
     0
 49
-0.0001999999999995
 74
     0
  0
ENDTAB
  0
TABLE
  2
LAYER
  5
2
330
0
100
AcDbSymbolTable
 70
    12
  0
LAYER
  5
10
330
2
100
AcDbSymbolTableRecord
100
AcDbLayerTableRecord
  2
0
 70
     0
 62
     7
  6
Continuous
370
    15
390
F
1001
AcCmTransparency
1071
 33554687
  0
LAYER
  5
5E
330
2
100
AcDbSymbolTableRecord
100
AcDbLayerTableRecord
  2
一般
 70
     0
 62
     7
  6
Continuous
370
     9
390
F
1001
AcCmTransparency
1071
 33554687
  0
LAYER
  5
60
330
2
100
AcDbSymbolTableRecord
100
AcDbLayerTableRecord
  2
寸法
 70
     0
 62
     7
  6
Continuous
370
     9
390
F
1001
AcCmTransparency
1071
 33554687
  0
LAYER
  5
61
330
2
100
AcDbSymbolTableRecord
100
AcDbLayerTableRecord
  2
Defpoints
 70
     0
 62
     7
  6
Continuous
290
     0
370
    15
390
F
1001
AcCmTransparency
1071
 33554687
  0
LAYER
  5
62
330
2
100
AcDbSymbolTableRecord
100
AcDbLayerTableRecord
  2
ﾀｲﾄﾙ枠
 70
     0
 62
     5
  6
Continuous
370
    15
390
F
1001
AcCmTransparency
1071
 33554687
  0
LAYER
  5
63
330
2
100
AcDbSymbolTableRecord
100
AcDbLayerTableRecord
  2
SUNPO
 70
     0
 62
     3
  6
Continuous
370
    15
390
F
1001
AcCmTransparency
1071
 33554687
  0
LAYER
  5
64
330
2
100
AcDbSymbolTableRecord
100
AcDbLayerTableRecord
  2
sen-c
 70
     0
 62
     8
  6
CENTER
370
    15
390
F
1001
AcCmTransparency
1071
 33554687
  0
LAYER
  5
65
330
2
100
AcDbSymbolTableRecord
100
AcDbLayerTableRecord
  2
sen-h
 70
     0
 62
     6
  6
HIDDEN
370
    15
390
F
1001
AcCmTransparency
1071
 33554687
  0
LAYER
  5
66
330
2
100
AcDbSymbolTableRecord
100
AcDbLayerTableRecord
  2
sen2
 70
     0
 62
     2
  6
Continuous
370
    15
390
F
1001
AcCmTransparency
1071
 33554687
  0
LAYER
  5
67
330
2
100
AcDbSymbolTableRecord
100
AcDbLayerTableRecord
  2
rev
 70
     0
 62
     2
  6
Continuous
370
    15
390
F
1001
AcCmTransparency
1071
 33554687
  0
LAYER
  5
68
330
2
100
AcDbSymbolTableRecord
100
AcDbLayerTableRecord
  2
revﾍﾟｰﾊﾟｰ
 70
     0
 62
     2
  6
Continuous
370
    15
390
F
1001
AcCmTransparency
1071
 33554687
  0
LAYER
  5
69
330
2
100
AcDbSymbolTableRecord
100
AcDbLayerTableRecord
  2
_Viewport_Crop
 70
     0
 62
    -7
  6
Continuous
370
    -3
390
F
  0
ENDTAB
  0
TABLE
  2
STYLE
  5
3
330
0
100
AcDbSymbolTable
 70
     3
  0
STYLE
  5
11
330
3
100
AcDbSymbolTableRecord
100
AcDbTextStyleTableRecord
  2
STANDARD
 70
     0
 40
0.0
 41
1.0
 50
0.0
 71
     0
 42
0.2
  3
txt
  4
BIGFONT.SHX
  0
STYLE
  5
4A
330
3
100
AcDbSymbolTableRecord
100
AcDbTextStyleTableRecord
  2
MS PMincho
 70
     0
 40
0.0
 41
1.0
 50
0.0
 71
     0
 42
0.0
  3
MS PMincho
  4

1001
ACAD
1000
MS PMincho
1071
        0
  0
STYLE
  5
4B
330
3
100
AcDbSymbolTableRecord
100
AcDbTextStyleTableRecord
  2
Osaka
 70
     0
 40
0.0
 41
1.0
 50
0.0
 71
     0
 42
0.0
  3

  4
Osaka
1001
ACAD
1000
Osaka
1071
        0
  0
ENDTAB
  0
TABLE
  2
VIEW
  5
6
330
0
100
AcDbSymbolTable
 70
     0
  0
ENDTAB
  0
TABLE
  2
UCS
  5
7
330
0
100
AcDbSymbolTable
 70
     0
  0
ENDTAB
  0
TABLE
  2
APPID
  5
9
330
0
100
AcDbSymbolTable
 70
     2
  0
APPID
  5
12
330
9
100
AcDbSymbolTableRecord
100
AcDbRegAppTableRecord
  2
ACAD
 70
     0
  0
APPID
  5
5F
330
9
100
AcDbSymbolTableRecord
100
AcDbRegAppTableRecord
  2
AcCmTransparency
 70
     0
  0
ENDTAB
  0
TABLE
  2
DIMSTYLE
  5
A
330
0
100
AcDbSymbolTable
 70
     3
100
AcDbDimStyleTable
  0
DIMSTYLE
105
27
330
A
100
AcDbSymbolTableRecord
100
AcDbDimStyleTableRecord
  2
Standard
 70
     0
178
     0
340
11
  0
DIMSTYLE
105
6A
102
{ACAD_REACTORS
330
153
330
154
330
155
102
}
330
A
100
AcDbSymbolTableRecord
100
AcDbDimStyleTableRecord
  2
MSP明朝寸法4
 70
     0
  3
<>
  4
[]
 41
2.99981689453125
 42
0.0625
 43
0.5499999999999999
 44
0.0625
 73
     0
 74
     0
 77
     1
 78
     8
140
16.04134366925064
141
0.0
143
0.0393700787401575
147
0.0625
171
     3
172
     1
174
     1
178
     0
179
     2
271
     0
272
     0
273
     4
276
     2
284
     8
285
     8
286
     8
289
     0
340
4B
341
74
342
6B
343
6B
344
6B
  0
DIMSTYLE
105
7D
330
A
100
AcDbSymbolTableRecord
100
AcDbDimStyleTableRecord
  2
Arch
 70
     0
  3
<>
  4
[]
 41
2.24482421875
 42
1.5875
 43
10.16
 44
3.175
 46
1.5875
 73
     0
 74
     0
 77
     1
 78
     8
140
16.04134366925064
141
0.0
143
0.0393700787401575
147
1.5875
171
     3
172
     1
174
     1
178
     0
179
     2
271
     0
272
     0
273
     4
276
     2
284
     8
285
     8
286
     8
289
     0
340
4B
341
86
342
7E
343
7E
344
7E
  0
ENDTAB
  0
TABLE
  2
BLOCK_RECORD
  5
1
330
0
100
AcDbSymbolTable
 70
     8
  0
BLOCK_RECORD
  5
1F
330
1
100
AcDbSymbolTableRecord
100
AcDbBlockTableRecord
  2
*Model_Space
340
22
  0
BLOCK_RECORD
  5
1B
330
1
100
AcDbSymbolTableRecord
100
AcDbBlockTableRecord
  2
*Paper_Space
340
1E
  0
BLOCK_RECORD
  5
3F
330
1
100
AcDbSymbolTableRecord
100
AcDbBlockTableRecord
  2
*D1
340
0
  0
BLOCK_RECORD
  5
42
330
1
100
AcDbSymbolTableRecord
100
AcDbBlockTableRecord
  2
*D2
340
0
  0
BLOCK_RECORD
  5
45
330
1
100
AcDbSymbolTableRecord
100
AcDbBlockTableRecord
  2
*D3
340
0
  0
BLOCK_RECORD
  5
6B
330
1
100
AcDbSymbolTableRecord
100
AcDbBlockTableRecord
  2
VW_EMPTYARROW
340
0
102
{BLKREFS
331
97
331
92
331
A8
331
A3
331
B9
331
B4
102
}
  0
BLOCK_RECORD
  5
74
330
1
100
AcDbSymbolTableRecord
100
AcDbBlockTableRecord
  2
VW_EMPTYARROW-1
340
0
  0
BLOCK_RECORD
  5
7E
330
1
100
AcDbSymbolTableRecord
100
AcDbBlockTableRecord
  2
VW_SLASH
340
0
  0
BLOCK_RECORD
  5
86
330
1
100
AcDbSymbolTableRecord
100
AcDbBlockTableRecord
  2
VW_FILLEDARROW
340
0
  0
ENDTAB
  0
ENDSEC
  0
SECTION
  2
BLOCKS
  0
BLOCK
  5
20
330
1F
100
AcDbEntity
  8
0
100
AcDbBlockBegin
  2
*Model_Space
 70
     0
 10
0.0
 20
0.0
 30
0.0
  3
*Model_Space
  1

  0
ENDBLK
  5
21
330
1F
100
AcDbEntity
  8
0
100
AcDbBlockEnd
  0
BLOCK
  5
1C
330
1B
100
AcDbEntity
 67
     1
  8
0
100
AcDbBlockBegin
  2
*Paper_Space
 70
     0
 10
0.0
 20
0.0
 30
0.0
  3
*Paper_Space
  1

  0
ENDBLK
  5
1D
330
1B
100
AcDbEntity
 67
     1
  8
0
100
AcDbBlockEnd
  0
BLOCK
  5
40
330
3F
100
AcDbEntity
  8
0
100
AcDbBlockBegin
  2
*D1
 70
     1
 10
0.0
 20
0.0
 30
0.0
  3
*D1
  1

  0
LINE
  5
8F
330
3F
100
AcDbEntity
  8
寸法
  6
Continuous
 62
     0
370
    -2
100
AcDbLine
 10
6334.698871854485
 20
995.9432440616997
 30
0.0
 11
6334.698871854485
 21
1069.0625
 31
0.0
  0
LINE
  5
90
330
3F
100
AcDbEntity
  8
寸法
  6
Continuous
 62
     0
370
    -2
100
AcDbLine
 10
5734.698871854485
 20
995.9432440616997
 30
0.0
 11
5734.698871854485
 21
1069.0625
 31
0.0
  0
LINE
  5
91
330
3F
100
AcDbEntity
  8
寸法
  6
Continuous
 62
     0
370
    -2
100
AcDbLine
 10
6319.699787381829
 20
1069.0
 30
0.0
 11
5749.697956327142
 21
1069.0
 31
0.0
  0
INSERT
  5
92
330
3F
100
AcDbEntity
  8
寸法
 62
     0
370
    -2
100
AcDbBlockReference
  2
VW_EMPTYARROW
 10
6334.698871854485
 20
1069.0
 30
0.0
 41
14.99908447265625
 42
14.99908447265625
 43
14.99908447265625
  0
INSERT
  5
97
330
3F
100
AcDbEntity
  8
寸法
 62
     0
370
    -2
100
AcDbBlockReference
  2
VW_EMPTYARROW
 10
5734.698871854485
 20
1069.0
 30
0.0
 41
14.99908447265625
 42
14.99908447265625
 43
14.99908447265625
 50
180.0
  0
MTEXT
  5
9C
330
3F
100
AcDbEntity
  8
寸法
 62
     0
370
     9
100
AcDbMText
 10
6034.698871854485
 20
1077.333171834625
 30
0.0
 40
16.04134366925064
 41
0.0
 71
     5
 72
     1
  1
\A1;600
  7
Osaka
 73
     1
 44
1.0
  0
POINT
  5
9D
330
3F
100
AcDbEntity
  8
Defpoints
 62
     0
100
AcDbPoint
 10
6334.698871854485
 20
995.8807440616997
 30
0.0
  0
POINT
  5
9E
330
3F
100
AcDbEntity
  8
Defpoints
 62
     0
100
AcDbPoint
 10
5734.698871854485
 20
995.8807440616997
 30
0.0
  0
POINT
  5
9F
330
3F
100
AcDbEntity
  8
Defpoints
 62
     0
100
AcDbPoint
 10
5734.698871854485
 20
1069.0
 30
0.0
  0
ENDBLK
  5
41
330
3F
100
AcDbEntity
  8
0
100
AcDbBlockEnd
  0
BLOCK
  5
43
330
42
100
AcDbEntity
  8
0
100
AcDbBlockBegin
  2
*D2
 70
     1
 10
0.0
 20
0.0
 30
0.0
  3
*D2
  1

  0
LINE
  5
A0
330
42
100
AcDbEntity
  8
寸法
  6
Continuous
 62
     0
370
    -2
100
AcDbLine
 10
6329.261371854486
 20
500.3807440616996
 30
0.0
 11
6414.0625
 21
500.3807440616995
 31
0.0
  0
LINE
  5
A1
330
42
100
AcDbEntity
  8
寸法
  6
Continuous
 62
     0
370
    -2
100
AcDbLine
 10
6330.261371854485
 20
1000.3807440617
 30
0.0
 11
6414.0625
 21
1000.3807440617
 31
0.0
  0
LINE
  5
A2
330
42
100
AcDbEntity
  8
寸法
  6
Continuous
 62
     0
370
    -2
100
AcDbLine
 10
6414.0
 20
515.3798285343557
 30
0.0
 11
6414.0
 21
985.3816595890435
 31
0.0
  0
INSERT
  5
A3
330
42
100
AcDbEntity
  8
寸法
 62
     0
370
    -2
100
AcDbBlockReference
  2
VW_EMPTYARROW
 10
6414.0
 20
500.3807440616995
 30
0.0
 41
14.99908447265625
 42
14.99908447265625
 43
14.99908447265625
 50
270.0
  0
INSERT
  5
A8
330
42
100
AcDbEntity
  8
寸法
 62
     0
370
    -2
100
AcDbBlockReference
  2
VW_EMPTYARROW
 10
6414.0
 20
1000.3807440617
 30
0.0
 41
14.99908447265625
 42
14.99908447265625
 43
14.99908447265625
 50
90.0
  0
MTEXT
  5
AD
330
42
100
AcDbEntity
  8
寸法
 62
     0
370
     9
100
AcDbMText
 10
6405.666828165375
 20
750.3807440616996
 30
0.0
 40
16.04134366925064
 41
0.0
 71
     5
 72
     1
  1
\A1;500
  7
Osaka
 11
0.0
 21
1.0
 31
0.0
 73
     1
 44
1.0
  0
POINT
  5
AE
330
42
100
AcDbEntity
  8
Defpoints
 62
     0
100
AcDbPoint
 10
6329.198871854486
 20
500.3807440616996
 30
0.0
  0
POINT
  5
AF
330
42
100
AcDbEntity
  8
Defpoints
 62
     0
100
AcDbPoint
 10
6330.198871854485
 20
1000.3807440617
 30
0.0
  0
POINT
  5
B0
330
42
100
AcDbEntity
  8
Defpoints
 62
     0
100
AcDbPoint
 10
6414.0
 20
1000.3807440617
 30
0.0
  0
ENDBLK
  5
44
330
42
100
AcDbEntity
  8
0
100
AcDbBlockEnd
  0
BLOCK
  5
46
330
45
100
AcDbEntity
  8
0
100
AcDbBlockBegin
  2
*D3
 70
     1
 10
0.0
 20
0.0
 30
0.0
  3
*D3
  1

  0
LINE
  5
B1
330
45
100
AcDbEntity
  8
寸法
  6
Continuous
 62
     0
370
    -2
100
AcDbLine
 10
6284.698871854486
 20
536.3182440616997
 30
0.0
 11
6284.698871854486
 21
432.9375
 31
0.0
  0
LINE
  5
B2
330
45
100
AcDbEntity
  8
寸法
  6
Continuous
 62
     0
370
    -2
100
AcDbLine
 10
5784.698871854485
 20
536.3182440616997
 30
0.0
 11
5784.698871854485
 21
432.9375
 31
0.0
  0
LINE
  5
B3
330
45
100
AcDbEntity
  8
寸法
  6
Continuous
 62
     0
370
    -2
100
AcDbLine
 10
6269.69978738183
 20
433.0
 30
0.0
 11
5799.697956327142
 21
433.0
 31
0.0
  0
INSERT
  5
B4
330
45
100
AcDbEntity
  8
寸法
 62
     0
370
    -2
100
AcDbBlockReference
  2
VW_EMPTYARROW
 10
6284.698871854486
 20
433.0
 30
0.0
 41
14.99908447265625
 42
14.99908447265625
 43
14.99908447265625
  0
INSERT
  5
B9
330
45
100
AcDbEntity
  8
寸法
 62
     0
370
    -2
100
AcDbBlockReference
  2
VW_EMPTYARROW
 10
5784.698871854485
 20
433.0
 30
0.0
 41
14.99908447265625
 42
14.99908447265625
 43
14.99908447265625
 50
180.0
  0
MTEXT
  5
BE
330
45
100
AcDbEntity
  8
寸法
 62
     0
370
     9
100
AcDbMText
 10
6034.698871854485
 20
441.3331718346253
 30
0.0
 40
16.04134366925064
 41
0.0
 71
     5
 72
     1
  1
\A1;500
  7
Osaka
 73
     1
 44
1.0
  0
POINT
  5
BF
330
45
100
AcDbEntity
  8
Defpoints
 62
     0
100
AcDbPoint
 10
6284.698871854486
 20
536.3807440616997
 30
0.0
  0
POINT
  5
C0
330
45
100
AcDbEntity
  8
Defpoints
 62
     0
100
AcDbPoint
 10
5784.698871854485
 20
536.3807440616997
 30
0.0
  0
POINT
  5
C1
330
45
100
AcDbEntity
  8
Defpoints
 62
     0
100
AcDbPoint
 10
5784.698871854485
 20
433.0
 30
0.0
  0
ENDBLK
  5
47
330
45
100
AcDbEntity
  8
0
100
AcDbBlockEnd
  0
BLOCK
  5
6C
330
6B
100
AcDbEntity
  8
0
100
AcDbBlockBegin
  2
VW_EMPTYARROW
 70
     0
 10
0.0
 20
0.0
 30
0.0
  3
VW_EMPTYARROW
  1

  0
LINE
  5
6E
330
6B
100
AcDbEntity
  8
0
  6
ByBlock
 62
     0
370
    -2
100
AcDbLine
 10
0.0
 20
0.0
 30
0.0
 11
-1.0
 21
0.0
 31
0.0
  0
POLYLINE
  5
6F
330
6B
100
AcDbEntity
  8
0
  6
Continuous
 62
     0
370
    20
100
AcDb2dPolyline
 66
     1
 10
0.0
 20
0.0
 30
0.0
 70
   128
  0
VERTEX
  5
70
330
6F
100
AcDbEntity
  8
0
  6
Continuous
 62
     0
370
    20
100
AcDbVertex
100
AcDb2dVertex
 10
-0.9999389648437499
 20
0.2679328381102956
 30
0.0
  0
VERTEX
  5
71
330
6F
100
AcDbEntity
  8
0
  6
Continuous
 62
     0
370
    20
100
AcDbVertex
100
AcDb2dVertex
 10
0.0
 20
0.0
 30
0.0
  0
VERTEX
  5
72
330
6F
100
AcDbEntity
  8
0
  6
Continuous
 62
     0
370
    20
100
AcDbVertex
100
AcDb2dVertex
 10
-0.9999389648437498
 20
-0.2679328381102958
 30
0.0
  0
SEQEND
  5
73
330
6F
100
AcDbEntity
  8
0
  6
Continuous
 62
     0
370
    20
  0
ENDBLK
  5
6D
330
6B
100
AcDbEntity
  8
0
100
AcDbBlockEnd
  0
BLOCK
  5
75
330
74
100
AcDbEntity
  8
0
100
AcDbBlockBegin
  2
VW_EMPTYARROW-1
 70
     0
 10
0.0
 20
0.0
 30
0.0
  3
VW_EMPTYARROW-1
  1

  0
LINE
  5
77
330
74
100
AcDbEntity
  8
0
  6
ByBlock
 62
     0
370
    -2
100
AcDbLine
 10
0.0
 20
0.0
 30
0.0
 11
-1.0
 21
0.0
 31
0.0
  0
POLYLINE
  5
78
330
74
100
AcDbEntity
  8
0
  6
Continuous
 62
     0
370
    20
100
AcDb2dPolyline
 66
     1
 10
0.0
 20
0.0
 30
0.0
 70
   128
  0
VERTEX
  5
79
330
78
100
AcDbEntity
  8
0
  6
Continuous
 62
     0
370
    20
100
AcDbVertex
100
AcDb2dVertex
 10
-0.30540771484375
 20
0.0818337505546174
 30
0.0
  0
VERTEX
  5
7A
330
78
100
AcDbEntity
  8
0
  6
Continuous
 62
     0
370
    20
100
AcDbVertex
100
AcDb2dVertex
 10
0.0
 20
0.0
 30
0.0
  0
VERTEX
  5
7B
330
78
100
AcDbEntity
  8
0
  6
Continuous
 62
     0
370
    20
100
AcDbVertex
100
AcDb2dVertex
 10
-0.3054077148437499
 20
-0.0818337505546175
 30
0.0
  0
SEQEND
  5
7C
330
78
100
AcDbEntity
  8
0
  6
Continuous
 62
     0
370
    20
  0
ENDBLK
  5
76
330
74
100
AcDbEntity
  8
0
100
AcDbBlockEnd
  0
BLOCK
  5
7F
330
7E
100
AcDbEntity
  8
0
100
AcDbBlockBegin
  2
VW_SLASH
 70
     0
 10
0.0
 20
0.0
 30
0.0
  3
VW_SLASH
  1

  0
LINE
  5
81
330
7E
100
AcDbEntity
  8
0
  6
ByBlock
 62
     0
370
    -2
100
AcDbLine
 10
0.0
 20
0.0
 30
0.0
 11
-1.0
 21
0.0
 31
0.0
  0
POLYLINE
  5
82
330
7E
100
AcDbEntity
  8
0
  6
Continuous
 62
     0
370
    20
100
AcDb2dPolyline
 66
     1
 10
0.0
 20
0.0
 30
0.0
 70
   128
  0
VERTEX
  5
83
330
82
100
AcDbEntity
  8
0
  6
Continuous
 62
     0
370
    20
100
AcDbVertex
100
AcDb2dVertex
 10
0.4998775379892009
 20
0.4998775379892009
 30
0.0
  0
VERTEX
  5
84
330
82
100
AcDbEntity
  8
0
  6
Continuous
 62
     0
370
    20
100
AcDbVertex
100
AcDb2dVertex
 10
-0.4998775379892009
 20
-0.4998775379892009
 30
0.0
  0
SEQEND
  5
85
330
82
100
AcDbEntity
  8
0
  6
Continuous
 62
     0
370
    20
  0
ENDBLK
  5
80
330
7E
100
AcDbEntity
  8
0
100
AcDbBlockEnd
  0
BLOCK
  5
87
330
86
100
AcDbEntity
  8
0
100
AcDbBlockBegin
  2
VW_FILLEDARROW
 70
     0
 10
0.0
 20
0.0
 30
0.0
  3
VW_FILLEDARROW
  1

  0
POLYLINE
  5
89
102
{ACAD_REACTORS
330
8E
102
}
330
86
100
AcDbEntity
  8
0
  6
Continuous
 62
     0
370
     5
100
AcDb2dPolyline
 66
     1
 10
0.0
 20
0.0
 30
0.0
 70
   129
  0
VERTEX
  5
8A
330
89
100
AcDbEntity
  8
0
  6
Continuous
 62
     0
370
     5
100
AcDbVertex
100
AcDb2dVertex
 10
-1.4138671875
 20
0.3788445710954878
 30
0.0
  0
VERTEX
  5
8B
330
89
100
AcDbEntity
  8
0
  6
Continuous
 62
     0
370
     5
100
AcDbVertex
100
AcDb2dVertex
 10
0.0
 20
0.0
 30
0.0
  0
VERTEX
  5
8C
330
89
100
AcDbEntity
  8
0
  6
Continuous
 62
     0
370
     5
100
AcDbVertex
100
AcDb2dVertex
 10
-1.4138671875
 20
-0.3788445710954881
 30
0.0
  0
SEQEND
  5
8D
330
89
100
AcDbEntity
  8
0
  6
Continuous
 62
     0
370
     5
  0
HATCH
  5
8E
330
86
100
AcDbEntity
  8
0
  6
Continuous
 62
     0
370
     0
100
AcDbHatch
 10
0.0
 20
0.0
 30
0.0
210
0.0
220
0.0
230
1.0
  2
SOLID
 70
     1
 71
     1
 91
        1
 92
        1
 93
        3
 72
     1
 10
-1.4138671875
 20
0.3788445710954878
 11
0.0
 21
0.0
 72
     1
 10
0.0
 20
0.0
 11
-1.4138671875
 21
-0.3788445710954881
 72
     1
 10
-1.4138671875
 20
-0.3788445710954881
 11
-1.4138671875
 21
0.3788445710954879
 97
        1
330
89
 75
     0
 76
     1
 98
        1
 10
0.0
 20
0.0
  0
ENDBLK
  5
88
330
86
100
AcDbEntity
  8
0
100
AcDbBlockEnd
  0
ENDSEC
  0
SECTION
  2
ENTITIES
  0
CIRCLE
  5
C2
330
1F
100
AcDbEntity
  8
0
  6
Continuous
 62
     7
100
AcDbCircle
 10
6034.408871854484
 20
790.3807440617002
 30
0.0
 40
24.75
  0
LINE
  5
C3
330
1F
100
AcDbEntity
  8
0
  6
Continuous
 62
     7
100
AcDbLine
 10
5739.198871854485
 20
1000.380744061699
 30
0.0
 11
6330.198871854485
 21
1000.380744061699
 31
0.0
  0
LINE
  5
C4
330
1F
100
AcDbEntity
  8
sen-h
  6
ISO-02 破線
 62
     7
370
     9
100
AcDbLine
 10
5741.998871854485
 20
994.0807440617
 30
0.0
 11
6327.398871854486
 21
994.0807440617
 31
0.0
  0
CIRCLE
  5
C5
330
1F
100
AcDbEntity
  8
sen2
 62
     7
100
AcDbCircle
 10
6034.698871854486
 20
790.3807440617002
 30
0.0
 40
37.5
  0
ARC
  5
C6
330
1F
100
AcDbEntity
  8
sen2
 62
     7
100
AcDbCircle
 10
6034.698871854486
 20
2971.680744061699
 30
0.0
 40
2107.977881540512
100
AcDbArc
 50
263.810000000001
 51
276.189999999999
  0
LINE
  5
C7
330
1F
100
AcDbEntity
  8
0
  6
Continuous
 62
     7
100
AcDbLine
 10
6278.698871854485
 20
880.3807440616997
 30
0.0
 11
5790.698871854485
 21
880.3807440616997
 31
0.0
  0
LINE
  5
C8
330
1F
100
AcDbEntity
  8
sen-c
 62
     7
100
AcDbLine
 10
5978.338762908423
 20
790.3807440616997
 30
0.0
 11
6091.058980800548
 21
790.3807440616997
 31
0.0
  0
LINE
  5
C9
330
1F
100
AcDbEntity
  8
0
  6
Continuous
 62
     7
100
AcDbLine
 10
6329.198871854486
 20
500.3807440616997
 30
0.0
 11
5740.198871854485
 21
500.3807440616997
 31
0.0
  0
ARC
  5
CA
330
1F
100
AcDbEntity
  8
sen2
 62
     7
100
AcDbCircle
 10
6034.698871854486
 20
-79.2192559383002
 30
0.0
 40
658.9380320520061
100
AcDbArc
 50
69.92000000000158
 51
110.0799999999984
  0
LINE
  5
CB
330
1F
100
AcDbEntity
  8
0
  6
Continuous
 62
     7
100
AcDbLine
 10
6278.698871854485
 20
530.3807440616997
 30
0.0
 11
5790.698871854485
 21
530.3807440616997
 31
0.0
  0
LINE
  5
CC
330
1F
100
AcDbEntity
  8
sen-h
  6
ISO-02 破線
 62
     7
370
     9
100
AcDbLine
 10
6327.398871854484
 20
506.6807440616998
 30
0.0
 11
5741.998871854485
 21
506.6807440616998
 31
0.0
  0
LINE
  5
CD
330
1F
100
AcDbEntity
  8
0
  6
Continuous
 62
     7
100
AcDbLine
 10
6035.703671854484
 20
168.9595581155414
 30
0.0
 11
6055.198871854486
 21
168.9595581155414
 31
0.0
  0
LINE
  5
CE
330
1F
100
AcDbEntity
  8
0
  6
Continuous
 62
     7
100
AcDbLine
 10
6035.703671854484
 20
166.2095581155414
 30
0.0
 11
6069.70246818285
 21
166.2095581155414
 31
0.0
  0
ARC
  5
CF
330
1F
100
AcDbEntity
  8
0
  6
Continuous
 62
     7
100
AcDbCircle
 10
6034.698871854486
 20
647.4312656725247
 30
0.0
 40
469.2217075569835
100
AcDbArc
 50
263.623521846902
 51
276.3764781530979
  0
LINE
  5
D0
330
1F
100
AcDbEntity
  8
0
  6
Continuous
 62
     7
100
AcDbLine
 10
6328.056718239332
 20
318.2095581155414
 30
0.0
 11
5741.341025469639
 21
318.2095581155414
 31
0.0
  0
LINE
  5
D1
330
1F
100
AcDbEntity
  8
sen-h
 62
     7
100
AcDbLine
 10
6225.547102848763
 20
238.2095581155414
 30
0.0
 11
5843.850640860208
 21
238.2095581155414
 31
0.0
  0
LINE
  5
D2
330
1F
100
AcDbEntity
  8
0
  6
Continuous
 62
     7
100
AcDbLine
 10
5784.698871854486
 20
536.3807440616997
 30
0.0
 11
5784.698871854486
 21
874.3807440616997
 31
0.0
  0
LINE
  5
D3
330
1F
100
AcDbEntity
  8
sen-c
 62
     7
100
AcDbLine
 10
6034.698871854486
 20
842.0
 30
0.0
 11
6034.698871854486
 21
732.0
 31
0.0
  0
LINE
  5
D4
330
1F
100
AcDbEntity
  8
sen-h
  6
ISO-02 破線
 62
     7
370
     9
100
AcDbLine
 10
5740.998871854484
 20
507.6807440616999
 30
0.0
 11
5740.998871854484
 21
993.0807440617
 31
0.0
  0
LINE
  5
D5
330
1F
100
AcDbEntity
  8
0
  6
Continuous
 62
     7
100
AcDbLine
 10
5734.698871854486
 20
505.8807440616996
 30
0.0
 11
5734.698871854486
 21
995.8807440616997
 31
0.0
  0
LINE
  5
D6
330
1F
100
AcDbEntity
  8
sen-c
 62
     7
100
AcDbLine
 10
6034.698871854486
 20
345.9745220795908
 30
0.0
 11
6034.698871854486
 21
153.5095581155407
 31
0.0
  0
LINE
  5
D7
330
1F
100
AcDbEntity
  8
0
  6
Continuous
 62
     7
100
AcDbLine
 10
5743.52600787408
 20
310.8581898771504
 30
0.0
 11
5741.036198662758
 21
239.1748456069878
 31
0.0
  0
ARC
  5
D8
330
1F
100
AcDbEntity
  8
0
  6
Continuous
 62
     7
100
AcDbCircle
 10
6024.909673837279
 20
459.9871867831057
 30
0.0
 40
286.3000000000001
100
AcDbArc
 50
211.9237833072927
 51
238.233277843436
  0
ARC
  5
D9
330
1F
100
AcDbEntity
  8
0
  6
Continuous
 62
     7
100
AcDbCircle
 10
6024.909673837279
 20
459.9871867831057
 30
0.0
 40
280.0000000000002
100
AcDbArc
 50
211.9237833072927
 51
238.236483889889
  0
LINE
  5
DA
330
1F
100
AcDbEntity
  8
0
  6
Continuous
 62
     7
100
AcDbLine
 10
5737.34343611254
 20
314.3484081497541
 30
0.0
 11
5734.698871854486
 21
238.2095581155414
 31
0.0
  0
LINE
  5
DB
330
1F
100
AcDbEntity
  8
0
  6
Continuous
 62
     7
100
AcDbLine
 10
5843.850640860208
 20
238.2095581155414
 30
0.0
 11
5734.698871854486
 21
238.2095581155414
 31
0.0
  0
LINE
  5
DC
330
1F
100
AcDbEntity
  8
0
  6
Continuous
 62
     7
100
AcDbLine
 10
6009.948871854486
 20
171.1268225358231
 30
0.0
 11
6009.948871854486
 21
166.2095581155414
 31
0.0
  0
ARC
  5
DD
330
1F
100
AcDbEntity
  8
0
  6
Continuous
 62
     7
100
AcDbCircle
 10
5994.597704668837
 20
169.7689781429504
 30
0.0
 40
3.000000000000135
100
AcDbArc
 50
3.289242678500111
 51
82.17043272477949
  0
LINE
  5
DE
330
1F
100
AcDbEntity
  8
0
  6
Continuous
 62
     7
100
AcDbLine
 10
6034.698871854486
 20
167.9547581155408
 30
0.0
 11
6035.703671854484
 21
168.9595581155414
 31
0.0
  0
LINE
  5
DF
330
1F
100
AcDbEntity
  8
0
  6
Continuous
 62
     7
100
AcDbLine
 10
6034.698871854486
 20
167.214358115542
 30
0.0
 11
6035.703671854484
 21
166.2095581155414
 31
0.0
  0
LINE
  5
E0
330
1F
100
AcDbEntity
  8
0
  6
Continuous
 62
     7
100
AcDbLine
 10
6033.694071854484
 20
166.2095581155414
 30
0.0
 11
5999.695275526121
 21
166.2095581155414
 31
0.0
  0
LINE
  5
E1
330
1F
100
AcDbEntity
  8
0
  6
Continuous
 62
     7
100
AcDbLine
 10
6033.694071854484
 20
168.9595581155414
 30
0.0
 11
6014.198871854485
 21
168.9595581155414
 31
0.0
  0
ARC
  5
E2
330
1F
100
AcDbEntity
  8
0
  6
Continuous
 62
     7
100
AcDbCircle
 10
5999.695577067891
 20
168.2095581155414
 30
0.0
 40
1.999999999999784
100
AcDbArc
 50
183.289242678499
 51
270.0
  0
LINE
  5
E3
330
1F
100
AcDbEntity
  8
0
  6
Continuous
 62
     7
100
AcDbLine
 10
5997.698871854485
 20
168.0948049423574
 30
0.0
 11
5997.592762488946
 21
169.9411079027273
 31
0.0
  0
ARC
  5
E4
330
1F
100
AcDbEntity
  8
0
  6
Continuous
 62
     7
100
AcDbCircle
 10
5991.269575191504
 20
159.4315646963256
 30
0.0
 40
20.00000000000025
100
AcDbArc
 50
53.47117696961613
 51
81.83222979169136
  0
ARC
  5
E5
330
1F
100
AcDbEntity
  8
0
  6
Continuous
 62
     7
100
AcDbCircle
 10
6040.673424251956
 20
226.1268396265028
 30
0.0
 40
63.00000000000004
100
AcDbArc
 50
233.471176969617
 51
245.1508282620559
  0
LINE
  5
E6
330
1F
100
AcDbEntity
  8
0
  6
Continuous
 62
     7
100
AcDbLine
 10
6034.698871854486
 20
167.214358115542
 30
0.0
 11
6033.694071854484
 21
166.2095581155414
 31
0.0
  0
LINE
  5
E7
330
1F
100
AcDbEntity
  8
0
  6
Continuous
 62
     7
100
AcDbLine
 10
6034.698871854486
 20
167.9547581155408
 30
0.0
 11
6033.694071854484
 21
168.9595581155414
 31
0.0
  0
ARC
  5
E8
330
1F
100
AcDbEntity
  8
0
  6
Continuous
 62
     7
100
AcDbCircle
 10
6036.732661982068
 20
476.1855824127129
 30
0.0
 40
306.3000000000002
100
AcDbArc
 50
237.9481919122761
 51
262.1704327247754
  0
ARC
  5
E9
330
1F
100
AcDbEntity
  8
0
  6
Continuous
 62
     7
100
AcDbCircle
 10
6036.732661982068
 20
476.1855824127129
 30
0.0
 40
299.9999999999999
100
AcDbArc
 50
237.9451974049871
 51
261.8322297916917
  0
ARC
  5
EA
330
1F
100
AcDbEntity
  8
0
  6
Continuous
 62
     7
100
AcDbCircle
 10
5713.754741413648
 20
-797.4494385908815
 30
0.0
 40
1116.0
100
AcDbArc
 50
86.62989531055354
 51
88.58356751357384
  0
ARC
  5
EB
330
1F
100
AcDbEntity
  8
0
  6
Continuous
 62
     7
100
AcDbCircle
 10
5713.754741413648
 20
-797.4494385908815
 30
0.0
 40
1109.7
100
AcDbArc
 50
86.62989531055351
 51
88.40961884805917
  0
ARC
  5
EC
330
1F
100
AcDbEntity
  8
0
  6
Continuous
 62
     7
100
AcDbCircle
 10
5744.525405213353
 20
310.8234773685968
 30
0.0
 40
1.000000000000008
100
AcDbArc
 50
88.40961884807783
 51
178.0107201272489
  0
ARC
  5
ED
330
1F
100
AcDbEntity
  8
0
  6
Continuous
 62
     7
100
AcDbCircle
 10
5741.341025469639
 20
314.2095581155414
 30
0.0
 40
4.0
100
AcDbArc
 50
90.0
 51
178.0107201272501
  0
ARC
  5
EE
330
1F
100
AcDbEntity
  8
0
  6
Continuous
 62
     7
100
AcDbCircle
 10
5778.771518055473
 20
306.6378852902986
 30
0.0
 40
3.699999999999725
100
AcDbArc
 50
31.92378330729507
 51
86.62989531055014
  0
ARC
  5
EF
330
1F
100
AcDbEntity
  8
0
  6
Continuous
 62
     7
100
AcDbCircle
 10
5778.771518055473
 20
306.6378852902986
 30
0.0
 40
9.999999999999657
100
AcDbArc
 50
31.9237833072937
 51
86.62989531055462
  0
LINE
  5
F0
330
1F
100
AcDbEntity
  8
sen-c
 62
     7
100
AcDbLine
 10
5950.122871854485
 20
288.2095581155414
 30
0.0
 11
5999.274871854485
 21
288.2095581155414
 31
0.0
  0
CIRCLE
  5
F1
330
1F
100
AcDbEntity
  8
0
  6
Continuous
 62
     7
100
AcDbCircle
 10
5974.698871854485
 20
288.2095581155414
 30
0.0
 40
15.0
  0
LINE
  5
F2
330
1F
100
AcDbEntity
  8
sen-c
 62
     7
100
AcDbLine
 10
5974.698871854485
 20
312.7855581155414
 30
0.0
 11
5974.698871854485
 21
263.6335581155413
 31
0.0
  0
ARC
  5
F3
330
1F
100
AcDbEntity
  8
sen-h
 62
     7
100
AcDbCircle
 10
5741.998871854485
 20
507.6807440616999
 30
0.0
 40
1.0
100
AcDbArc
 50
180.0
 51
270.0
  0
ARC
  5
F4
330
1F
100
AcDbEntity
  8
0
  6
Continuous
 62
     7
100
AcDbCircle
 10
5740.198871854485
 20
505.8807440616996
 30
0.0
 40
5.5
100
AcDbArc
 50
180.0
 51
270.0
  0
ARC
  5
F5
330
1F
100
AcDbEntity
  8
0
  6
Continuous
 62
     7
100
AcDbCircle
 10
5790.698871854485
 20
536.3807440616997
 30
0.0
 40
6.0
100
AcDbArc
 50
180.0
 51
270.0
  0
ARC
  5
F6
330
1F
100
AcDbEntity
  8
0
  6
Continuous
 62
     7
100
AcDbCircle
 10
5790.698871854485
 20
874.3807440616997
 30
0.0
 40
6.0
100
AcDbArc
 50
90.0
 51
180.0
  0
ARC
  5
F7
330
1F
100
AcDbEntity
  8
sen-h
 62
     7
100
AcDbCircle
 10
5741.998871854485
 20
993.0807440617
 30
0.0
 40
1.0
100
AcDbArc
 50
90.0
 51
180.0
  0
ARC
  5
F8
330
1F
100
AcDbEntity
  8
0
  6
Continuous
 62
     7
100
AcDbCircle
 10
5739.198871854485
 20
995.8807440616997
 30
0.0
 40
4.5
100
AcDbArc
 50
90.0
 51
180.0
  0
ARC
  5
F9
330
1F
100
AcDbEntity
  8
0
 62
     7
100
AcDbCircle
 10
-1403.369979433553
 20
1111.326948278406
 30
0.0
 40
8095.456384698539
100
AcDbArc
 50
356.290187147804
 51
357.445025457725
  0
ARC
  5
FA
330
1F
100
AcDbEntity
  8
0
 62
     7
100
AcDbCircle
 10
-1403.369979433553
 20
1111.326948278406
 30
0.0
 40
8089.156384698537
100
AcDbArc
 50
356.290187147804
 51
357.4334792835397
  0
LINE
  5
FB
330
1F
100
AcDbEntity
  8
0
  6
Continuous
 62
     7
100
AcDbLine
 10
6284.698871854486
 20
536.3807440616997
 30
0.0
 11
6284.698871854486
 21
874.3807440616997
 31
0.0
  0
LINE
  5
FC
330
1F
100
AcDbEntity
  8
0
  6
Continuous
 62
     7
100
AcDbLine
 10
6334.698871854485
 20
995.8807440616997
 30
0.0
 11
6334.698871854485
 21
505.8807440616996
 31
0.0
  0
LINE
  5
FD
330
1F
100
AcDbEntity
  8
sen-h
 62
     7
100
AcDbLine
 10
6617.988610208975
 20
877.1407440616995
 30
0.0
 11
6617.988610208975
 21
553.5607440616996
 31
0.0
  0
LINE
  5
FE
330
1F
100
AcDbEntity
  8
0
 62
     7
100
AcDbLine
 10
6537.988610208976
 20
507.0271769133515
 30
0.0
 11
6537.988610208978
 21
996.0376195817062
 31
0.0
  0
LINE
  5
FF
330
1F
100
AcDbEntity
  8
sen-h
  6
ISO-02 破線
 62
     7
370
     9
100
AcDbLine
 10
6328.398871854486
 20
993.0807440617
 30
0.0
 11
6328.398871854484
 21
507.6807440616999
 31
0.0
  0
LINE
  5
100
330
1F
100
AcDbEntity
  8
0
  6
Continuous
 62
     7
100
AcDbLine
 10
6332.054307596431
 20
314.3484081497541
 30
0.0
 11
6334.698871854485
 21
238.2095581155414
 31
0.0
  0
LINE
  5
101
330
1F
100
AcDbEntity
  8
0
  6
Continuous
 62
     7
100
AcDbLine
 10
6325.871735834891
 20
310.8581898771504
 30
0.0
 11
6328.361545046213
 21
239.1748456069878
 31
0.0
  0
ARC
  5
102
330
1F
100
AcDbEntity
  8
0
  6
Continuous
 62
     7
100
AcDbCircle
 10
6044.488069871691
 20
459.9871867831057
 30
0.0
 40
286.2999999999999
100
AcDbArc
 50
301.7667221565638
 51
328.0762166927072
  0
ARC
  5
103
330
1F
100
AcDbEntity
  8
0
  6
Continuous
 62
     7
100
AcDbCircle
 10
6044.488069871691
 20
459.9871867831057
 30
0.0
 40
280.0000000000002
100
AcDbArc
 50
301.763516110111
 51
328.0762166927073
  0
LINE
  5
104
330
1F
100
AcDbEntity
  8
0
  6
Continuous
 62
     7
100
AcDbLine
 10
6059.448871854485
 20
171.1268225358231
 30
0.0
 11
6059.448871854485
 21
166.2095581155414
 31
0.0
  0
ARC
  5
105
330
1F
100
AcDbEntity
  8
0
  6
Continuous
 62
     7
100
AcDbCircle
 10
6074.800039040132
 20
169.7689781429504
 30
0.0
 40
3.000000000000102
100
AcDbArc
 50
97.82956727523774
 51
176.7107573215042
  0
ARC
  5
106
330
1F
100
AcDbEntity
  8
0
  6
Continuous
 62
     7
100
AcDbCircle
 10
6069.702166641079
 20
168.2095581155414
 30
0.0
 40
2.0
100
AcDbArc
 50
270.0
 51
356.710757321501
  0
LINE
  5
107
330
1F
100
AcDbEntity
  8
0
  6
Continuous
 62
     7
100
AcDbLine
 10
6071.698871854485
 20
168.0948049423574
 30
0.0
 11
6071.804981220024
 21
169.9411079027273
 31
0.0
  0
ARC
  5
108
330
1F
100
AcDbEntity
  8
0
  6
Continuous
 62
     7
100
AcDbCircle
 10
6078.128168517467
 20
159.4315646963256
 30
0.0
 40
19.99999999999999
100
AcDbArc
 50
98.16777020830865
 51
126.5288230303839
  0
ARC
  5
109
330
1F
100
AcDbEntity
  8
0
  6
Continuous
 62
     7
100
AcDbCircle
 10
6028.724319457015
 20
226.1268396265028
 30
0.0
 40
62.99999999999986
100
AcDbArc
 50
294.8491717379433
 51
306.528823030383
  0
ARC
  5
10A
330
1F
100
AcDbEntity
  8
0
  6
Continuous
 62
     7
100
AcDbCircle
 10
6032.665081726904
 20
476.1855824127129
 30
0.0
 40
306.3000000000001
100
AcDbArc
 50
277.8295672752246
 51
302.0518080877237
  0
ARC
  5
10B
330
1F
100
AcDbEntity
  8
0
  6
Continuous
 62
     7
100
AcDbCircle
 10
6032.665081726904
 20
476.1855824127129
 30
0.0
 40
299.9999999999999
100
AcDbArc
 50
278.1677702083082
 51
302.0548025950128
  0
LINE
  5
10C
330
1F
100
AcDbEntity
  8
0
  6
Continuous
 62
     7
100
AcDbLine
 10
6225.547102848763
 20
238.2095581155414
 30
0.0
 11
6334.698871854485
 21
238.2095581155414
 31
0.0
  0
ARC
  5
10D
330
1F
100
AcDbEntity
  8
0
  6
Continuous
 62
     7
100
AcDbCircle
 10
6355.64300229532
 20
-797.4494385908815
 30
0.0
 40
1109.7
100
AcDbArc
 50
91.59038115194083
 51
93.37010468944646
  0
ARC
  5
10E
330
1F
100
AcDbEntity
  8
0
  6
Continuous
 62
     7
100
AcDbCircle
 10
6355.64300229532
 20
-797.4494385908815
 30
0.0
 40
1116.0
100
AcDbArc
 50
91.41643248642617
 51
93.37010468944649
  0
ARC
  5
10F
330
1F
100
AcDbEntity
  8
0
  6
Continuous
 62
     7
100
AcDbCircle
 10
6290.626225653497
 20
306.6378852902986
 30
0.0
 40
9.999999999999982
100
AcDbArc
 50
93.37010468944537
 51
148.0762166927063
  0
ARC
  5
110
330
1F
100
AcDbEntity
  8
0
  6
Continuous
 62
     7
100
AcDbCircle
 10
6290.626225653497
 20
306.6378852902986
 30
0.0
 40
3.7
100
AcDbArc
 50
93.37010468944989
 51
148.0762166927049
  0
ARC
  5
111
330
1F
100
AcDbEntity
  8
0
  6
Continuous
 62
     7
100
AcDbCircle
 10
6328.056718239332
 20
314.2095581155414
 30
0.0
 40
3.999999999999976
100
AcDbArc
 50
1.989279872749879
 51
90.0
  0
ARC
  5
112
330
1F
100
AcDbEntity
  8
0
  6
Continuous
 62
     7
100
AcDbCircle
 10
6324.872338495616
 20
310.8234773685968
 30
0.0
 40
0.9999999999997671
100
AcDbArc
 50
1.989279872751144
 51
91.5903811519222
  0
ARC
  5
113
330
1F
100
AcDbEntity
  8
0
 62
     7
100
AcDbCircle
 10
6909.475393502294
 20
487.4933642188397
 30
0.0
 40
372.0000000000003
100
AcDbArc
 50
173.9989693890258
 51
176.9900000000019
  0
ARC
  5
114
330
1F
100
AcDbEntity
  8
0
 62
     7
100
AcDbCircle
 10
6909.475393502294
 20
487.4933642188397
 30
0.0
 40
365.7
100
AcDbArc
 50
174.0759599374819
 51
176.4291962493343
  0
LINE
  5
115
330
1F
100
AcDbEntity
  8
0
 62
     7
100
AcDbLine
 10
6617.988610208975
 20
500.3807440616997
 30
0.0
 11
6617.988610208978
 21
553.5616909845475
 31
0.0
  0
ARC
  5
116
330
1F
100
AcDbEntity
  8
0
  6
Continuous
 62
     7
100
AcDbCircle
 10
6329.198871854486
 20
505.8807440616996
 30
0.0
 40
5.5
100
AcDbArc
 50
270.0
 51
0.0
  0
ARC
  5
117
330
1F
100
AcDbEntity
  8
sen-h
 62
     7
100
AcDbCircle
 10
6327.398871854484
 20
507.6807440616999
 30
0.0
 40
1.0
100
AcDbArc
 50
270.0
 51
0.0
  0
LINE
  5
118
330
1F
100
AcDbEntity
  8
0
 62
     7
100
AcDbLine
 10
6545.448655274213
 20
509.2081946235967
 30
0.0
 11
6617.023378818791
 21
506.7181354711556
 31
0.0
  0
LINE
  5
119
330
1F
100
AcDbEntity
  8
0
 62
     7
100
AcDbLine
 10
6541.849535769717
 20
503.0295953569166
 30
0.0
 11
6617.988610208975
 21
500.3807440616997
 31
0.0
  0
ARC
  5
11A
330
1F
100
AcDbEntity
  8
0
 62
     7
100
AcDbCircle
 10
6545.483423884028
 20
510.2075900127056
 30
0.0
 40
1.000000000000093
100
AcDbArc
 50
176.4291962493315
 51
268.0075038202551
  0
ARC
  5
11B
330
1F
100
AcDbEntity
  8
0
 62
     7
100
AcDbCircle
 10
6541.988610208978
 20
507.0271769133515
 30
0.0
 40
4.0
100
AcDbArc
 50
180.0
 51
268.007503820229
  0
ARC
  5
11C
330
1F
100
AcDbEntity
  8
0
 62
     7
100
AcDbCircle
 10
6616.988610208976
 20
505.7187400820466
 30
0.0
 40
1.0
100
AcDbArc
 50
0.0
 51
88.00750382025508
  0
ARC
  5
11D
330
1F
100
AcDbEntity
  8
0
  6
Continuous
 62
     7
100
AcDbCircle
 10
6278.698871854485
 20
536.3807440616997
 30
0.0
 40
6.0
100
AcDbArc
 50
270.0
 51
0.0
  0
LINE
  5
11E
330
1F
100
AcDbEntity
  8
0
 62
     7
100
AcDbLine
 10
6546.364666609143
 20
526.0675880398516
 30
0.0
 11
6662.77979031924
 21
570.7555685493797
 31
0.0
  0
LINE
  5
11F
330
1F
100
AcDbEntity
  8
0
 62
     7
100
AcDbLine
 10
6543.64891811375
 20
531.7733217449872
 30
0.0
 11
6660.522054562708
 21
576.6371184517164
 31
0.0
  0
ARC
  5
120
330
1F
100
AcDbEntity
  8
0
 62
     7
100
AcDbCircle
 10
6545.978328021284
 20
525.7050559727359
 30
0.0
 40
6.500000000000079
100
AcDbArc
 50
111.0001721770289
 51
173.9989693890259
  0
ARC
  5
121
330
1F
100
AcDbEntity
  8
0
 62
     7
100
AcDbCircle
 10
6546.72303736415
 20
525.1340086902746
 30
0.0
 40
1.00000000000002
100
AcDbArc
 50
111.0001721770244
 51
174.0759599374834
  0
ARC
  5
122
330
1F
100
AcDbEntity
  8
0
 62
     7
100
AcDbCircle
 10
6655.86323474764
 20
588.7736499962202
 30
0.0
 40
19.29999999999986
100
AcDbArc
 50
291.0001721770253
 51
356.2901871478019
  0
ARC
  5
123
330
1F
100
AcDbEntity
  8
0
 62
     7
100
AcDbCircle
 10
6655.86323474764
 20
588.7736499962202
 30
0.0
 40
12.99999999999983
100
AcDbArc
 50
291.0001721770251
 51
356.2901871478018
  0
LINE
  5
124
330
1F
100
AcDbEntity
  8
0
  6
Continuous
 62
     7
100
AcDbLine
 10
6683.812634407778
 20
830.2980496396076
 30
0.0
 11
6682.394311827883
 21
856.5125635300951
 31
0.0
  0
LINE
  5
125
330
1F
100
AcDbEntity
  8
0
  6
Continuous
 62
     7
100
AcDbLine
 10
6677.420066819827
 20
831.8386494611527
 30
0.0
 11
6676.103512610421
 21
856.1722031246727
 31
0.0
  0
ARC
  5
126
330
1F
100
AcDbEntity
  8
0
  6
Continuous
 62
     7
100
AcDbCircle
 10
6631.1333370864
 20
795.8634732347372
 30
0.0
 40
61.82963599632748
100
AcDbArc
 50
324.3796560088716
 51
335.1508282620562
  0
LINE
  5
127
330
1F
100
AcDbEntity
  8
0
  6
Continuous
 62
     7
100
AcDbLine
 10
6689.988610208977
 20
789.3759440616999
 30
0.0
 11
6689.988610208977
 21
755.3771477333357
 31
0.0
  0
LINE
  5
128
330
1F
100
AcDbEntity
  8
sen-c
 62
     7
100
AcDbLine
 10
6518.386749801587
 20
750.3807440617
 30
0.0
 11
6706.511486893581
 21
750.3807440617
 31
0.0
  0
ARC
  5
129
330
1F
100
AcDbEntity
  8
0
 62
     7
100
AcDbCircle
 10
6687.035806659816
 20
750.314439892043
 30
0.0
 40
3.000000000000024
100
AcDbArc
 50
93.28924267850132
 51
177.4450254577867
  0
LINE
  5
12A
330
1F
100
AcDbEntity
  8
0
  6
Continuous
 62
     7
100
AcDbLine
 10
6688.103363382161
 20
753.3807440617
 30
0.0
 11
6686.86367690004
 21
753.3094977121527
 31
0.0
  0
ARC
  5
12B
330
1F
100
AcDbEntity
  8
0
 62
     7
100
AcDbCircle
 10
6697.652158487293
 20
748.2049406647184
 30
0.0
 40
20.00000000000035
100
AcDbArc
 50
144.3796560088724
 51
177.4334792835422
  0
ARC
  5
12C
330
1F
100
AcDbEntity
  8
0
  6
Continuous
 62
     7
100
AcDbCircle
 10
6687.988610208975
 20
755.3774492751062
 30
0.0
 40
2.000000000000034
100
AcDbArc
 50
273.28924267851
 51
0.0
  0
LINE
  5
12D
330
1F
100
AcDbEntity
  8
0
  6
Continuous
 62
     7
100
AcDbLine
 10
6685.067426252604
 20
815.1307440617
 30
0.0
 11
6689.988610208977
 21
815.1307440617
 31
0.0
  0
LINE
  5
12E
330
1F
100
AcDbEntity
  8
0
  6
Continuous
 62
     7
100
AcDbLine
 10
6685.067426252605
 20
765.6307440617
 30
0.0
 11
6689.988610208977
 21
765.6307440617
 31
0.0
  0
LINE
  5
12F
330
1F
100
AcDbEntity
  8
sen-c
 62
     7
100
AcDbLine
 10
6675.075723810363
 20
790.3807440617002
 30
0.0
 11
6702.151496607591
 21
790.3807440617002
 31
0.0
  0
LINE
  5
130
330
1F
100
AcDbEntity
  8
0
  6
Continuous
 62
     7
100
AcDbLine
 10
6688.103363382161
 20
827.3807440617002
 30
0.0
 11
6686.636123322982
 21
827.4650682030323
 31
0.0
  0
ARC
  5
131
330
1F
100
AcDbEntity
  8
0
  6
Continuous
 62
     7
100
AcDbCircle
 10
6686.808253082761
 20
830.460126023142
 30
0.0
 40
3.00000000000041
100
AcDbArc
 50
183.0969386913679
 51
266.7107573214988
  0
ARC
  5
132
330
1F
100
AcDbEntity
  8
0
  6
Continuous
 62
     7
100
AcDbCircle
 10
6631.1333370864
 20
784.8980148886639
 30
0.0
 40
61.82963599632584
100
AcDbArc
 50
24.84917173794384
 51
35.93329192815334
  0
LINE
  5
133
330
1F
100
AcDbEntity
  8
0
  6
Continuous
 62
     7
100
AcDbLine
 10
6688.983810208977
 20
790.3807440617002
 30
0.0
 11
6689.988610208977
 21
791.3855440617003
 31
0.0
  0
LINE
  5
134
330
1F
100
AcDbEntity
  8
0
  6
Continuous
 62
     7
100
AcDbLine
 10
6688.983810208977
 20
790.3807440617002
 30
0.0
 11
6689.988610208977
 21
789.3759440616999
 31
0.0
  0
LINE
  5
135
330
1F
100
AcDbEntity
  8
0
  6
Continuous
 62
     7
100
AcDbLine
 10
6688.243410208979
 20
790.3807440617002
 30
0.0
 11
6687.238610208978
 21
791.3855440617003
 31
0.0
  0
LINE
  5
136
330
1F
100
AcDbEntity
  8
0
  6
Continuous
 62
     7
100
AcDbLine
 10
6688.243410208979
 20
790.3807440617002
 30
0.0
 11
6687.238610208978
 21
789.3759440616999
 31
0.0
  0
LINE
  5
137
330
1F
100
AcDbEntity
  8
0
  6
Continuous
 62
     7
100
AcDbLine
 10
6687.238610208978
 20
791.3855440617003
 30
0.0
 11
6687.238610208978
 21
810.8807440617
 31
0.0
  0
LINE
  5
138
330
1F
100
AcDbEntity
  8
0
  6
Continuous
 62
     7
100
AcDbLine
 10
6689.988610208977
 20
791.3855440617003
 30
0.0
 11
6689.988610208977
 21
825.3843403900646
 31
0.0
  0
ARC
  5
139
330
1F
100
AcDbEntity
  8
0
  6
Continuous
 62
     7
100
AcDbCircle
 10
6697.390857986373
 20
832.9191586847155
 30
0.0
 40
20.00000000000031
100
AcDbArc
 50
183.0969386913678
 51
215.9332919281534
  0
ARC
  5
13A
330
1F
100
AcDbEntity
  8
0
  6
Continuous
 62
     7
100
AcDbCircle
 10
6687.988610208975
 20
825.384038848294
 30
0.0
 40
2.0
100
AcDbArc
 50
0.0
 51
86.71075732149002
  0
LINE
  5
13B
330
1F
100
AcDbEntity
  8
0
  6
Continuous
 62
     7
100
AcDbLine
 10
6687.238610208978
 20
789.3759440616999
 30
0.0
 11
6687.238610208978
 21
769.8807440617
 31
0.0
  0
ARC
  5
13C
330
1F
100
AcDbEntity
  8
0
  6
Continuous
 62
     7
100
AcDbCircle
 10
6278.698871854485
 20
874.3807440616997
 30
0.0
 40
6.0
100
AcDbArc
 50
0.0
 51
90.0
  0
ARC
  5
13D
330
1F
100
AcDbEntity
  8
0
  6
Continuous
 62
     7
100
AcDbCircle
 10
6330.198871854485
 20
995.8807440616997
 30
0.0
 40
4.5
100
AcDbArc
 50
0.0
 51
90.0
  0
ARC
  5
13E
330
1F
100
AcDbEntity
  8
sen-h
 62
     7
100
AcDbCircle
 10
6327.398871854486
 20
993.0807440617
 30
0.0
 40
1.0
100
AcDbArc
 50
0.0
 51
90.0
  0
ARC
  5
13F
330
1F
100
AcDbEntity
  8
0
 62
     7
100
AcDbCircle
 10
13572.69888082198
 20
1059.884377776019
 30
0.0
 40
7028.7
100
AcDbArc
 50
180.5549872799666
 51
181.4108481971284
  0
ARC
  5
140
330
1F
100
AcDbEntity
  8
0
 62
     7
100
AcDbCircle
 10
13572.69888082198
 20
1059.884377776019
 30
0.0
 40
7035.000000000001
100
AcDbArc
 50
180.5200000000035
 51
181.4270245726151
  0
LINE
  5
141
330
1F
100
AcDbEntity
  8
0
 62
     7
100
AcDbLine
 10
6617.988610208978
 20
877.1377162371818
 30
0.0
 11
6617.988610208975
 21
1000.3807440617
 31
0.0
  0
LINE
  5
142
330
1F
100
AcDbEntity
  8
0
 62
     7
100
AcDbLine
 10
6544.269407164503
 20
879.848674279624
 30
0.0
 11
6668.214287686788
 21
864.6187902133879
 31
0.0
  0
LINE
  5
143
330
1F
100
AcDbEntity
  8
0
 62
     7
100
AcDbLine
 10
6547.007397507106
 20
885.8596225859965
 30
0.0
 11
6668.982629457707
 21
870.871761580911
 31
0.0
  0
LINE
  5
144
330
1F
100
AcDbEntity
  8
sen-c
 62
     7
100
AcDbLine
 10
6525.877493460052
 20
930.3807440617
 30
0.0
 11
6558.202850495807
 21
930.3807440617
 31
0.0
  0
LINE
  5
145
330
1F
100
AcDbEntity
  8
0
 62
     7
100
AcDbLine
 10
6539.266377952788
 20
911.3844532536218
 30
0.0
 11
6545.567783253301
 21
911.3844532536218
 31
0.0
  0
LINE
  5
146
330
1F
100
AcDbEntity
  8
sen-h
 62
     7
100
AcDbLine
 10
6554.877527422725
 20
878.545188076623
 30
0.0
 11
6555.645869193646
 21
884.7981594441458
 31
0.0
  0
LINE
  5
147
330
1F
100
AcDbEntity
  8
sen-h
 62
     7
100
AcDbLine
 10
6584.653581553787
 20
874.8864177389123
 30
0.0
 11
6585.421923324706
 21
881.1393891064353
 31
0.0
  0
ARC
  5
148
330
1F
100
AcDbEntity
  8
0
 62
     7
100
AcDbCircle
 10
6544.879202220788
 20
884.8113499681344
 30
0.0
 40
5.000000000000196
100
AcDbArc
 50
181.427024572631
 51
262.9948237994116
  0
LINE
  5
149
330
1F
100
AcDbEntity
  8
sen-c
 62
     7
100
AcDbLine
 10
6568.997212717336
 20
870.4628315402446
 30
0.0
 11
6571.302238030094
 21
889.2217456428125
 31
0.0
  0
ARC
  5
14A
330
1F
100
AcDbEntity
  8
0
 62
     7
100
AcDbCircle
 10
6547.129356518361
 20
886.8521577236988
 30
0.0
 40
0.999999999999758
100
AcDbArc
 50
181.4108481971419
 51
262.9948237994219
  0
ARC
  5
14B
330
1F
100
AcDbEntity
  8
0
 62
     7
100
AcDbCircle
 10
6667.116656585476
 20
855.6859739740694
 30
0.0
 40
9.000000000000322
100
AcDbArc
 50
3.096938691368178
 51
82.99482379941622
  0
ARC
  5
14C
330
1F
100
AcDbEntity
  8
0
 62
     7
100
AcDbCircle
 10
6667.116656585476
 20
855.6859739740694
 30
0.0
 40
15.29999999999973
100
AcDbArc
 50
3.096938691368258
 51
82.99482379941415
  0
LINE
  5
14D
330
1F
100
AcDbEntity
  8
0
 62
     7
100
AcDbLine
 10
6617.988610208975
 20
1000.3807440617
 30
0.0
 11
6540.936306403127
 21
999.0371635990349
 31
0.0
  0
LINE
  5
14E
330
1F
100
AcDbEntity
  8
0
 62
     7
100
AcDbLine
 10
6617.006044810928
 20
994.062653111766
 30
0.0
 11
6545.311132304515
 21
992.8124908329218
 31
0.0
  0
LINE
  5
14F
330
1F
100
AcDbEntity
  8
0
 62
     7
100
AcDbLine
 10
6538.890964134552
 20
949.3807440617002
 30
0.0
 11
6544.86759109
 21
949.3807440617002
 31
0.0
  0
ARC
  5
150
330
1F
100
AcDbEntity
  8
0
 62
     7
100
AcDbCircle
 10
6545.328566906464
 20
991.8126428271452
 30
0.0
 40
0.9999999999999483
100
AcDbArc
 50
90.99897972280476
 51
180.5549872798809
  0
ARC
  5
151
330
1F
100
AcDbEntity
  8
0
 62
     7
100
AcDbCircle
 10
6540.988610208977
 20
996.0376195817062
 30
0.0
 40
2.999999999999943
100
AcDbArc
 50
90.99897972278738
 51
180.0
  0
ARC
  5
152
330
1F
100
AcDbEntity
  8
0
 62
     7
100
AcDbCircle
 10
6616.988610208977
 20
995.062501117542
 30
0.0
 40
0.9999999999999483
100
AcDbArc
 50
270.9989797228047
 51
0.0
  0
DIMENSION
  5
153
330
1F
100
AcDbEntity
  8
寸法
  6
Continuous
 62
     7
370
     9
100
AcDbDimension
  2
*D1
 10
5734.698871854485
 20
1069.0
 30
0.0
 11
6034.698871854485
 21
1077.333171834625
 31
0.0
 70
    32
 71
     5
 42
600.0
  3
MSP明朝寸法4
100
AcDbAlignedDimension
 13
6334.698871854485
 23
995.8807440616997
 33
0.0
 14
5734.698871854485
 24
995.8807440616997
 34
0.0
100
AcDbRotatedDimension
1001
ACAD
1000
DSTYLE
1002
{
1070
    41
1040
14.99908447265625
1070
   147
1040
0.3125
1070
   340
1005
4B
1070
   279
1070
     2
1002
}
  0
DIMENSION
  5
154
330
1F
100
AcDbEntity
  8
寸法
  6
Continuous
 62
     7
370
     9
100
AcDbDimension
  2
*D2
 10
6414.0
 20
1000.3807440617
 30
0.0
 11
6405.666828165375
 21
750.3807440616996
 31
0.0
 70
    32
 71
     5
 42
500.0000000000001
  3
MSP明朝寸法4
100
AcDbAlignedDimension
 13
6329.198871854486
 23
500.3807440616996
 33
0.0
 14
6330.198871854485
 24
1000.3807440617
 34
0.0
 50
-90.0
100
AcDbRotatedDimension
1001
ACAD
1000
DSTYLE
1002
{
1070
    41
1040
14.99908447265625
1070
   147
1040
0.3125
1070
   340
1005
4B
1070
   279
1070
     2
1002
}
  0
DIMENSION
  5
155
330
1F
100
AcDbEntity
  8
寸法
  6
Continuous
 62
     7
370
     9
100
AcDbDimension
  2
*D3
 10
5784.698871854485
 20
433.0
 30
0.0
 11
6034.698871854485
 21
441.3331718346253
 31
0.0
 70
    32
 71
     5
 42
500.0000000000009
  3
MSP明朝寸法4
100
AcDbAlignedDimension
 13
6284.698871854486
 23
536.3807440616997
 33
0.0
 14
5784.698871854485
 24
536.3807440616997
 34
0.0
100
AcDbRotatedDimension
1001
ACAD
1000
DSTYLE
1002
{
1070
    41
1040
14.99908447265625
1070
   147
1040
0.3125
1070
   340
1005
4B
1070
   279
1070
     2
1002
}
  0
VIEWPORT
  5
48
330
1B
100
AcDbEntity
 67
     1
  8
0
100
AcDbViewport
 10
0.0
 20
0.0
 30
0.0
 40
466.7538834594727
 41
329.9726597625731
 68
     1
 69
     1
 12
0.0
 22
0.0
 13
0.0
 23
0.0
 14
10.0
 24
10.0
 15
10.0
 25
10.0
 16
0.0
 26
0.0
 36
1.0
 17
0.0
 27
0.0
 37
0.0
 42
50.0
 43
0.0
 44
0.0
 45
326.7350128173828
 50
0.0
 51
0.0
 72
  2000
 90
   557152
  1

281
     0
 71
     1
 74
     0
110
0.0
120
0.0
130
0.0
111
1.0
121
0.0
131
0.0
112
0.0
122
1.0
132
0.0
 79
     0
146
0.0
  0
VIEWPORT
  5
156
330
1B
100
AcDbEntity
 67
     1
  8
一般
100
AcDbViewport
 10
9.013867143533233
 20
-3.560920225748688
 30
0.0
 40
364.6506466352055
 41
266.4950080793901
 68
     2
 69
     2
 12
6240.652579845353
 22
564.3214851067444
 13
0.0
 23
0.0
 14
10.0
 24
10.0
 15
10.0
 25
10.0
 16
0.0
 26
0.0
 36
1.0
 17
0.0
 27
0.0
 37
0.0
 42
50.0
 43
0.0
 44
0.0
 45
1065.980035172272
 50
0.0
 51
0.0
 72
   100
 90
   639072
340
157
  1

281
     0
 71
     1
 74
     0
110
0.0
120
0.0
130
0.0
111
1.0
121
0.0
131
0.0
112
0.0
122
1.0
132
0.0
 79
     0
146
0.0
  0
POLYLINE
  5
157
102
{ACAD_REACTORS
330
156
102
}
330
1B
100
AcDbEntity
 67
     1
  8
_Viewport_Crop
100
AcDb2dPolyline
 66
     1
 10
0.0
 20
0.0
 30
0.0
 70
   129
  0
VERTEX
  5
158
330
157
100
AcDbEntity
 67
     1
  8
_Viewport_Crop
100
AcDbVertex
100
AcDb2dVertex
 10
-173.3114561740695
 20
129.6865838139464
 30
0.0
  0
VERTEX
  5
159
330
157
100
AcDbEntity
 67
     1
  8
_Viewport_Crop
100
AcDbVertex
100
AcDb2dVertex
 10
191.339190461136
 20
129.6865838139464
 30
0.0
  0
VERTEX
  5
15A
330
157
100
AcDbEntity
 67
     1
  8
_Viewport_Crop
100
AcDbVertex
100
AcDb2dVertex
 10
191.339190461136
 20
-136.8084242654438
 30
0.0
  0
VERTEX
  5
15B
330
157
100
AcDbEntity
 67
     1
  8
_Viewport_Crop
100
AcDbVertex
100
AcDb2dVertex
 10
-173.3114561740695
 20
-136.8084242654438
 30
0.0
  0
SEQEND
  5
15C
330
157
100
AcDbEntity
 67
     1
  8
_Viewport_Crop
  0
LINE
  5
15D
330
1B
100
AcDbEntity
 67
     1
  8
ﾀｲﾄﾙ枠
  6
Continuous
100
AcDbLine
 10
-184.2318056329966
 20
139.7333407905599
 30
0.0
 11
201.7681943670034
 21
139.7333407905599
 31
0.0
  0
LINE
  5
15E
330
1B
100
AcDbEntity
 67
     1
  8
ﾀｲﾄﾙ枠
  6
Continuous
100
AcDbLine
 10
201.7681943670034
 20
-140.2666592094401
 30
0.0
 11
-184.2318056329966
 21
-140.2666592094401
 31
0.0
  0
LINE
  5
15F
330
1B
100
AcDbEntity
 67
     1
  8
ﾀｲﾄﾙ枠
100
AcDbLine
 10
-184.2318056329966
 20
139.7333407905599
 30
0.0
 11
-184.2318056329966
 21
-140.2666592094401
 31
0.0
  0
LINE
  5
160
330
1B
100
AcDbEntity
 67
     1
  8
ﾀｲﾄﾙ枠
  6
Continuous
100
AcDbLine
 10
201.7681943670034
 20
139.7333407905599
 30
0.0
 11
201.7681943670034
 21
-140.2666592094401
 31
0.0
  0
LINE
  5
161
330
1B
100
AcDbEntity
 67
     1
  8
ﾀｲﾄﾙ枠
100
AcDbLine
 10
164.5445575585285
 20
-135.2270115424955
 30
0.0
 11
165.4013074414874
 21
-135.2270115424955
 31
0.0
  0
LINE
  5
162
330
1B
100
AcDbEntity
 67
     1
  8
ﾀｲﾄﾙ枠
100
AcDbLine
 10
165.7145575585284
 20
-132.8970115424955
 30
0.0
 11
162.4445575585284
 21
-132.8970115424955
 31
0.0
  0
LINE
  5
163
330
1B
100
AcDbEntity
 67
     1
  8
ﾀｲﾄﾙ枠
100
AcDbLine
 10
162.4445575585284
 20
-134.0670115424954
 30
0.0
 11
165.5845575585285
 21
-134.0670115424954
 31
0.0
  0
MTEXT
  5
164
330
1B
100
AcDbEntity
 67
     1
  8
0
100
AcDbMText
 10
145.2681943670034
 20
-121.2666592094401
 30
0.0
 40
3.0
 41
0.0
 71
     2
 72
     1
  1
{\fMS PMincho|b0|i0|c128|p0;SQR600-80-H洗面ボウル}
 73
     1
 44
0.8811854561101549
  0
LINE
  5
165
330
1B
100
AcDbEntity
 67
     1
  8
ﾀｲﾄﾙ枠
100
AcDbLine
 10
116.7681943670034
 20
-116.2666592094401
 30
0.0
 11
201.7681943670034
 21
-116.2666592094401
 31
0.0
  0
LINE
  5
166
330
1B
100
AcDbEntity
 67
     1
  8
ﾀｲﾄﾙ枠
100
AcDbLine
 10
116.7681943670034
 20
-128.2666592094401
 30
0.0
 11
201.7681943670034
 21
-128.2666592094401
 31
0.0
  0
LINE
  5
167
330
1B
100
AcDbEntity
 67
     1
  8
ﾀｲﾄﾙ枠
100
AcDbLine
 10
116.7681943670034
 20
-140.2666592094401
 30
0.0
 11
116.7681943670034
 21
-116.2666592094401
 31
0.0
  0
LINE
  5
168
330
1B
100
AcDbEntity
 67
     1
  8
ﾀｲﾄﾙ枠
100
AcDbLine
 10
135.5845575585285
 20
-133.9470115424954
 30
0.0
 11
130.6245575585284
 21
-133.9470115424954
 31
0.0
  0
LINE
  5
169
330
1B
100
AcDbEntity
 67
     1
  8
ﾀｲﾄﾙ枠
100
AcDbLine
 10
134.6545575585284
 20
-134.9870115424955
 30
0.0
 11
131.5545575585284
 21
-134.9870115424955
 31
0.0
  0
LINE
  5
16A
330
1B
100
AcDbEntity
 67
     1
  8
ﾀｲﾄﾙ枠
100
AcDbLine
 10
130.6245575585284
 20
-134.8370115424954
 30
0.0
 11
135.5845575585285
 21
-134.8370115424954
 31
0.0
  0
LINE
  5
16B
330
1B
100
AcDbEntity
 67
     1
  8
ﾀｲﾄﾙ枠
100
AcDbLine
 10
130.6245575585284
 20
-133.7970115424955
 30
0.0
 11
132.6395575585284
 21
-133.7970115424955
 31
0.0
  0
LINE
  5
16C
330
1B
100
AcDbEntity
 67
     1
  8
ﾀｲﾄﾙ枠
100
AcDbLine
 10
130.1045575585283
 20
-132.6270115424954
 30
0.0
 11
132.6395575585284
 21
-132.6270115424954
 31
0.0
  0
LINE
  5
16D
330
1B
100
AcDbEntity
 67
     1
  8
ﾀｲﾄﾙ枠
100
AcDbLine
 10
132.6395575585284
 20
-132.7770115424955
 30
0.0
 11
130.1045575585283
 21
-132.7770115424955
 31
0.0
  0
MTEXT
  5
16E
330
1B
100
AcDbEntity
 67
     1
  8
ﾀｲﾄﾙ枠
100
AcDbMText
 10
118.2681943670034
 20
-117.7666592094401
 30
0.0
 40
2.5
 41
0.0
 71
     1
 72
     1
  1
{\fMS PMincho|b0|i0|c128|p0;製品名}
 73
     1
 44
0.8811854561101549
  0
LINE
  5
16F
330
1B
100
AcDbEntity
 67
     1
  8
ﾀｲﾄﾙ枠
100
AcDbLine
 10
131.5545575585284
 20
-136.6570115424955
 30
0.0
 11
134.6545575585284
 21
-136.6570115424955
 31
0.0
  0
LINE
  5
170
330
1B
100
AcDbEntity
 67
     1
  8
ﾀｲﾄﾙ枠
100
AcDbLine
 10
135.5845575585285
 20
-136.8070115424954
 30
0.0
 11
130.6245575585284
 21
-136.8070115424954
 31
0.0
  0
LINE
  5
171
330
1B
100
AcDbEntity
 67
     1
  8
ﾀｲﾄﾙ枠
100
AcDbLine
 10
130.6245575585284
 20
-133.9470115424954
 30
0.0
 11
130.6245575585284
 21
-133.7970115424955
 31
0.0
  0
LINE
  5
172
330
1B
100
AcDbEntity
 67
     1
  8
ﾀｲﾄﾙ枠
100
AcDbLine
 10
130.1045575585283
 20
-132.7770115424955
 30
0.0
 11
130.1045575585283
 21
-132.6270115424954
 31
0.0
  0
LINE
  5
173
330
1B
100
AcDbEntity
 67
     1
  8
ﾀｲﾄﾙ枠
100
AcDbLine
 10
130.6245575585284
 20
-136.8070115424954
 30
0.0
 11
130.6245575585284
 21
-134.8370115424954
 31
0.0
  0
LINE
  5
174
330
1B
100
AcDbEntity
 67
     1
  8
ﾀｲﾄﾙ枠
100
AcDbLine
 10
130.8895575585284
 20
-134.9870115424955
 30
0.0
 11
130.8895575585284
 21
-136.6570115424955
 31
0.0
  0
LINE
  5
175
330
1B
100
AcDbEntity
 67
     1
  8
ﾀｲﾄﾙ枠
100
AcDbLine
 10
131.2895575585283
 20
-134.9870115424955
 30
0.0
 11
131.2895575585283
 21
-136.6570115424955
 31
0.0
  0
LINE
  5
176
330
1B
100
AcDbEntity
 67
     1
  8
ﾀｲﾄﾙ枠
100
AcDbLine
 10
131.0895575585284
 20
-134.9870115424955
 30
0.0
 11
131.0895575585284
 21
-136.6570115424955
 31
0.0
  0
LINE
  5
177
330
1B
100
AcDbEntity
 67
     1
  8
ﾀｲﾄﾙ枠
100
AcDbLine
 10
131.5545575585284
 20
-134.9870115424955
 30
0.0
 11
131.5545575585284
 21
-136.6570115424955
 31
0.0
  0
LINE
  5
178
330
1B
100
AcDbEntity
 67
     1
  8
ﾀｲﾄﾙ枠
100
AcDbLine
 10
150.0690660557158
 20
-132.3870115424954
 30
0.0
 11
146.9200490613411
 21
-132.3870115424954
 31
0.0
  0
LINE
  5
179
330
1B
100
AcDbEntity
 67
     1
  8
ﾀｲﾄﾙ枠
100
AcDbLine
 10
148.8945575585284
 20
-131.7170115424954
 30
0.0
 11
148.0945575585285
 21
-131.7170115424954
 31
0.0
  0
LINE
  5
17A
330
1B
100
AcDbEntity
 67
     1
  8
ﾀｲﾄﾙ枠
100
AcDbLine
 10
147.4950490613411
 20
-133.5370115424955
 30
0.0
 11
149.4940660557156
 21
-133.5370115424955
 31
0.0
  0
LINE
  5
17B
330
1B
100
AcDbEntity
 67
     1
  8
ﾀｲﾄﾙ枠
100
AcDbLine
 10
147.0545575585284
 20
-134.7270115424955
 30
0.0
 11
148.4845575585285
 21
-134.7270115424955
 31
0.0
  0
LINE
  5
17C
330
1B
100
AcDbEntity
 67
     1
  8
ﾀｲﾄﾙ枠
100
AcDbLine
 10
148.4845575585285
 20
-134.7070115424954
 30
0.0
 11
147.3345575585285
 21
-134.7070115424954
 31
0.0
  0
LINE
  5
17D
330
1B
100
AcDbEntity
 67
     1
  8
ﾀｲﾄﾙ枠
100
AcDbLine
 10
147.0545575585284
 20
-135.7670115424955
 30
0.0
 11
148.4845575585285
 21
-135.7670115424955
 31
0.0
  0
LINE
  5
17E
330
1B
100
AcDbEntity
 67
     1
  8
ﾀｲﾄﾙ枠
100
AcDbLine
 10
148.4845575585285
 20
-135.7470115424954
 30
0.0
 11
147.0545575585284
 21
-135.7470115424954
 31
0.0
  0
LINE
  5
17F
330
1B
100
AcDbEntity
 67
     1
  8
ﾀｲﾄﾙ枠
100
AcDbLine
 10
146.1514404583413
 20
-133.5570115424954
 30
0.0
 11
151.1045575585283
 21
-133.5570115424954
 31
0.0
  0
LINE
  5
180
330
1B
100
AcDbEntity
 67
     1
  8
ﾀｲﾄﾙ枠
100
AcDbLine
 10
146.6645575585283
 20
-136.8070115424954
 30
0.0
 11
151.1045575585283
 21
-136.8070115424954
 31
0.0
  0
LINE
  5
181
330
1B
100
AcDbEntity
 67
     1
  8
ﾀｲﾄﾙ枠
100
AcDbLine
 10
148.4845575585285
 20
-136.7870115424955
 30
0.0
 11
146.6645575585283
 21
-136.7870115424955
 31
0.0
  0
LINE
  5
182
330
1B
100
AcDbEntity
 67
     1
  8
ﾀｲﾄﾙ枠
100
AcDbLine
 10
137.6045575585285
 20
-132.9070115424955
 30
0.0
 11
140.1395575585284
 21
-132.9070115424955
 31
0.0
  0
LINE
  5
183
330
1B
100
AcDbEntity
 67
     1
  8
ﾀｲﾄﾙ枠
100
AcDbLine
 10
140.1395575585284
 20
-132.7570115424954
 30
0.0
 11
137.6045575585285
 21
-132.7570115424954
 31
0.0
  0
LINE
  5
184
330
1B
100
AcDbEntity
 67
     1
  8
ﾀｲﾄﾙ枠
100
AcDbLine
 10
140.1395575585284
 20
-133.7785700712081
 30
0.0
 11
137.8545575585283
 21
-135.8878008404388
 31
0.0
  0
LINE
  5
185
330
1B
100
AcDbEntity
 67
     1
  8
ﾀｲﾄﾙ枠
100
AcDbLine
 10
140.1395575585284
 20
-133.4111248694005
 30
0.0
 11
137.6045575585285
 21
-135.7511248694004
 31
0.0
  0
LINE
  5
186
330
1B
100
AcDbEntity
 67
     1
  8
ﾀｲﾄﾙ枠
100
AcDbLine
 10
140.1395575585284
 20
-136.0070115424954
 30
0.0
 11
139.1645575585283
 21
-136.0070115424954
 31
0.0
  0
LINE
  5
187
330
1B
100
AcDbEntity
 67
     1
  8
ﾀｲﾄﾙ枠
100
AcDbLine
 10
139.1645575585283
 20
-136.1570115424955
 30
0.0
 11
140.1395575585284
 21
-136.1570115424955
 31
0.0
  0
LINE
  5
188
330
1B
100
AcDbEntity
 67
     1
  8
ﾀｲﾄﾙ枠
100
AcDbLine
 10
137.6045575585285
 20
-136.4860152730154
 30
0.0
 11
140.1395575585284
 21
-134.1460152730155
 31
0.0
  0
LINE
  5
189
330
1B
100
AcDbEntity
 67
     1
  8
ﾀｲﾄﾙ枠
100
AcDbLine
 10
136.1045575585283
 20
-132.7770115424955
 30
0.0
 11
133.5695575585284
 21
-132.7770115424955
 31
0.0
  0
LINE
  5
18A
330
1B
100
AcDbEntity
 67
     1
  8
ﾀｲﾄﾙ枠
100
AcDbLine
 10
133.5695575585284
 20
-132.6270115424954
 30
0.0
 11
136.1045575585283
 21
-132.6270115424954
 31
0.0
  0
LINE
  5
18B
330
1B
100
AcDbEntity
 67
     1
  8
ﾀｲﾄﾙ枠
100
AcDbLine
 10
133.5695575585284
 20
-133.7970115424955
 30
0.0
 11
135.5845575585285
 21
-133.7970115424955
 31
0.0
  0
LINE
  5
18C
330
1B
100
AcDbEntity
 67
     1
  8
ﾀｲﾄﾙ枠
100
AcDbLine
 10
132.6395575585284
 20
-131.7170115424954
 30
0.0
 11
133.5695575585284
 21
-131.7170115424954
 31
0.0
  0
LINE
  5
18D
330
1B
100
AcDbEntity
 67
     1
  8
ﾀｲﾄﾙ枠
100
AcDbLine
 10
132.6395575585284
 20
-132.6270115424954
 30
0.0
 11
132.6395575585284
 21
-131.7170115424954
 31
0.0
  0
LINE
  5
18E
330
1B
100
AcDbEntity
 67
     1
  8
ﾀｲﾄﾙ枠
100
AcDbLine
 10
133.5695575585284
 20
-131.7170115424954
 30
0.0
 11
133.5695575585284
 21
-132.6270115424954
 31
0.0
  0
LINE
  5
18F
330
1B
100
AcDbEntity
 67
     1
  8
ﾀｲﾄﾙ枠
100
AcDbLine
 10
132.9045575585284
 20
-133.6970115424954
 30
0.0
 11
132.9045575585284
 21
-131.9670115424954
 31
0.0
  0
LINE
  5
190
330
1B
100
AcDbEntity
 67
     1
  8
ﾀｲﾄﾙ枠
100
AcDbLine
 10
132.6395575585284
 20
-133.7970115424955
 30
0.0
 11
132.6395575585284
 21
-132.7770115424955
 31
0.0
  0
LINE
  5
191
330
1B
100
AcDbEntity
 67
     1
  8
ﾀｲﾄﾙ枠
100
AcDbLine
 10
133.3045575585284
 20
-133.6970115424954
 30
0.0
 11
133.3045575585284
 21
-131.9670115424954
 31
0.0
  0
LINE
  5
192
330
1B
100
AcDbEntity
 67
     1
  8
ﾀｲﾄﾙ枠
100
AcDbLine
 10
133.1045575585285
 20
-133.6970115424954
 30
0.0
 11
133.1045575585285
 21
-131.9670115424954
 31
0.0
  0
LINE
  5
193
330
1B
100
AcDbEntity
 67
     1
  8
ﾀｲﾄﾙ枠
100
AcDbLine
 10
133.5695575585284
 20
-132.7770115424955
 30
0.0
 11
133.5695575585284
 21
-133.7970115424955
 31
0.0
  0
LINE
  5
194
330
1B
100
AcDbEntity
 67
     1
  8
ﾀｲﾄﾙ枠
100
AcDbLine
 10
137.6045575585285
 20
-132.7570115424954
 30
0.0
 11
137.6045575585285
 21
-132.9070115424955
 31
0.0
  0
LINE
  5
195
330
1B
100
AcDbEntity
 67
     1
  8
ﾀｲﾄﾙ枠
100
AcDbLine
 10
136.1045575585283
 20
-132.6270115424954
 30
0.0
 11
136.1045575585283
 21
-132.7770115424955
 31
0.0
  0
LINE
  5
196
330
1B
100
AcDbEntity
 67
     1
  8
ﾀｲﾄﾙ枠
100
AcDbLine
 10
135.5845575585285
 20
-133.7970115424955
 30
0.0
 11
135.5845575585285
 21
-133.9470115424954
 31
0.0
  0
LINE
  5
197
330
1B
100
AcDbEntity
 67
     1
  8
ﾀｲﾄﾙ枠
100
AcDbLine
 10
139.1645575585283
 20
-136.0070115424954
 30
0.0
 11
139.1645575585283
 21
-136.1570115424955
 31
0.0
  0
LINE
  5
198
330
1B
100
AcDbEntity
 67
     1
  8
ﾀｲﾄﾙ枠
100
AcDbLine
 10
137.6045575585285
 20
-135.7511248694004
 30
0.0
 11
137.6045575585285
 21
-136.4860152730154
 31
0.0
  0
LINE
  5
199
330
1B
100
AcDbEntity
 67
     1
  8
ﾀｲﾄﾙ枠
100
AcDbLine
 10
135.3195575585284
 20
-136.6570115424955
 30
0.0
 11
135.3195575585284
 21
-134.9870115424955
 31
0.0
  0
LINE
  5
19A
330
1B
100
AcDbEntity
 67
     1
  8
ﾀｲﾄﾙ枠
100
AcDbLine
 10
135.5845575585285
 20
-134.8370115424954
 30
0.0
 11
135.5845575585285
 21
-136.8070115424954
 31
0.0
  0
LINE
  5
19B
330
1B
100
AcDbEntity
 67
     1
  8
ﾀｲﾄﾙ枠
100
AcDbLine
 10
134.9195575585283
 20
-136.6570115424955
 30
0.0
 11
134.9195575585283
 21
-134.9870115424955
 31
0.0
  0
LINE
  5
19C
330
1B
100
AcDbEntity
 67
     1
  8
ﾀｲﾄﾙ枠
100
AcDbLine
 10
134.6545575585284
 20
-136.6570115424955
 30
0.0
 11
134.6545575585284
 21
-134.9870115424955
 31
0.0
  0
LINE
  5
19D
330
1B
100
AcDbEntity
 67
     1
  8
ﾀｲﾄﾙ枠
100
AcDbLine
 10
135.1195575585284
 20
-136.6570115424955
 30
0.0
 11
135.1195575585284
 21
-134.9870115424955
 31
0.0
  0
LINE
  5
19E
330
1B
100
AcDbEntity
 67
     1
  8
ﾀｲﾄﾙ枠
100
AcDbLine
 10
146.6695771073057
 20
-132.6170115424954
 30
0.0
 11
147.0490771073056
 21
-133.3070115424954
 31
0.0
  0
LINE
  5
19F
330
1B
100
AcDbEntity
 67
     1
  8
ﾀｲﾄﾙ枠
100
AcDbLine
 10
148.2945575585283
 20
-132.1370115424954
 30
0.0
 11
148.2945575585283
 21
-131.9670115424954
 31
0.0
  0
LINE
  5
1A0
330
1B
100
AcDbEntity
 67
     1
  8
ﾀｲﾄﾙ枠
100
AcDbLine
 10
148.0945575585285
 20
-131.7170115424954
 30
0.0
 11
148.0945575585285
 21
-132.3670115424954
 31
0.0
  0
LINE
  5
1A1
330
1B
100
AcDbEntity
 67
     1
  8
ﾀｲﾄﾙ枠
100
AcDbLine
 10
147.3345575585285
 20
-134.3170115424954
 30
0.0
 11
147.0545575585284
 21
-134.3170115424954
 31
0.0
  0
LINE
  5
1A2
330
1B
100
AcDbEntity
 67
     1
  8
ﾀｲﾄﾙ枠
100
AcDbLine
 10
147.0545575585284
 20
-134.3170115424954
 30
0.0
 11
147.0545575585284
 21
-134.7270115424955
 31
0.0
  0
LINE
  5
1A3
330
1B
100
AcDbEntity
 67
     1
  8
ﾀｲﾄﾙ枠
100
AcDbLine
 10
147.3345575585285
 20
-134.7070115424954
 30
0.0
 11
147.3345575585285
 21
-134.3170115424954
 31
0.0
  0
LINE
  5
1A4
330
1B
100
AcDbEntity
 67
     1
  8
ﾀｲﾄﾙ枠
100
AcDbLine
 10
147.0545575585284
 20
-135.7470115424954
 30
0.0
 11
147.0545575585284
 21
-135.7670115424955
 31
0.0
  0
LINE
  5
1A5
330
1B
100
AcDbEntity
 67
     1
  8
ﾀｲﾄﾙ枠
100
AcDbLine
 10
146.9200490613411
 20
-132.3870115424954
 30
0.0
 11
147.4950490613411
 21
-133.5370115424955
 31
0.0
  0
LINE
  5
1A6
330
1B
100
AcDbEntity
 67
     1
  8
ﾀｲﾄﾙ枠
100
AcDbLine
 10
145.6245575585284
 20
-132.3870115424954
 30
0.0
 11
146.1661051532706
 21
-132.3870115424954
 31
0.0
  0
LINE
  5
1A7
330
1B
100
AcDbEntity
 67
     1
  8
ﾀｲﾄﾙ枠
100
AcDbLine
 10
145.6245575585284
 20
-132.3670115424954
 30
0.0
 11
145.6245575585284
 21
-132.3870115424954
 31
0.0
  0
LINE
  5
1A8
330
1B
100
AcDbEntity
 67
     1
  8
ﾀｲﾄﾙ枠
100
AcDbLine
 10
143.6045575585285
 20
-132.9070115424955
 30
0.0
 11
143.6045575585285
 21
-132.7570115424954
 31
0.0
  0
LINE
  5
1A9
330
1B
100
AcDbEntity
 67
     1
  8
ﾀｲﾄﾙ枠
100
AcDbLine
 10
146.1514404583413
 20
-133.5570115424954
 30
0.0
 11
146.0587135383468
 21
-135.3188230223914
 31
0.0
  0
LINE
  5
1AA
330
1B
100
AcDbEntity
 67
     1
  8
ﾀｲﾄﾙ枠
100
AcDbLine
 10
145.7890867244271
 20
-135.3046321374484
 30
0.0
 11
145.8689614925824
 21
-133.7870115424955
 31
0.0
  0
LINE
  5
1AB
330
1B
100
AcDbEntity
 67
     1
  8
ﾀｲﾄﾙ枠
100
AcDbLine
 10
145.6117456847184
 20
-133.5370115424955
 30
0.0
 11
145.5194599105074
 21
-135.2904412525051
 31
0.0
  0
LINE
  5
1AC
330
1B
100
AcDbEntity
 67
     1
  8
ﾀｲﾄﾙ枠
100
AcDbLine
 10
148.0945575585285
 20
-132.3670115424954
 30
0.0
 11
145.6245575585284
 21
-132.3670115424954
 31
0.0
  0
LINE
  5
1AD
330
1B
100
AcDbEntity
 67
     1
  8
ﾀｲﾄﾙ枠
100
AcDbLine
 10
146.8561051532706
 20
-133.5370115424955
 30
0.0
 11
145.6117456847184
 21
-133.5370115424955
 31
0.0
  0
LINE
  5
1AE
330
1B
100
AcDbEntity
 67
     1
  8
ﾀｲﾄﾙ枠
100
AcDbLine
 10
146.1661051532706
 20
-132.3870115424954
 30
0.0
 11
146.8561051532706
 21
-133.5370115424955
 31
0.0
  0
LINE
  5
1AF
330
1B
100
AcDbEntity
 67
     1
  8
ﾀｲﾄﾙ枠
100
AcDbLine
 10
141.0695575585284
 20
-131.7170115424954
 30
0.0
 11
140.1395575585284
 21
-131.7170115424954
 31
0.0
  0
LINE
  5
1B0
330
1B
100
AcDbEntity
 67
     1
  8
ﾀｲﾄﾙ枠
100
AcDbLine
 10
140.1395575585284
 20
-131.7170115424954
 30
0.0
 11
140.1395575585284
 21
-132.7570115424954
 31
0.0
  0
LINE
  5
1B1
330
1B
100
AcDbEntity
 67
     1
  8
ﾀｲﾄﾙ枠
100
AcDbLine
 10
140.1395575585284
 20
-132.9070115424955
 30
0.0
 11
140.1395575585284
 21
-133.4111248694005
 31
0.0
  0
LINE
  5
1B2
330
1B
100
AcDbEntity
 67
     1
  8
ﾀｲﾄﾙ枠
100
AcDbLine
 10
141.0695575585284
 20
-132.7570115424954
 30
0.0
 11
141.0695575585284
 21
-131.7170115424954
 31
0.0
  0
LINE
  5
1B3
330
1B
100
AcDbEntity
 67
     1
  8
ﾀｲﾄﾙ枠
100
AcDbLine
 10
141.0695575585284
 20
-133.4111248694005
 30
0.0
 11
141.0695575585284
 21
-132.9070115424955
 31
0.0
  0
LINE
  5
1B4
330
1B
100
AcDbEntity
 67
     1
  8
ﾀｲﾄﾙ枠
100
AcDbLine
 10
143.6045575585285
 20
-132.7570115424954
 30
0.0
 11
141.0695575585284
 21
-132.7570115424954
 31
0.0
  0
LINE
  5
1B5
330
1B
100
AcDbEntity
 67
     1
  8
ﾀｲﾄﾙ枠
100
AcDbLine
 10
141.0695575585284
 20
-132.9070115424955
 30
0.0
 11
143.6045575585285
 21
-132.9070115424955
 31
0.0
  0
LINE
  5
1B6
330
1B
100
AcDbEntity
 67
     1
  8
ﾀｲﾄﾙ枠
100
AcDbLine
 10
143.3545575585285
 20
-135.8878008404388
 30
0.0
 11
141.0695575585284
 21
-133.7785700712081
 31
0.0
  0
LINE
  5
1B7
330
1B
100
AcDbEntity
 67
     1
  8
ﾀｲﾄﾙ枠
100
AcDbLine
 10
143.6045575585285
 20
-135.7511248694004
 30
0.0
 11
141.0695575585284
 21
-133.4111248694005
 31
0.0
  0
LINE
  5
1B8
330
1B
100
AcDbEntity
 67
     1
  8
ﾀｲﾄﾙ枠
100
AcDbLine
 10
146.6645575585283
 20
-136.7870115424955
 30
0.0
 11
146.6645575585283
 21
-136.8070115424954
 31
0.0
  0
LINE
  5
1B9
330
1B
100
AcDbEntity
 67
     1
  8
ﾀｲﾄﾙ枠
100
AcDbLine
 10
145.7891931532996
 20
-136.8070115424954
 30
0.0
 11
145.2201079011614
 21
-136.8070115424954
 31
0.0
  0
LINE
  5
1BA
330
1B
100
AcDbEntity
 67
     1
  8
ﾀｲﾄﾙ枠
100
AcDbLine
 10
142.0445575585285
 20
-136.1570115424955
 30
0.0
 11
142.0445575585285
 21
-136.0070115424954
 31
0.0
  0
LINE
  5
1BB
330
1B
100
AcDbEntity
 67
     1
  8
ﾀｲﾄﾙ枠
100
AcDbLine
 10
140.1395575585284
 20
-136.8070115424954
 30
0.0
 11
141.0695575585284
 21
-136.8070115424954
 31
0.0
  0
LINE
  5
1BC
330
1B
100
AcDbEntity
 67
     1
  8
ﾀｲﾄﾙ枠
100
AcDbLine
 10
140.1395575585284
 20
-136.1570115424955
 30
0.0
 11
140.1395575585284
 21
-136.8070115424954
 31
0.0
  0
LINE
  5
1BD
330
1B
100
AcDbEntity
 67
     1
  8
ﾀｲﾄﾙ枠
100
AcDbLine
 10
141.0695575585284
 20
-136.8070115424954
 30
0.0
 11
141.0695575585284
 21
-136.1570115424955
 31
0.0
  0
LINE
  5
1BE
330
1B
100
AcDbEntity
 67
     1
  8
ﾀｲﾄﾙ枠
100
AcDbLine
 10
142.0445575585285
 20
-136.0070115424954
 30
0.0
 11
141.0695575585284
 21
-136.0070115424954
 31
0.0
  0
LINE
  5
1BF
330
1B
100
AcDbEntity
 67
     1
  8
ﾀｲﾄﾙ枠
100
AcDbLine
 10
141.0695575585284
 20
-136.1570115424955
 30
0.0
 11
142.0445575585285
 21
-136.1570115424955
 31
0.0
  0
LINE
  5
1C0
330
1B
100
AcDbEntity
 67
     1
  8
ﾀｲﾄﾙ枠
100
AcDbLine
 10
140.1395575585284
 20
-134.1460152730155
 30
0.0
 11
140.1395575585284
 21
-136.0070115424954
 31
0.0
  0
LINE
  5
1C1
330
1B
100
AcDbEntity
 67
     1
  8
ﾀｲﾄﾙ枠
100
AcDbLine
 10
141.0695575585284
 20
-134.1460152730155
 30
0.0
 11
143.6045575585285
 21
-136.4860152730154
 31
0.0
  0
LINE
  5
1C2
330
1B
100
AcDbEntity
 67
     1
  8
ﾀｲﾄﾙ枠
100
AcDbLine
 10
141.0695575585284
 20
-136.0070115424954
 30
0.0
 11
141.0695575585284
 21
-134.1460152730155
 31
0.0
  0
LINE
  5
1C3
330
1B
100
AcDbEntity
 67
     1
  8
ﾀｲﾄﾙ枠
100
AcDbLine
 10
140.4045575585284
 20
-136.5570115424954
 30
0.0
 11
140.4045575585284
 21
-131.9670115424954
 31
0.0
  0
LINE
  5
1C4
330
1B
100
AcDbEntity
 67
     1
  8
ﾀｲﾄﾙ枠
100
AcDbLine
 10
140.8045575585284
 20
-136.5570115424954
 30
0.0
 11
140.8045575585284
 21
-131.9670115424954
 31
0.0
  0
LINE
  5
1C5
330
1B
100
AcDbEntity
 67
     1
  8
ﾀｲﾄﾙ枠
100
AcDbLine
 10
140.6045575585283
 20
-136.5570115424954
 30
0.0
 11
140.6045575585283
 21
-131.9670115424954
 31
0.0
  0
ARC
  5
1C6
330
1B
100
AcDbEntity
 67
     1
  8
ﾀｲﾄﾙ枠
100
AcDbCircle
 10
140.0769927406451
 20
-135.0039956119861
 30
0.0
 40
5.449999999999994
100
AcDbArc
 50
340.6809234802245
 51
356.9872124958147
  0
ARC
  5
1C7
330
1B
100
AcDbEntity
 67
     1
  8
ﾀｲﾄﾙ枠
100
AcDbCircle
 10
140.0769927406451
 20
-135.0039956119861
 30
0.0
 40
5.990000000000015
100
AcDbArc
 50
342.482064570996
 51
356.9872124958146
  0
ARC
  5
1C8
330
1B
100
AcDbEntity
 67
     1
  8
ﾀｲﾄﾙ枠
100
AcDbCircle
 10
140.0769927406451
 20
-135.0039956119861
 30
0.0
 40
5.720000000000007
100
AcDbArc
 50
344.2460809455043
 51
356.9872124958146
  0
LINE
  5
1C9
330
1B
100
AcDbEntity
 67
     1
  8
ﾀｲﾄﾙ枠
100
AcDbLine
 10
143.6045575585285
 20
-136.4860152730154
 30
0.0
 11
143.6045575585285
 21
-135.7511248694004
 31
0.0
  0
LINE
  5
1CA
330
1B
100
AcDbEntity
 67
     1
  8
ﾀｲﾄﾙ枠
100
AcDbLine
 10
158.3445575585285
 20
-135.3020115424954
 30
0.0
 11
156.0695575585284
 21
-135.3020115424954
 31
0.0
  0
LINE
  5
1CB
330
1B
100
AcDbEntity
 67
     1
  8
ﾀｲﾄﾙ枠
100
AcDbLine
 10
156.0695575585284
 20
-134.5220115424955
 30
0.0
 11
157.6945575585283
 21
-134.5220115424955
 31
0.0
  0
LINE
  5
1CC
330
1B
100
AcDbEntity
 67
     1
  8
ﾀｲﾄﾙ枠
100
AcDbLine
 10
156.3606147336691
 20
-133.7420115424954
 30
0.0
 11
157.689520983669
 21
-131.7170115424954
 31
0.0
  0
LINE
  5
1CD
330
1B
100
AcDbEntity
 67
     1
  8
ﾀｲﾄﾙ枠
100
AcDbLine
 10
158.0845575585285
 20
-133.7420115424954
 30
0.0
 11
153.1245575585284
 21
-133.7420115424954
 31
0.0
  0
LINE
  5
1CE
330
1B
100
AcDbEntity
 67
     1
  8
ﾀｲﾄﾙ枠
100
AcDbLine
 10
156.5245575585284
 20
-131.7170115424954
 30
0.0
 11
156.0495575585283
 21
-131.7170115424954
 31
0.0
  0
LINE
  5
1CF
330
1B
100
AcDbEntity
 67
     1
  8
ﾀｲﾄﾙ枠
100
AcDbLine
 10
156.0695575585284
 20
-135.3262166229135
 30
0.0
 11
158.3445575585285
 21
-136.6262166229134
 31
0.0
  0
LINE
  5
1D0
330
1B
100
AcDbEntity
 67
     1
  8
ﾀｲﾄﾙ枠
100
AcDbLine
 10
156.0495575585283
 20
-132.7020115424954
 30
0.0
 11
155.1595575585283
 21
-132.7020115424954
 31
0.0
  0
LINE
  5
1D1
330
1B
100
AcDbEntity
 67
     1
  8
ﾀｲﾄﾙ枠
100
AcDbLine
 10
154.6845575585284
 20
-131.7170115424954
 30
0.0
 11
154.6845575585284
 21
-132.7020115424954
 31
0.0
  0
LINE
  5
1D2
330
1B
100
AcDbEntity
 67
     1
  8
ﾀｲﾄﾙ枠
100
AcDbLine
 10
155.1595575585283
 20
-131.7170115424954
 30
0.0
 11
154.6845575585284
 21
-131.7170115424954
 31
0.0
  0
LINE
  5
1D3
330
1B
100
AcDbEntity
 67
     1
  8
ﾀｲﾄﾙ枠
100
AcDbLine
 10
155.1595575585283
 20
-132.7020115424954
 30
0.0
 11
155.1595575585283
 21
-131.7170115424954
 31
0.0
  0
LINE
  5
1D4
330
1B
100
AcDbEntity
 67
     1
  8
ﾀｲﾄﾙ枠
100
AcDbLine
 10
156.0495575585283
 20
-131.7170115424954
 30
0.0
 11
156.0495575585283
 21
-132.7020115424954
 31
0.0
  0
LINE
  5
1D5
330
1B
100
AcDbEntity
 67
     1
  8
ﾀｲﾄﾙ枠
100
AcDbLine
 10
152.8298151810122
 20
-131.7170115424954
 30
0.0
 11
153.5195941333878
 21
-131.7170115424954
 31
0.0
  0
LINE
  5
1D6
330
1B
100
AcDbEntity
 67
     1
  8
ﾀｲﾄﾙ枠
100
AcDbLine
 10
153.507002681012
 20
-132.7020115424954
 30
0.0
 11
152.6045575585283
 21
-132.7020115424954
 31
0.0
  0
LINE
  5
1D7
330
1B
100
AcDbEntity
 67
     1
  8
ﾀｲﾄﾙ枠
100
AcDbLine
 10
153.3426734072001
 20
-131.9670115424954
 30
0.0
 11
154.3672827821997
 21
-133.4920115424954
 31
0.0
  0
LINE
  5
1D8
330
1B
100
AcDbEntity
 67
     1
  8
ﾀｲﾄﾙ枠
100
AcDbLine
 10
154.2220026810121
 20
-133.7420115424954
 30
0.0
 11
152.8298151810122
 21
-131.7170115424954
 31
0.0
  0
LINE
  5
1D9
330
1B
100
AcDbEntity
 67
     1
  8
ﾀｲﾄﾙ枠
100
AcDbLine
 10
154.6845575585284
 20
-132.7020115424954
 30
0.0
 11
154.1660003833877
 21
-132.7020115424954
 31
0.0
  0
LINE
  5
1DA
330
1B
100
AcDbEntity
 67
     1
  8
ﾀｲﾄﾙ枠
100
AcDbLine
 10
153.5145575585284
 20
-134.5220115424955
 30
0.0
 11
155.1395575585284
 21
-134.5220115424955
 31
0.0
  0
LINE
  5
1DB
330
1B
100
AcDbEntity
 67
     1
  8
ﾀｲﾄﾙ枠
100
AcDbLine
 10
155.1395575585284
 20
-135.3020115424954
 30
0.0
 11
152.8645575585284
 21
-135.3020115424954
 31
0.0
  0
LINE
  5
1DC
330
1B
100
AcDbEntity
 67
     1
  8
ﾀｲﾄﾙ枠
100
AcDbLine
 10
153.5195941333878
 20
-131.7170115424954
 30
0.0
 11
154.8485003833877
 21
-133.7420115424954
 31
0.0
  0
LINE
  5
1DD
330
1B
100
AcDbEntity
 67
     1
  8
ﾀｲﾄﾙ枠
100
AcDbLine
 10
151.1045575585283
 20
-132.3670115424954
 30
0.0
 11
148.8945575585284
 21
-132.3670115424954
 31
0.0
  0
LINE
  5
1DE
330
1B
100
AcDbEntity
 67
     1
  8
ﾀｲﾄﾙ枠
100
AcDbLine
 10
149.9400380097511
 20
-133.3070115424954
 30
0.0
 11
150.3195380097511
 21
-132.6170115424954
 31
0.0
  0
LINE
  5
1DF
330
1B
100
AcDbEntity
 67
     1
  8
ﾀｲﾄﾙ枠
100
AcDbLine
 10
149.2845575585283
 20
-134.7270115424955
 30
0.0
 11
151.1045575585283
 21
-134.7270115424955
 31
0.0
  0
LINE
  5
1E0
330
1B
100
AcDbEntity
 67
     1
  8
ﾀｲﾄﾙ枠
100
AcDbLine
 10
151.1045575585283
 20
-134.7070115424954
 30
0.0
 11
149.2845575585283
 21
-134.7070115424954
 31
0.0
  0
LINE
  5
1E1
330
1B
100
AcDbEntity
 67
     1
  8
ﾀｲﾄﾙ枠
100
AcDbLine
 10
151.1045575585283
 20
-133.5370115424955
 30
0.0
 11
150.1330099637861
 21
-133.5370115424955
 31
0.0
  0
LINE
  5
1E2
330
1B
100
AcDbEntity
 67
     1
  8
ﾀｲﾄﾙ枠
100
AcDbLine
 10
150.8445575585285
 20
-135.7470115424954
 30
0.0
 11
149.2845575585283
 21
-135.7470115424954
 31
0.0
  0
LINE
  5
1E3
330
1B
100
AcDbEntity
 67
     1
  8
ﾀｲﾄﾙ枠
100
AcDbLine
 10
149.2845575585283
 20
-135.7670115424955
 30
0.0
 11
150.8445575585285
 21
-135.7670115424955
 31
0.0
  0
LINE
  5
1E4
330
1B
100
AcDbEntity
 67
     1
  8
ﾀｲﾄﾙ枠
100
AcDbLine
 10
150.1330099637861
 20
-133.5370115424955
 30
0.0
 11
150.8230099637862
 21
-132.3870115424954
 31
0.0
  0
LINE
  5
1E5
330
1B
100
AcDbEntity
 67
     1
  8
ﾀｲﾄﾙ枠
100
AcDbLine
 10
148.4945575585284
 20
-132.1370115424954
 30
0.0
 11
148.4945575585284
 21
-131.9670115424954
 31
0.0
  0
LINE
  5
1E6
330
1B
100
AcDbEntity
 67
     1
  8
ﾀｲﾄﾙ枠
100
AcDbLine
 10
148.8945575585284
 20
-132.3670115424954
 30
0.0
 11
148.8945575585284
 21
-131.7170115424954
 31
0.0
  0
LINE
  5
1E7
330
1B
100
AcDbEntity
 67
     1
  8
ﾀｲﾄﾙ枠
100
AcDbLine
 10
148.6945575585284
 20
-132.1370115424954
 30
0.0
 11
148.6945575585284
 21
-131.9670115424954
 31
0.0
  0
LINE
  5
1E8
330
1B
100
AcDbEntity
 67
     1
  8
ﾀｲﾄﾙ枠
100
AcDbLine
 10
149.2845575585283
 20
-134.7070115424954
 30
0.0
 11
149.2845575585283
 21
-134.3170115424954
 31
0.0
  0
LINE
  5
1E9
330
1B
100
AcDbEntity
 67
     1
  8
ﾀｲﾄﾙ枠
100
AcDbLine
 10
148.4845575585285
 20
-134.3170115424954
 30
0.0
 11
148.4845575585285
 21
-134.7070115424954
 31
0.0
  0
LINE
  5
1EA
330
1B
100
AcDbEntity
 67
     1
  8
ﾀｲﾄﾙ枠
100
AcDbLine
 10
149.2845575585283
 20
-134.3170115424954
 30
0.0
 11
148.4845575585285
 21
-134.3170115424954
 31
0.0
  0
LINE
  5
1EB
330
1B
100
AcDbEntity
 67
     1
  8
ﾀｲﾄﾙ枠
100
AcDbLine
 10
149.2845575585283
 20
-135.7470115424954
 30
0.0
 11
149.2845575585283
 21
-134.7270115424955
 31
0.0
  0
LINE
  5
1EC
330
1B
100
AcDbEntity
 67
     1
  8
ﾀｲﾄﾙ枠
100
AcDbLine
 10
148.4845575585285
 20
-134.7270115424955
 30
0.0
 11
148.4845575585285
 21
-135.7470115424954
 31
0.0
  0
LINE
  5
1ED
330
1B
100
AcDbEntity
 67
     1
  8
ﾀｲﾄﾙ枠
100
AcDbLine
 10
149.4940660557156
 20
-133.5370115424955
 30
0.0
 11
150.0690660557158
 21
-132.3870115424954
 31
0.0
  0
LINE
  5
1EE
330
1B
100
AcDbEntity
 67
     1
  8
ﾀｲﾄﾙ枠
100
AcDbLine
 10
151.1045575585283
 20
-132.3870115424954
 30
0.0
 11
151.1045575585283
 21
-132.3670115424954
 31
0.0
  0
LINE
  5
1EF
330
1B
100
AcDbEntity
 67
     1
  8
ﾀｲﾄﾙ枠
100
AcDbLine
 10
150.8230099637862
 20
-132.3870115424954
 30
0.0
 11
151.1045575585283
 21
-132.3870115424954
 31
0.0
  0
LINE
  5
1F0
330
1B
100
AcDbEntity
 67
     1
  8
ﾀｲﾄﾙ枠
100
AcDbLine
 10
151.1045575585283
 20
-134.7270115424955
 30
0.0
 11
151.1045575585283
 21
-134.7070115424954
 31
0.0
  0
LINE
  5
1F1
330
1B
100
AcDbEntity
 67
     1
  8
ﾀｲﾄﾙ枠
100
AcDbLine
 10
151.1045575585283
 20
-133.5570115424954
 30
0.0
 11
151.1045575585283
 21
-133.5370115424955
 31
0.0
  0
LINE
  5
1F2
330
1B
100
AcDbEntity
 67
     1
  8
ﾀｲﾄﾙ枠
100
AcDbLine
 10
150.8445575585285
 20
-135.7670115424955
 30
0.0
 11
150.8445575585285
 21
-135.7470115424954
 31
0.0
  0
LINE
  5
1F3
330
1B
100
AcDbEntity
 67
     1
  8
ﾀｲﾄﾙ枠
100
AcDbLine
 10
155.1395575585284
 20
-136.8070115424954
 30
0.0
 11
156.0695575585284
 21
-136.8070115424954
 31
0.0
  0
LINE
  5
1F4
330
1B
100
AcDbEntity
 67
     1
  8
ﾀｲﾄﾙ枠
100
AcDbLine
 10
152.8645575585284
 20
-136.6262166229134
 30
0.0
 11
152.8645575585284
 21
-136.1620921763631
 31
0.0
  0
LINE
  5
1F5
330
1B
100
AcDbEntity
 67
     1
  8
ﾀｲﾄﾙ枠
100
AcDbLine
 10
151.1045575585283
 20
-136.7870115424955
 30
0.0
 11
149.2845575585283
 21
-136.7870115424955
 31
0.0
  0
LINE
  5
1F6
330
1B
100
AcDbEntity
 67
     1
  8
ﾀｲﾄﾙ枠
100
AcDbLine
 10
151.1045575585283
 20
-136.8070115424954
 30
0.0
 11
151.1045575585283
 21
-136.7870115424955
 31
0.0
  0
LINE
  5
1F7
330
1B
100
AcDbEntity
 67
     1
  8
ﾀｲﾄﾙ枠
100
AcDbLine
 10
156.0695575585284
 20
-136.8070115424954
 30
0.0
 11
156.0695575585284
 21
-133.7420115424954
 31
0.0
  0
LINE
  5
1F8
330
1B
100
AcDbEntity
 67
     1
  8
ﾀｲﾄﾙ枠
100
AcDbLine
 10
155.1395575585284
 20
-133.7420115424954
 30
0.0
 11
155.1395575585284
 21
-136.8070115424954
 31
0.0
  0
LINE
  5
1F9
330
1B
100
AcDbEntity
 67
     1
  8
ﾀｲﾄﾙ枠
100
AcDbLine
 10
155.4045575585284
 20
-133.9920115424954
 30
0.0
 11
155.4045575585284
 21
-136.5570115424954
 31
0.0
  0
LINE
  5
1FA
330
1B
100
AcDbEntity
 67
     1
  8
ﾀｲﾄﾙ枠
100
AcDbLine
 10
155.8045575585284
 20
-133.9920115424954
 30
0.0
 11
155.8045575585284
 21
-136.5570115424954
 31
0.0
  0
LINE
  5
1FB
330
1B
100
AcDbEntity
 67
     1
  8
ﾀｲﾄﾙ枠
100
AcDbLine
 10
155.6045575585285
 20
-133.9920115424954
 30
0.0
 11
155.6045575585285
 21
-136.5570115424954
 31
0.0
  0
LINE
  5
1FC
330
1B
100
AcDbEntity
 67
     1
  8
ﾀｲﾄﾙ枠
100
AcDbLine
 10
148.4845575585285
 20
-135.7670115424955
 30
0.0
 11
148.4845575585285
 21
-136.7870115424955
 31
0.0
  0
LINE
  5
1FD
330
1B
100
AcDbEntity
 67
     1
  8
ﾀｲﾄﾙ枠
100
AcDbLine
 10
149.2845575585283
 20
-136.7870115424955
 30
0.0
 11
149.2845575585283
 21
-135.7670115424955
 31
0.0
  0
LINE
  5
1FE
330
1B
100
AcDbEntity
 67
     1
  8
ﾀｲﾄﾙ枠
100
AcDbLine
 10
148.6845575585284
 20
-134.5670115424954
 30
0.0
 11
148.6845575585284
 21
-136.5570115424954
 31
0.0
  0
LINE
  5
1FF
330
1B
100
AcDbEntity
 67
     1
  8
ﾀｲﾄﾙ枠
100
AcDbLine
 10
149.0845575585285
 20
-134.5670115424954
 30
0.0
 11
149.0845575585285
 21
-136.5570115424954
 31
0.0
  0
LINE
  5
200
330
1B
100
AcDbEntity
 67
     1
  8
ﾀｲﾄﾙ枠
100
AcDbLine
 10
148.8845575585284
 20
-134.5670115424954
 30
0.0
 11
148.8845575585284
 21
-136.5570115424954
 31
0.0
  0
LINE
  5
201
330
1B
100
AcDbEntity
 67
     1
  8
ﾀｲﾄﾙ枠
100
AcDbLine
 10
152.8645575585284
 20
-136.1620921763631
 30
0.0
 11
154.3696986677969
 21
-135.3020115424954
 31
0.0
  0
LINE
  5
202
330
1B
100
AcDbEntity
 67
     1
  8
ﾀｲﾄﾙ枠
100
AcDbLine
 10
155.1395575585284
 20
-135.3262166229135
 30
0.0
 11
152.8645575585284
 21
-136.6262166229134
 31
0.0
  0
LINE
  5
203
330
1B
100
AcDbEntity
 67
     1
  8
ﾀｲﾄﾙ枠
100
AcDbLine
 10
163.8745575585284
 20
-131.7170115424954
 30
0.0
 11
164.5445575585285
 21
-131.7170115424954
 31
0.0
  0
LINE
  5
204
330
1B
100
AcDbEntity
 67
     1
  8
ﾀｲﾄﾙ枠
100
AcDbLine
 10
162.8545575585283
 20
-131.7170115424954
 30
0.0
 11
162.8545575585283
 21
-132.8970115424955
 31
0.0
  0
LINE
  5
205
330
1B
100
AcDbEntity
 67
     1
  8
ﾀｲﾄﾙ枠
100
AcDbLine
 10
163.8745575585284
 20
-135.2270115424955
 30
0.0
 11
162.999066055716
 21
-135.2270115424955
 31
0.0
  0
LINE
  5
206
330
1B
100
AcDbEntity
 67
     1
  8
ﾀｲﾄﾙ枠
100
AcDbLine
 10
157.0431147336691
 20
-132.7020115424954
 30
0.0
 11
156.5245575585284
 21
-132.7020115424954
 31
0.0
  0
LINE
  5
207
330
1B
100
AcDbEntity
 67
     1
  8
ﾀｲﾄﾙ枠
100
AcDbLine
 10
156.5245575585284
 20
-132.7020115424954
 30
0.0
 11
156.5245575585284
 21
-131.7170115424954
 31
0.0
  0
LINE
  5
208
330
1B
100
AcDbEntity
 67
     1
  8
ﾀｲﾄﾙ枠
100
AcDbLine
 10
157.689520983669
 20
-131.7170115424954
 30
0.0
 11
158.3792999360446
 21
-131.7170115424954
 31
0.0
  0
LINE
  5
209
330
1B
100
AcDbEntity
 67
     1
  8
ﾀｲﾄﾙ枠
100
AcDbLine
 10
158.6045575585283
 20
-132.7020115424954
 30
0.0
 11
157.702112436045
 21
-132.7020115424954
 31
0.0
  0
LINE
  5
20A
330
1B
100
AcDbEntity
 67
     1
  8
ﾀｲﾄﾙ枠
100
AcDbLine
 10
158.3792999360446
 20
-131.7170115424954
 30
0.0
 11
156.9871124360448
 21
-133.7420115424954
 31
0.0
  0
LINE
  5
20B
330
1B
100
AcDbEntity
 67
     1
  8
ﾀｲﾄﾙ枠
100
AcDbLine
 10
156.8418323348571
 20
-133.4920115424954
 30
0.0
 11
157.8664417098571
 21
-131.9670115424954
 31
0.0
  0
LINE
  5
20C
330
1B
100
AcDbEntity
 67
     1
  8
ﾀｲﾄﾙ枠
100
AcDbLine
 10
162.4445575585284
 20
-132.8970115424955
 30
0.0
 11
162.4445575585284
 21
-131.7170115424954
 31
0.0
  0
LINE
  5
20D
330
1B
100
AcDbEntity
 67
     1
  8
ﾀｲﾄﾙ枠
100
AcDbLine
 10
161.1645575585283
 20
-131.7170115424954
 30
0.0
 11
161.1645575585283
 21
-132.8970115424955
 31
0.0
  0
LINE
  5
20E
330
1B
100
AcDbEntity
 67
     1
  8
ﾀｲﾄﾙ枠
100
AcDbLine
 10
160.6245575585284
 20
-132.8970115424955
 30
0.0
 11
160.6245575585284
 21
-131.7170115424954
 31
0.0
  0
LINE
  5
20F
330
1B
100
AcDbEntity
 67
     1
  8
ﾀｲﾄﾙ枠
100
AcDbLine
 10
160.6245575585284
 20
-131.7170115424954
 30
0.0
 11
161.1645575585283
 21
-131.7170115424954
 31
0.0
  0
LINE
  5
210
330
1B
100
AcDbEntity
 67
     1
  8
ﾀｲﾄﾙ枠
100
AcDbLine
 10
161.5545575585284
 20
-132.8970115424955
 30
0.0
 11
160.1045575585285
 21
-132.8970115424955
 31
0.0
  0
LINE
  5
211
330
1B
100
AcDbEntity
 67
     1
  8
ﾀｲﾄﾙ枠
100
AcDbLine
 10
161.5545575585284
 20
-133.7603448758288
 30
0.0
 11
161.5545575585284
 21
-134.2270115424955
 31
0.0
  0
LINE
  5
212
330
1B
100
AcDbEntity
 67
     1
  8
ﾀｲﾄﾙ枠
100
AcDbLine
 10
161.5545575585284
 20
-134.2270115424955
 30
0.0
 11
161.1645575585283
 21
-133.7070115424954
 31
0.0
  0
LINE
  5
213
330
1B
100
AcDbEntity
 67
     1
  8
ﾀｲﾄﾙ枠
100
AcDbLine
 10
160.6245575585284
 20
-134.8156204332271
 30
0.0
 11
160.1045575585285
 21
-135.7256204332268
 31
0.0
  0
LINE
  5
214
330
1B
100
AcDbEntity
 67
     1
  8
ﾀｲﾄﾙ枠
100
AcDbLine
 10
160.3545575585285
 20
-134.7742050868874
 30
0.0
 11
160.6861866787068
 21
-134.0563159878611
 31
0.0
  0
LINE
  5
215
330
1B
100
AcDbEntity
 67
     1
  8
ﾀｲﾄﾙ枠
100
AcDbLine
 10
160.1045575585285
 20
-135.7256204332268
 30
0.0
 11
160.1045575585285
 21
-134.5051571433871
 31
0.0
  0
LINE
  5
216
330
1B
100
AcDbEntity
 67
     1
  8
ﾀｲﾄﾙ枠
100
AcDbLine
 10
160.1045575585285
 20
-134.5051571433871
 30
0.0
 11
160.7478157988851
 21
-132.8970115424955
 31
0.0
  0
LINE
  5
217
330
1B
100
AcDbEntity
 67
     1
  8
ﾀｲﾄﾙ枠
100
AcDbLine
 10
160.9070575585285
 20
-132.8970115424955
 30
0.0
 11
161.5545575585284
 21
-133.7603448758288
 31
0.0
  0
LINE
  5
218
330
1B
100
AcDbEntity
 67
     1
  8
ﾀｲﾄﾙ枠
100
AcDbLine
 10
162.4445575585284
 20
-131.7170115424954
 30
0.0
 11
162.8545575585283
 21
-131.7170115424954
 31
0.0
  0
LINE
  5
219
330
1B
100
AcDbEntity
 67
     1
  8
ﾀｲﾄﾙ枠
100
AcDbLine
 10
164.5445575585285
 20
-136.8070115424954
 30
0.0
 11
163.8745575585284
 21
-136.8070115424954
 31
0.0
  0
LINE
  5
21A
330
1B
100
AcDbEntity
 67
     1
  8
ﾀｲﾄﾙ枠
100
AcDbLine
 10
158.3445575585285
 20
-136.6262166229134
 30
0.0
 11
158.3445575585285
 21
-136.1620921763631
 31
0.0
  0
LINE
  5
21B
330
1B
100
AcDbEntity
 67
     1
  8
ﾀｲﾄﾙ枠
100
AcDbLine
 10
161.1645575585283
 20
-136.8070115424954
 30
0.0
 11
160.6245575585284
 21
-136.8070115424954
 31
0.0
  0
LINE
  5
21C
330
1B
100
AcDbEntity
 67
     1
  8
ﾀｲﾄﾙ枠
100
AcDbLine
 10
162.2090660557157
 20
-136.8070115424954
 30
0.0
 11
162.6674599911035
 21
-136.8070115424954
 31
0.0
  0
LINE
  5
21D
330
1B
100
AcDbEntity
 67
     1
  8
ﾀｲﾄﾙ枠
100
AcDbLine
 10
162.6674599911035
 20
-136.8070115424954
 30
0.0
 11
163.4574599911034
 21
-135.2270115424955
 31
0.0
  0
LINE
  5
21E
330
1B
100
AcDbEntity
 67
     1
  8
ﾀｲﾄﾙ枠
100
AcDbLine
 10
163.8745575585284
 20
-136.8070115424954
 30
0.0
 11
163.8745575585284
 21
-131.7170115424954
 31
0.0
  0
LINE
  5
21F
330
1B
100
AcDbEntity
 67
     1
  8
ﾀｲﾄﾙ枠
100
AcDbLine
 10
164.5445575585285
 20
-131.7170115424954
 30
0.0
 11
164.5445575585285
 21
-136.8070115424954
 31
0.0
  0
LINE
  5
220
330
1B
100
AcDbEntity
 67
     1
  8
ﾀｲﾄﾙ枠
100
AcDbLine
 10
164.2095575585285
 20
-136.5570115424954
 30
0.0
 11
164.2095575585285
 21
-131.9670115424954
 31
0.0
  0
LINE
  5
221
330
1B
100
AcDbEntity
 67
     1
  8
ﾀｲﾄﾙ枠
100
AcDbLine
 10
158.3445575585285
 20
-136.1620921763631
 30
0.0
 11
156.8394164492599
 21
-135.3020115424954
 31
0.0
  0
LINE
  5
222
330
1B
100
AcDbEntity
 67
     1
  8
ﾀｲﾄﾙ枠
100
AcDbLine
 10
160.6245575585284
 20
-136.8070115424954
 30
0.0
 11
160.6245575585284
 21
-134.8156204332271
 31
0.0
  0
LINE
  5
223
330
1B
100
AcDbEntity
 67
     1
  8
ﾀｲﾄﾙ枠
100
AcDbLine
 10
161.1645575585283
 20
-133.7070115424954
 30
0.0
 11
161.1645575585283
 21
-136.8070115424954
 31
0.0
  0
LINE
  5
224
330
1B
100
AcDbEntity
 67
     1
  8
ﾀｲﾄﾙ枠
100
AcDbLine
 10
160.8945575585284
 20
-131.9670115424954
 30
0.0
 11
160.8945575585284
 21
-136.5570115424954
 31
0.0
  0
LINE
  5
225
330
1B
100
AcDbEntity
 67
     1
  8
ﾀｲﾄﾙ枠
100
AcDbLine
 10
162.999066055716
 20
-135.2270115424955
 30
0.0
 11
162.2090660557157
 21
-136.8070115424954
 31
0.0
  0
MTEXT
  5
226
330
1B
100
AcDbEntity
 67
     1
  8
0
100
AcDbMText
 10
190.2681943670034
 20
-118.7666592094401
 30
0.0
 40
3.5
 41
0.0
 71
     2
 72
     1
  1
{\fMS PMincho|b0|i0|c128|p0;1/4}
 73
     1
 44
0.8811854561101549
  0
MTEXT
  5
227
330
1B
100
AcDbEntity
 67
     1
  8
ﾀｲﾄﾙ枠
100
AcDbMText
 10
176.2681943670034
 20
-117.0166592094401
 30
0.0
 40
2.5
 41
0.0
 71
     2
 72
     1
  1
{\fMS PMincho|b0|i0|c128|p0;縮}
 73
     1
 44
0.8811854561101549
  0
MTEXT
  5
228
330
1B
100
AcDbEntity
 67
     1
  8
ﾀｲﾄﾙ枠
100
AcDbMText
 10
176.2681943670034
 20
-122.5166592094401
 30
0.0
 40
2.5
 41
0.0
 71
     2
 72
     1
  1
{\fMS PMincho|b0|i0|c128|p0;尺}
 73
     1
 44
0.8811854561101549
  0
LINE
  5
229
330
1B
100
AcDbEntity
 67
     1
  8
ﾀｲﾄﾙ枠
100
AcDbLine
 10
173.7681943670034
 20
-128.2666592094401
 30
0.0
 11
173.7681943670034
 21
-116.2666592094401
 31
0.0
  0
LINE
  5
22A
330
1B
100
AcDbEntity
 67
     1
  8
ﾀｲﾄﾙ枠
100
AcDbLine
 10
172.6745575585283
 20
-131.9770115424955
 30
0.0
 11
173.2145575585285
 21
-131.9770115424955
 31
0.0
  0
LINE
  5
22B
330
1B
100
AcDbEntity
 67
     1
  8
ﾀｲﾄﾙ枠
100
AcDbLine
 10
173.2145575585285
 20
-132.1270115424954
 30
0.0
 11
172.6745575585283
 21
-132.1270115424954
 31
0.0
  0
LINE
  5
22C
330
1B
100
AcDbEntity
 67
     1
  8
ﾀｲﾄﾙ枠
100
AcDbLine
 10
167.8645575585284
 20
-132.8970115424955
 30
0.0
 11
173.2145575585285
 21
-132.8970115424955
 31
0.0
  0
LINE
  5
22D
330
1B
100
AcDbEntity
 67
     1
  8
ﾀｲﾄﾙ枠
100
AcDbLine
 10
173.2578008440489
 20
-136.8070115424954
 30
0.0
 11
172.3501514823101
 21
-136.8070115424954
 31
0.0
  0
LINE
  5
22E
330
1B
100
AcDbEntity
 67
     1
  8
ﾀｲﾄﾙ枠
100
AcDbLine
 10
172.0787310766073
 20
-132.9070115424955
 30
0.0
 11
173.2578008440489
 21
-136.8070115424954
 31
0.0
  0
LINE
  5
22F
330
1B
100
AcDbEntity
 67
     1
  8
ﾀｲﾄﾙ枠
100
AcDbLine
 10
171.5626914249806
 20
-131.9379072650673
 30
0.0
 11
172.9679637787744
 21
-136.5861158199235
 31
0.0
  0
LINE
  5
230
330
1B
100
AcDbEntity
 67
     1
  8
ﾀｲﾄﾙ枠
100
AcDbLine
 10
171.7189636347468
 20
-131.7170115424954
 30
0.0
 11
172.0726845649795
 21
-132.8870115424954
 31
0.0
  0
LINE
  5
231
330
1B
100
AcDbEntity
 67
     1
  8
ﾀｲﾄﾙ枠
100
AcDbLine
 10
172.6745575585283
 20
-132.1270115424954
 30
0.0
 11
172.6745575585283
 21
-131.9770115424955
 31
0.0
  0
LINE
  5
232
330
1B
100
AcDbEntity
 67
     1
  8
ﾀｲﾄﾙ枠
100
AcDbLine
 10
169.4445575585284
 20
-135.3992051087358
 30
0.0
 11
169.4445575585284
 21
-133.8070115424954
 31
0.0
  0
LINE
  5
233
330
1B
100
AcDbEntity
 67
     1
  8
ﾀｲﾄﾙ枠
100
AcDbLine
 10
168.6445575585284
 20
-135.4952051087358
 30
0.0
 11
168.6445575585284
 21
-133.8070115424954
 31
0.0
  0
LINE
  5
234
330
1B
100
AcDbEntity
 67
     1
  8
ﾀｲﾄﾙ枠
100
AcDbLine
 10
169.0445575585285
 20
-134.0570115424954
 30
0.0
 11
169.0445575585285
 21
-135.4472051087358
 31
0.0
  0
LINE
  5
235
330
1B
100
AcDbEntity
 67
     1
  8
ﾀｲﾄﾙ枠
100
AcDbLine
 10
167.8645575585284
 20
-135.5888051087358
 30
0.0
 11
170.6145575585284
 21
-135.2588051087358
 31
0.0
  0
LINE
  5
236
330
1B
100
AcDbEntity
 67
     1
  8
ﾀｲﾄﾙ枠
100
AcDbLine
 10
170.6145575585284
 20
-133.8070115424954
 30
0.0
 11
167.8645575585284
 21
-133.8070115424954
 31
0.0
  0
LINE
  5
237
330
1B
100
AcDbEntity
 67
     1
  8
ﾀｲﾄﾙ枠
100
AcDbLine
 10
170.8113142730076
 20
-131.7170115424954
 30
0.0
 11
171.7189636347468
 21
-131.7170115424954
 31
0.0
  0
LINE
  5
238
330
1B
100
AcDbEntity
 67
     1
  8
ﾀｲﾄﾙ枠
100
AcDbLine
 10
171.1650352032405
 20
-132.8870115424954
 30
0.0
 11
170.8113142730076
 21
-131.7170115424954
 31
0.0
  0
LINE
  5
239
330
1B
100
AcDbEntity
 67
     1
  8
ﾀｲﾄﾙ枠
100
AcDbLine
 10
165.9938074414873
 20
-136.8070115424954
 30
0.0
 11
165.5559272495397
 21
-136.8070115424954
 31
0.0
  0
LINE
  5
23A
330
1B
100
AcDbEntity
 67
     1
  8
ﾀｲﾄﾙ枠
100
AcDbLine
 10
170.3994569844299
 20
-135.9885542496599
 30
0.0
 11
168.1494569844299
 21
-136.3485542496599
 31
0.0
  0
LINE
  5
23B
330
1B
100
AcDbEntity
 67
     1
  8
ﾀｲﾄﾙ枠
100
AcDbLine
 10
170.6145575585284
 20
-136.2020605668158
 30
0.0
 11
167.8645575585284
 21
-136.7520605668158
 31
0.0
  0
LINE
  5
23C
330
1B
100
AcDbEntity
 67
     1
  8
ﾀｲﾄﾙ枠
100
AcDbLine
 10
171.1011513382824
 20
-131.9379072650673
 30
0.0
 11
172.5064236920761
 21
-136.5861158199235
 31
0.0
  0
LINE
  5
23D
330
1B
100
AcDbEntity
 67
     1
  8
ﾀｲﾄﾙ枠
100
AcDbLine
 10
171.3319213816316
 20
-131.9379072650673
 30
0.0
 11
172.7371937354252
 21
-136.5861158199235
 31
0.0
  0
LINE
  5
23E
330
1B
100
AcDbEntity
 67
     1
  8
ﾀｲﾄﾙ枠
100
AcDbLine
 10
172.3501514823101
 20
-136.8070115424954
 30
0.0
 11
171.1710817148681
 21
-132.9070115424955
 31
0.0
  0
LINE
  5
23F
330
1B
100
AcDbEntity
 67
     1
  8
ﾀｲﾄﾙ枠
100
AcDbLine
 10
165.4013074414874
 20
-135.2270115424955
 30
0.0
 11
165.9938074414873
 21
-136.8070115424954
 31
0.0
  0
LINE
  5
240
330
1B
100
AcDbEntity
 67
     1
  8
ﾀｲﾄﾙ枠
100
AcDbLine
 10
165.5559272495397
 20
-136.8070115424954
 30
0.0
 11
164.9634272495398
 21
-135.2270115424955
 31
0.0
  0
LINE
  5
241
330
1B
100
AcDbEntity
 67
     1
  8
ﾀｲﾄﾙ枠
100
AcDbLine
 10
170.6145575585284
 20
-135.2588051087358
 30
0.0
 11
170.6145575585284
 21
-136.2020605668158
 31
0.0
  0
LINE
  5
242
330
1B
100
AcDbEntity
 67
     1
  8
ﾀｲﾄﾙ枠
100
AcDbLine
 10
167.8645575585284
 20
-136.7520605668158
 30
0.0
 11
167.8645575585284
 21
-135.5888051087358
 31
0.0
  0
LINE
  5
243
330
1B
100
AcDbEntity
 67
     1
  8
ﾀｲﾄﾙ枠
100
AcDbLine
 10
170.3645575585284
 20
-135.7704328377758
 30
0.0
 11
168.1145575585284
 21
-136.1304328377758
 31
0.0
  0
LINE
  5
244
330
1B
100
AcDbEntity
 67
     1
  8
ﾀｲﾄﾙ枠
100
AcDbLine
 10
170.3296581326269
 20
-135.5523114258917
 30
0.0
 11
168.079658132627
 21
-135.9123114258917
 31
0.0
  0
LINE
  5
245
330
1B
100
AcDbEntity
 67
     1
  8
ﾀｲﾄﾙ枠
100
AcDbLine
 10
179.8045575585284
 20
-133.8620115424955
 30
0.0
 11
179.8045575585284
 21
-133.7520115424954
 31
0.0
  0
LINE
  5
246
330
1B
100
AcDbEntity
 67
     1
  8
ﾀｲﾄﾙ枠
100
AcDbLine
 10
180.8445575585284
 20
-132.8486930438801
 30
0.0
 11
180.8445575585284
 21
-133.5975030453081
 31
0.0
  0
LINE
  5
247
330
1B
100
AcDbEntity
 67
     1
  8
ﾀｲﾄﾙ枠
100
AcDbLine
 10
177.8767305627254
 20
-131.9670115424954
 30
0.0
 11
178.3323845543315
 21
-131.9670115424954
 31
0.0
  0
LINE
  5
248
330
1B
100
AcDbEntity
 67
     1
  8
ﾀｲﾄﾙ枠
100
AcDbLine
 10
175.3645575585284
 20
-132.8486930438801
 30
0.0
 11
177.3896718241641
 21
-131.7170115424954
 31
0.0
  0
LINE
  5
249
330
1B
100
AcDbEntity
 67
     1
  8
ﾀｲﾄﾙ枠
100
AcDbLine
 10
177.3896718241641
 20
-131.7170115424954
 30
0.0
 11
178.8194432928928
 21
-131.7170115424954
 31
0.0
  0
LINE
  5
24A
330
1B
100
AcDbEntity
 67
     1
  8
ﾀｲﾄﾙ枠
100
AcDbLine
 10
175.6145575585284
 20
-133.0980980445941
 30
0.0
 11
177.8767305627254
 21
-131.9670115424954
 31
0.0
  0
LINE
  5
24B
330
1B
100
AcDbEntity
 67
     1
  8
ﾀｲﾄﾙ枠
100
AcDbLine
 10
176.4045575585284
 20
-133.7520115424954
 30
0.0
 11
176.4045575585284
 21
-133.8620115424955
 31
0.0
  0
LINE
  5
24C
330
1B
100
AcDbEntity
 67
     1
  8
ﾀｲﾄﾙ枠
100
AcDbLine
 10
175.3645575585284
 20
-133.5975030453081
 30
0.0
 11
175.3645575585284
 21
-132.8486930438801
 31
0.0
  0
LINE
  5
24D
330
1B
100
AcDbEntity
 67
     1
  8
ﾀｲﾄﾙ枠
100
AcDbLine
 10
178.1045575585283
 20
-132.2275030453081
 30
0.0
 11
175.3645575585284
 21
-133.5975030453081
 31
0.0
  0
LINE
  5
24E
330
1B
100
AcDbEntity
 67
     1
  8
ﾀｲﾄﾙ枠
100
AcDbLine
 10
178.3323845543315
 20
-131.9670115424954
 30
0.0
 11
180.5945575585284
 21
-133.0980980445941
 31
0.0
  0
LINE
  5
24F
330
1B
100
AcDbEntity
 67
     1
  8
ﾀｲﾄﾙ枠
100
AcDbLine
 10
178.8194432928928
 20
-131.7170115424954
 30
0.0
 11
180.8445575585284
 21
-132.8486930438801
 31
0.0
  0
LINE
  5
250
330
1B
100
AcDbEntity
 67
     1
  8
ﾀｲﾄﾙ枠
100
AcDbLine
 10
176.4045575585284
 20
-133.8620115424955
 30
0.0
 11
179.8045575585284
 21
-133.8620115424955
 31
0.0
  0
LINE
  5
251
330
1B
100
AcDbEntity
 67
     1
  8
ﾀｲﾄﾙ枠
100
AcDbLine
 10
179.8045575585284
 20
-133.7520115424954
 30
0.0
 11
176.4045575585284
 21
-133.7520115424954
 31
0.0
  0
LINE
  5
252
330
1B
100
AcDbEntity
 67
     1
  8
ﾀｲﾄﾙ枠
100
AcDbLine
 10
180.8445575585284
 20
-134.7170115424954
 30
0.0
 11
175.3645575585284
 21
-134.7170115424954
 31
0.0
  0
LINE
  5
253
330
1B
100
AcDbEntity
 67
     1
  8
ﾀｲﾄﾙ枠
100
AcDbLine
 10
180.8445575585284
 20
-133.5975030453081
 30
0.0
 11
178.1045575585283
 21
-132.2275030453081
 31
0.0
  0
LINE
  5
254
330
1B
100
AcDbEntity
 67
     1
  8
ﾀｲﾄﾙ枠
100
AcDbLine
 10
173.2145575585285
 20
-131.9770115424955
 30
0.0
 11
173.2145575585285
 21
-132.1270115424954
 31
0.0
  0
LINE
  5
255
330
1B
100
AcDbEntity
 67
     1
  8
ﾀｲﾄﾙ枠
100
AcDbLine
 10
180.5698653113405
 20
-136.7970115424955
 30
0.0
 11
175.639249805716
 21
-136.7970115424955
 31
0.0
  0
LINE
  5
256
330
1B
100
AcDbEntity
 67
     1
  8
ﾀｲﾄﾙ枠
100
AcDbLine
 10
177.494880558779
 20
-134.8987088053368
 30
0.0
 11
176.1978908918616
 21
-136.5370115424955
 31
0.0
  0
LINE
  5
257
330
1B
100
AcDbEntity
 67
     1
  8
ﾀｲﾄﾙ枠
100
AcDbLine
 10
176.3448653113408
 20
-136.7970115424955
 30
0.0
 11
177.9915319780074
 21
-134.7170115424954
 31
0.0
  0
LINE
  5
258
330
1B
100
AcDbEntity
 67
     1
  8
ﾀｲﾄﾙ枠
100
AcDbLine
 10
175.639249805716
 20
-136.7970115424955
 30
0.0
 11
177.2779998057163
 21
-134.7270115424955
 31
0.0
  0
LINE
  5
259
330
1B
100
AcDbEntity
 67
     1
  8
ﾀｲﾄﾙ枠
100
AcDbLine
 10
180.011224225195
 20
-136.5370115424955
 30
0.0
 11
178.7142345582778
 21
-134.8987088053368
 31
0.0
  0
LINE
  5
25A
330
1B
100
AcDbEntity
 67
     1
  8
ﾀｲﾄﾙ枠
100
AcDbLine
 10
178.9311153113403
 20
-134.7270115424955
 30
0.0
 11
180.5698653113405
 21
-136.7970115424955
 31
0.0
  0
LINE
  5
25B
330
1B
100
AcDbEntity
 67
     1
  8
ﾀｲﾄﾙ枠
100
AcDbLine
 10
178.2175831390495
 20
-134.7170115424954
 30
0.0
 11
179.8642498057165
 21
-136.7970115424955
 31
0.0
  0
LINE
  5
25C
330
1B
100
AcDbEntity
 67
     1
  8
ﾀｲﾄﾙ枠
100
AcDbLine
 10
178.7681943670034
 20
-128.2666592094401
 30
0.0
 11
178.7681943670034
 21
-116.2666592094401
 31
0.0
  0
LINE
  5
25D
330
1B
100
AcDbEntity
 67
     1
  8
ﾀｲﾄﾙ枠
100
AcDbLine
 10
185.1524879802575
 20
-134.5770115424954
 30
0.0
 11
184.7045575585284
 21
-134.5770115424954
 31
0.0
  0
LINE
  5
25E
330
1B
100
AcDbEntity
 67
     1
  8
ﾀｲﾄﾙ枠
100
AcDbLine
 10
186.6345575585284
 20
-131.7170115424954
 30
0.0
 11
187.5645575585284
 21
-131.7170115424954
 31
0.0
  0
LINE
  5
25F
330
1B
100
AcDbEntity
 67
     1
  8
ﾀｲﾄﾙ枠
100
AcDbLine
 10
186.1145575585284
 20
-133.4170115424955
 30
0.0
 11
188.4745575585285
 21
-133.4170115424955
 31
0.0
  0
LINE
  5
260
330
1B
100
AcDbEntity
 67
     1
  8
ﾀｲﾄﾙ枠
100
AcDbLine
 10
183.9045575585284
 20
-134.5770115424954
 30
0.0
 11
183.4447473635423
 21
-134.5770115424954
 31
0.0
  0
LINE
  5
261
330
1B
100
AcDbEntity
 67
     1
  8
ﾀｲﾄﾙ枠
100
AcDbLine
 10
183.3845575585284
 20
-131.7270115424955
 30
0.0
 11
185.0945575585284
 21
-131.7270115424955
 31
0.0
  0
LINE
  5
262
330
1B
100
AcDbEntity
 67
     1
  8
ﾀｲﾄﾙ枠
100
AcDbLine
 10
185.2245575585283
 20
-133.4170115424955
 30
0.0
 11
183.1245575585284
 21
-133.4170115424955
 31
0.0
  0
LINE
  5
263
330
1B
100
AcDbEntity
 67
     1
  8
ﾀｲﾄﾙ枠
100
AcDbLine
 10
185.5391546469241
 20
-136.0270115424955
 30
0.0
 11
185.3839128999618
 21
-136.0270115424955
 31
0.0
  0
LINE
  5
264
330
1B
100
AcDbEntity
 67
     1
  8
ﾀｲﾄﾙ枠
100
AcDbLine
 10
188.6045575585283
 20
-136.8620115424955
 30
0.0
 11
185.9845575585285
 21
-136.8620115424955
 31
0.0
  0
LINE
  5
265
330
1B
100
AcDbEntity
 67
     1
  8
ﾀｲﾄﾙ枠
100
AcDbLine
 10
182.9614140302091
 20
-136.0270115424955
 30
0.0
 11
183.1195279132175
 21
-136.0270115424955
 31
0.0
  0
LINE
  5
266
330
1B
100
AcDbEntity
 67
     1
  8
ﾀｲﾄﾙ枠
100
AcDbLine
 10
183.9045575585284
 20
-136.8070115424954
 30
0.0
 11
184.7045575585284
 21
-136.8070115424954
 31
0.0
  0
LINE
  5
267
330
1B
100
AcDbEntity
 67
     1
  8
ﾀｲﾄﾙ枠
100
AcDbLine
 10
187.2995575585283
 20
-136.6120115424955
 30
0.0
 11
187.2995575585283
 21
-131.9670115424954
 31
0.0
  0
LINE
  5
268
330
1B
100
AcDbEntity
 67
     1
  8
ﾀｲﾄﾙ枠
100
AcDbLine
 10
187.5645575585284
 20
-131.7170115424954
 30
0.0
 11
187.5645575585284
 21
-136.8620115424955
 31
0.0
  0
LINE
  5
269
330
1B
100
AcDbEntity
 67
     1
  8
ﾀｲﾄﾙ枠
100
AcDbLine
 10
185.1524879802575
 20
-134.5770115424954
 30
0.0
 11
185.5391546469241
 21
-136.0270115424955
 31
0.0
  0
LINE
  5
26A
330
1B
100
AcDbEntity
 67
     1
  8
ﾀｲﾄﾙ枠
100
AcDbLine
 10
185.3839128999618
 20
-136.0270115424955
 30
0.0
 11
184.9972462332946
 21
-134.5770115424954
 31
0.0
  0
LINE
  5
26B
330
1B
100
AcDbEntity
 67
     1
  8
ﾀｲﾄﾙ枠
100
AcDbLine
 10
183.1195279132175
 20
-136.0270115424955
 30
0.0
 11
183.6028612465508
 21
-134.5770115424954
 31
0.0
  0
LINE
  5
26C
330
1B
100
AcDbEntity
 67
     1
  8
ﾀｲﾄﾙ枠
100
AcDbLine
 10
183.4447473635423
 20
-134.5770115424954
 30
0.0
 11
182.9614140302091
 21
-136.0270115424955
 31
0.0
  0
LINE
  5
26D
330
1B
100
AcDbEntity
 67
     1
  8
ﾀｲﾄﾙ枠
100
AcDbLine
 10
184.5045575585284
 20
-133.6670115424955
 30
0.0
 11
184.5045575585284
 21
-136.5570115424954
 31
0.0
  0
LINE
  5
26E
330
1B
100
AcDbEntity
 67
     1
  8
ﾀｲﾄﾙ枠
100
AcDbLine
 10
184.7045575585284
 20
-136.8070115424954
 30
0.0
 11
184.7045575585284
 21
-133.4170115424955
 31
0.0
  0
LINE
  5
26F
330
1B
100
AcDbEntity
 67
     1
  8
ﾀｲﾄﾙ枠
100
AcDbLine
 10
184.1045575585283
 20
-133.6670115424955
 30
0.0
 11
184.1045575585283
 21
-136.5570115424954
 31
0.0
  0
LINE
  5
270
330
1B
100
AcDbEntity
 67
     1
  8
ﾀｲﾄﾙ枠
100
AcDbLine
 10
184.3045575585284
 20
-133.6670115424955
 30
0.0
 11
184.3045575585284
 21
-136.5570115424954
 31
0.0
  0
LINE
  5
271
330
1B
100
AcDbEntity
 67
     1
  8
ﾀｲﾄﾙ枠
100
AcDbLine
 10
183.9045575585284
 20
-133.4170115424955
 30
0.0
 11
183.9045575585284
 21
-136.8070115424954
 31
0.0
  0
LINE
  5
272
330
1B
100
AcDbEntity
 67
     1
  8
ﾀｲﾄﾙ枠
100
AcDbLine
 10
186.8995575585284
 20
-136.6120115424955
 30
0.0
 11
186.8995575585284
 21
-131.9670115424954
 31
0.0
  0
LINE
  5
273
330
1B
100
AcDbEntity
 67
     1
  8
ﾀｲﾄﾙ枠
100
AcDbLine
 10
187.0995575585285
 20
-136.6120115424955
 30
0.0
 11
187.0995575585285
 21
-131.9670115424954
 31
0.0
  0
LINE
  5
274
330
1B
100
AcDbEntity
 67
     1
  8
ﾀｲﾄﾙ枠
100
AcDbLine
 10
186.6345575585284
 20
-136.8620115424955
 30
0.0
 11
186.6345575585284
 21
-131.7170115424954
 31
0.0
  0
ENDSEC
  0
SECTION
  2
OBJECTS
  0
DICTIONARY
  5
C
330
0
100
AcDbDictionary
281
     1
  3
ACAD_GROUP
350
D
  3
ACAD_LAYOUT
350
1A
  3
ACAD_MATERIAL
350
3B
  3
ACAD_MLEADERSTYLE
350
277
  3
ACAD_MLINESTYLE
350
17
  3
ACAD_PLOTSETTINGS
350
19
  3
ACAD_PLOTSTYLENAME
350
E
  3
ACAD_SCALELIST
350
27B
  3
ACAD_VISUALSTYLE
350
2A
  3
ACAD_WIPEOUT_VARS
350
49
  3
AcDbVariableDictionary
350
275
  0
DICTIONARY
  5
D
102
{ACAD_REACTORS
330
C
102
}
330
C
100
AcDbDictionary
281
     1
  0
DICTIONARY
  5
1A
102
{ACAD_REACTORS
330
C
102
}
330
C
100
AcDbDictionary
281
     1
  3
Model
350
22
  3
SQR600-80-H提出用
350
1E
  0
DICTIONARY
  5
3B
102
{ACAD_REACTORS
330
C
102
}
330
C
100
AcDbDictionary
281
     1
  3
ByBlock
350
3D
  3
ByLayer
350
3C
  3
Global
350
3E
  0
DICTIONARY
  5
277
102
{ACAD_REACTORS
330
C
102
}
330
C
100
AcDbDictionary
281
     1
  0
DICTIONARY
  5
17
102
{ACAD_REACTORS
330
C
102
}
330
C
100
AcDbDictionary
281
     1
  3
Standard
350
18
  0
DICTIONARY
  5
19
102
{ACAD_REACTORS
330
C
102
}
330
C
100
AcDbDictionary
281
     1
  0
ACDBDICTIONARYWDFLT
  5
E
102
{ACAD_REACTORS
330
C
102
}
330
C
100
AcDbDictionary
281
     1
  3
Normal
350
F
100
AcDbDictionaryWithDefault
340
F
  0
DICTIONARY
  5
27B
102
{ACAD_REACTORS
330
C
102
}
330
C
100
AcDbDictionary
281
     1
  3
A0
350
27C
  3
A1
350
27D
  3
A2
350
27E
  3
A3
350
27F
  3
A4
350
280
  3
A5
350
281
  3
A6
350
282
  3
A7
350
283
  3
A8
350
284
  3
A9
350
285
  3
B0
350
286
  3
B1
350
287
  3
B2
350
288
  3
B3
350
289
  3
B4
350
28A
  3
B5
350
28B
  3
B6
350
28C
  3
B7
350
28D
  3
B8
350
28E
  3
B9
350
28F
  3
C0
350
290
  3
C1
350
291
  3
C2
350
292
  3
C3
350
293
  3
C4
350
294
  3
C5
350
295
  3
C6
350
296
  3
C7
350
297
  3
C8
350
298
  3
C9
350
299
  3
D0
350
29A
  3
D1
350
29B
  3
D2
350
29C
  0
DICTIONARY
  5
2A
102
{ACAD_REACTORS
330
C
102
}
330
C
100
AcDbDictionary
281
     1
  3
2dWireframe
350
2F
  3
3D Hidden
350
31
  3
3dWireframe
350
30
  3
Basic
350
32
  3
Brighten
350
36
  3
ColorChange
350
3A
  3
Conceptual
350
34
  3
Dim
350
35
  3
Facepattern
350
39
  3
Flat
350
2B
  3
FlatWithEdges
350
2C
  3
Gouraud
350
2D
  3
GouraudWithEdges
350
2E
  3
Linepattern
350
38
  3
Realistic
350
33
  3
Thicken
350
37
  0
WIPEOUTVARIABLES
  5
49
102
{ACAD_REACTORS
330
C
102
}
330
C
100
AcDbWipeoutVariables
 70
     0
  0
DICTIONARY
  5
275
102
{ACAD_REACTORS
330
C
102
}
330
C
100
AcDbDictionary
281
     1
  3
CANNOSCALE
350
29D
  3
DIMASSOC
350
279
  3
HIDETEXT
350
27A
  3
XCLIPFRAME
350
278
  0
LAYOUT
  5
22
102
{ACAD_REACTORS
330
1A
102
}
330
1A
100
AcDbPlotSettings
  1

  2
none_device
  4

  6

 40
0.0
 41
0.0
 42
0.0
 43
0.0
 44
0.0
 45
0.0
 46
0.0
 47
0.0
 48
0.0
 49
0.0
140
0.0
141
0.0
142
1.0
143
1.0
 70
  1712
 72
     0
 73
     0
 74
     0
  7

 75
     0
147
1.0
148
0.0
149
0.0
100
AcDbLayout
  1
Model
 70
     1
 71
     0
 10
0.0
 20
0.0
 11
12.0
 21
9.0
 12
0.0
 22
0.0
 32
0.0
 14
6010.652169298479
 24
450.3227020337636
 34
0.0
 15
6430.810494493791
 25
747.3545318677479
 35
0.0
146
0.0
 13
0.0
 23
0.0
 33
0.0
 16
1.0
 26
0.0
 36
0.0
 17
0.0
 27
1.0
 37
0.0
 76
     0
330
1F
331
29
  0
LAYOUT
  5
1E
102
{ACAD_REACTORS
330
1A
102
}
330
1A
100
AcDbPlotSettings
  1

  2
none_device
  4
ISO_A3_(420.00_x_297.00_MM)
  6

 40
7.5
 41
20.0
 42
7.5
 43
20.0
 44
420.0
 45
297.0
 46
0.0
 47
0.0
 48
0.0
 49
0.0
140
0.0
141
0.0
142
1.0
143
1.0
 70
   640
 72
     1
 73
     0
 74
     5
  7

 75
    16
147
1.0
148
202.5791625976562
149
128.5159149169921
100
AcDbLayout
  1
SQR600-80-H提出用
 70
     1
 71
     1
 10
-220.583120727539
 20
-155.9417106628417
 11
220.583120727539
 21
155.9417106628417
 12
0.0
 22
0.0
 32
0.0
 14
-184.2318056329966
 24
-140.2666592094401
 34
0.0
 15
201.7681943670034
 25
139.7333407905599
 35
0.0
146
0.0
 13
0.0
 23
0.0
 33
0.0
 16
1.0
 26
0.0
 36
0.0
 17
0.0
 27
1.0
 37
0.0
 76
     0
330
1B
331
48
  0
MATERIAL
  5
3D
102
{ACAD_REACTORS
330
3B
102
}
102
{ACAD_XDICTIONARY
360
2C0
102
}
330
3B
100
AcDbMaterial
  1
ByBlock
  0
MATERIAL
  5
3C
102
{ACAD_REACTORS
330
3B
102
}
102
{ACAD_XDICTIONARY
360
2BE
102
}
330
3B
100
AcDbMaterial
  1
ByLayer
  0
MATERIAL
  5
3E
102
{ACAD_REACTORS
330
3B
102
}
102
{ACAD_XDICTIONARY
360
2C2
102
}
330
3B
100
AcDbMaterial
  1
Global
  0
MLINESTYLE
  5
18
102
{ACAD_REACTORS
330
17
102
}
330
17
100
AcDbMlineStyle
  2
Standard
 70
     0
  3

 62
   256
 51
90.0
 52
90.0
 71
     2
 49
0.5
 62
   256
  6
BYLAYER
 49
-0.5
 62
   256
  6
BYLAYER
  0
ACDBPLACEHOLDER
  5
F
102
{ACAD_REACTORS
330
E
102
}
330
E
  0
SCALE
  5
27C
102
{ACAD_REACTORS
330
27B
102
}
330
27B
100
AcDbScale
 70
     0
300
1:1
140
1.0
141
1.0
290
     1
  0
SCALE
  5
27D
102
{ACAD_REACTORS
330
27B
102
}
330
27B
100
AcDbScale
 70
     0
300
1:2
140
1.0
141
2.0
290
     0
  0
SCALE
  5
27E
102
{ACAD_REACTORS
330
27B
102
}
330
27B
100
AcDbScale
 70
     0
300
1:4
140
1.0
141
4.0
290
     0
  0
SCALE
  5
27F
102
{ACAD_REACTORS
330
27B
102
}
330
27B
100
AcDbScale
 70
     0
300
1:5
140
1.0
141
5.0
290
     0
  0
SCALE
  5
280
102
{ACAD_REACTORS
330
27B
102
}
330
27B
100
AcDbScale
 70
     0
300
1:8
140
1.0
141
8.0
290
     0
  0
SCALE
  5
281
102
{ACAD_REACTORS
330
27B
102
}
330
27B
100
AcDbScale
 70
     0
300
1:10
140
1.0
141
10.0
290
     0
  0
SCALE
  5
282
102
{ACAD_REACTORS
330
27B
102
}
330
27B
100
AcDbScale
 70
     0
300
1:16
140
1.0
141
16.0
290
     0
  0
SCALE
  5
283
102
{ACAD_REACTORS
330
27B
102
}
330
27B
100
AcDbScale
 70
     0
300
1:20
140
1.0
141
20.0
290
     0
  0
SCALE
  5
284
102
{ACAD_REACTORS
330
27B
102
}
330
27B
100
AcDbScale
 70
     0
300
1:30
140
1.0
141
30.0
290
     0
  0
SCALE
  5
285
102
{ACAD_REACTORS
330
27B
102
}
330
27B
100
AcDbScale
 70
     0
300
1:40
140
1.0
141
40.0
290
     0
  0
SCALE
  5
286
102
{ACAD_REACTORS
330
27B
102
}
330
27B
100
AcDbScale
 70
     0
300
1:50
140
1.0
141
50.0
290
     0
  0
SCALE
  5
287
102
{ACAD_REACTORS
330
27B
102
}
330
27B
100
AcDbScale
 70
     0
300
1:100
140
1.0
141
100.0
290
     0
  0
SCALE
  5
288
102
{ACAD_REACTORS
330
27B
102
}
330
27B
100
AcDbScale
 70
     0
300
2:1
140
2.0
141
1.0
290
     0
  0
SCALE
  5
289
102
{ACAD_REACTORS
330
27B
102
}
330
27B
100
AcDbScale
 70
     0
300
4:1
140
4.0
141
1.0
290
     0
  0
SCALE
  5
28A
102
{ACAD_REACTORS
330
27B
102
}
330
27B
100
AcDbScale
 70
     0
300
8:1
140
8.0
141
1.0
290
     0
  0
SCALE
  5
28B
102
{ACAD_REACTORS
330
27B
102
}
330
27B
100
AcDbScale
 70
     0
300
10:1
140
10.0
141
1.0
290
     0
  0
SCALE
  5
28C
102
{ACAD_REACTORS
330
27B
102
}
330
27B
100
AcDbScale
 70
     0
300
100:1
140
100.0
141
1.0
290
     0
  0
SCALE
  5
28D
102
{ACAD_REACTORS
330
27B
102
}
330
27B
100
AcDbScale
 70
     0
300
1/128" = 1'-0"
140
0.0078125
141
12.0
290
     0
  0
SCALE
  5
28E
102
{ACAD_REACTORS
330
27B
102
}
330
27B
100
AcDbScale
 70
     0
300
1/64" = 1'-0"
140
0.015625
141
12.0
290
     0
  0
SCALE
  5
28F
102
{ACAD_REACTORS
330
27B
102
}
330
27B
100
AcDbScale
 70
     0
300
1/32" = 1'-0"
140
0.03125
141
12.0
290
     0
  0
SCALE
  5
290
102
{ACAD_REACTORS
330
27B
102
}
330
27B
100
AcDbScale
 70
     0
300
1/16" = 1'-0"
140
0.0625
141
12.0
290
     0
  0
SCALE
  5
291
102
{ACAD_REACTORS
330
27B
102
}
330
27B
100
AcDbScale
 70
     0
300
3/32" = 1'-0"
140
0.09375
141
12.0
290
     0
  0
SCALE
  5
292
102
{ACAD_REACTORS
330
27B
102
}
330
27B
100
AcDbScale
 70
     0
300
1/8" = 1'-0"
140
0.125
141
12.0
290
     0
  0
SCALE
  5
293
102
{ACAD_REACTORS
330
27B
102
}
330
27B
100
AcDbScale
 70
     0
300
3/16" = 1'-0"
140
0.1875
141
12.0
290
     0
  0
SCALE
  5
294
102
{ACAD_REACTORS
330
27B
102
}
330
27B
100
AcDbScale
 70
     0
300
1/4" = 1'-0"
140
0.25
141
12.0
290
     0
  0
SCALE
  5
295
102
{ACAD_REACTORS
330
27B
102
}
330
27B
100
AcDbScale
 70
     0
300
3/8" = 1'-0"
140
0.375
141
12.0
290
     0
  0
SCALE
  5
296
102
{ACAD_REACTORS
330
27B
102
}
330
27B
100
AcDbScale
 70
     0
300
1/2" = 1'-0"
140
0.5
141
12.0
290
     0
  0
SCALE
  5
297
102
{ACAD_REACTORS
330
27B
102
}
330
27B
100
AcDbScale
 70
     0
300
3/4" = 1'-0"
140
0.75
141
12.0
290
     0
  0
SCALE
  5
298
102
{ACAD_REACTORS
330
27B
102
}
330
27B
100
AcDbScale
 70
     0
300
1" = 1'-0"
140
1.0
141
12.0
290
     0
  0
SCALE
  5
299
102
{ACAD_REACTORS
330
27B
102
}
330
27B
100
AcDbScale
 70
     0
300
1-1/2" = 1'-0"
140
1.5
141
12.0
290
     0
  0
SCALE
  5
29A
102
{ACAD_REACTORS
330
27B
102
}
330
27B
100
AcDbScale
 70
     0
300
3" = 1'-0"
140
3.0
141
12.0
290
     0
  0
SCALE
  5
29B
102
{ACAD_REACTORS
330
27B
102
}
330
27B
100
AcDbScale
 70
     0
300
6" = 1'-0"
140
6.0
141
12.0
290
     0
  0
SCALE
  5
29C
102
{ACAD_REACTORS
330
27B
102
}
330
27B
100
AcDbScale
 70
     0
300
1'-0" = 1'-0"
140
12.0
141
12.0
290
     0
  0
VISUALSTYLE
  5
2F
102
{ACAD_REACTORS
330
2A
102
}
102
{ACAD_XDICTIONARY
360
2A6
102
}
330
2A
100
AcDbVisualStyle
  2
2dWireframe
 70
     4
 71
     0
 72
     2
 73
     0
 90
        0
 40
-0.6
 41
-30.0
 62
     5
 63
     7
 74
     1
 91
        4
 64
     7
 65
   257
 75
     1
175
     1
 42
1.0
 92
        0
 66
   257
 43
1.0
 76
     1
 77
     6
 78
     2
 67
     7
 79
     5
170
     0
171
     0
290
     0
174
     0
 93
        1
 44
0.0
173
     0
291
     0
 45
0.0
1001
ACAD
1000
AcDbSavedByObjectVersion
1070
     0
  0
VISUALSTYLE
  5
31
102
{ACAD_REACTORS
330
2A
102
}
102
{ACAD_XDICTIONARY
360
2AA
102
}
330
2A
100
AcDbVisualStyle
  2
3D Hidden
 70
     6
 71
     1
 72
     2
 73
     2
 90
        0
 40
-0.6
 41
-30.0
 62
     5
 63
     7
 74
     2
 91
        2
 64
     7
 65
   257
 75
     2
175
     1
 42
40.0
 92
        0
 66
   257
 43
1.0
 76
     1
 77
     6
 78
     2
 67
     7
 79
     3
170
     0
171
     0
290
     0
174
     0
 93
        1
 44
0.0
173
     0
291
     0
 45
0.0
1001
ACAD
1000
AcDbSavedByObjectVersion
1070
     0
  0
VISUALSTYLE
  5
30
102
{ACAD_REACTORS
330
2A
102
}
102
{ACAD_XDICTIONARY
360
2A8
102
}
330
2A
100
AcDbVisualStyle
  2
3dWireframe
 70
     5
 71
     0
 72
     2
 73
     0
 90
        0
 40
-0.6
 41
-30.0
 62
     5
 63
     7
 74
     1
 91
        4
 64
     7
 65
   257
 75
     1
175
     1
 42
1.0
 92
        0
 66
   257
 43
1.0
 76
     1
 77
     6
 78
     2
 67
     7
 79
     5
170
     0
171
     0
290
     0
174
     0
 93
        1
 44
0.0
173
     0
291
     0
 45
0.0
1001
ACAD
1000
AcDbSavedByObjectVersion
1070
     0
  0
VISUALSTYLE
  5
32
102
{ACAD_REACTORS
330
2A
102
}
102
{ACAD_XDICTIONARY
360
2AC
102
}
330
2A
100
AcDbVisualStyle
  2
Basic
 70
     7
 71
     1
 72
     0
 73
     1
 90
        0
 40
-0.6
 41
-30.0
 62
     5
 63
     7
 74
     0
 91
        4
 64
     7
 65
   257
 75
     1
175
     1
 42
1.0
 92
        8
 66
     7
 43
1.0
 76
     1
 77
     6
 78
     2
 67
     7
 79
     5
170
     0
171
     0
290
     0
174
     0
 93
        1
 44
0.0
173
     0
291
     1
 45
0.0
1001
ACAD
1000
AcDbSavedByObjectVersion
1070
     0
  0
VISUALSTYLE
  5
36
102
{ACAD_REACTORS
330
2A
102
}
102
{ACAD_XDICTIONARY
360
2B4
102
}
330
2A
100
AcDbVisualStyle
  2
Brighten
 70
    12
 71
     2
 72
     2
 73
     0
 90
        0
 40
-0.6
 41
-30.0
 62
     5
 63
     7
 74
     1
 91
        4
 64
     7
 65
   257
 75
     1
175
     1
 42
1.0
 92
        8
 66
     7
 43
1.0
 76
     1
 77
     6
 78
     2
 67
     7
 79
     5
170
     0
171
     0
290
     0
174
     0
 93
        1
 44
50.0
173
     0
291
     1
 45
0.0
1001
ACAD
1000
AcDbSavedByObjectVersion
1070
     0
  0
VISUALSTYLE
  5
3A
102
{ACAD_REACTORS
330
2A
102
}
102
{ACAD_XDICTIONARY
360
2BC
102
}
330
2A
100
AcDbVisualStyle
  2
ColorChange
 70
    16
 71
     2
 72
     2
 73
     3
 90
        0
 40
-0.6
 41
-30.0
 62
     5
 63
     8
 74
     1
 91
        4
 64
     7
 65
   257
 75
     1
175
     1
 42
1.0
 92
        8
 66
     8
 43
1.0
 76
     1
 77
     6
 78
     2
 67
     7
 79
     5
170
     0
171
     0
290
     0
174
     0
 93
        1
 44
0.0
173
     0
291
     1
 45
0.0
1001
ACAD
1000
AcDbSavedByObjectVersion
1070
     0
  0
VISUALSTYLE
  5
34
102
{ACAD_REACTORS
330
2A
102
}
102
{ACAD_XDICTIONARY
360
2B0
102
}
330
2A
100
AcDbVisualStyle
  2
Conceptual
 70
     9
 71
     3
 72
     2
 73
     0
 90
        0
 40
-0.6
 41
-30.0
 62
     5
 63
     7
 74
     2
 91
        2
 64
     7
 65
   257
 75
     1
175
     1
 42
40.0
 92
        8
 66
     7
 43
1.0
 76
     1
 77
     6
 78
     2
 67
     7
 79
     3
170
     0
171
     0
290
     0
174
     0
 93
        1
 44
0.0
173
     0
291
     0
 45
0.0
1001
ACAD
1000
AcDbSavedByObjectVersion
1070
     0
  0
VISUALSTYLE
  5
35
102
{ACAD_REACTORS
330
2A
102
}
102
{ACAD_XDICTIONARY
360
2B2
102
}
330
2A
100
AcDbVisualStyle
  2
Dim
 70
    11
 71
     2
 72
     2
 73
     0
 90
        0
 40
-0.6
 41
-30.0
 62
     5
 63
     7
 74
     1
 91
        4
 64
     7
 65
   257
 75
     1
175
     1
 42
1.0
 92
        8
 66
     7
 43
1.0
 76
     1
 77
     6
 78
     2
 67
     7
 79
     5
170
     0
171
     0
290
     0
174
     0
 93
        1
 44
-50.0
173
     0
291
     1
 45
0.0
1001
ACAD
1000
AcDbSavedByObjectVersion
1070
     0
  0
VISUALSTYLE
  5
39
102
{ACAD_REACTORS
330
2A
102
}
102
{ACAD_XDICTIONARY
360
2BA
102
}
330
2A
100
AcDbVisualStyle
  2
Facepattern
 70
    15
 71
     2
 72
     2
 73
     0
 90
        0
 40
-0.6
 41
-30.0
 62
     5
 63
     7
 74
     1
 91
        4
 64
     7
 65
   257
 75
     1
175
     1
 42
1.0
 92
        8
 66
     7
 43
1.0
 76
     1
 77
     6
 78
     2
 67
     7
 79
     5
170
     0
171
     0
290
     0
174
     0
 93
        1
 44
0.0
173
     0
291
     1
 45
0.0
1001
ACAD
1000
AcDbSavedByObjectVersion
1070
     0
  0
VISUALSTYLE
  5
2B
102
{ACAD_REACTORS
330
2A
102
}
102
{ACAD_XDICTIONARY
360
29E
102
}
330
2A
100
AcDbVisualStyle
  2
Flat
 70
     0
 71
     2
 72
     1
 73
     1
 90
        2
 40
-0.6
 41
30.0
 62
     5
 63
     7
 74
     0
 91
        4
 64
     7
 65
   257
 75
     1
175
     1
 42
1.0
 92
        8
 66
     7
 43
1.0
 76
     1
 77
     6
 78
     2
 67
     7
 79
     5
170
     0
171
     0
290
     0
174
     0
 93
       13
 44
0.0
173
     0
291
     1
 45
0.0
1001
ACAD
1000
AcDbSavedByObjectVersion
1070
     0
  0
VISUALSTYLE
  5
2C
102
{ACAD_REACTORS
330
2A
102
}
102
{ACAD_XDICTIONARY
360
2A0
102
}
330
2A
100
AcDbVisualStyle
  2
FlatWithEdges
 70
     1
 71
     2
 72
     1
 73
     1
 90
        2
 40
-0.6
 41
30.0
 62
     5
 63
     7
 74
     1
 91
        4
 64
     7
 65
   257
 75
     1
175
     1
 42
1.0
 92
        0
 66
   257
 43
1.0
 76
     1
 77
     6
 78
     2
 67
     7
 79
     5
170
     0
171
     0
290
     0
174
     0
 93
       13
 44
0.0
173
     0
291
     1
 45
0.0
1001
ACAD
1000
AcDbSavedByObjectVersion
1070
     0
  0
VISUALSTYLE
  5
2D
102
{ACAD_REACTORS
330
2A
102
}
102
{ACAD_XDICTIONARY
360
2A2
102
}
330
2A
100
AcDbVisualStyle
  2
Gouraud
 70
     2
 71
     2
 72
     2
 73
     1
 90
        2
 40
-0.6
 41
30.0
 62
     5
 63
     7
 74
     0
 91
        4
 64
     7
 65
   257
 75
     1
175
     1
 42
1.0
 92
        0
 66
     7
 43
1.0
 76
     1
 77
     6
 78
     2
 67
     7
 79
     5
170
     0
171
     0
290
     0
174
     0
 93
       13
 44
0.0
173
     0
291
     1
 45
0.0
1001
ACAD
1000
AcDbSavedByObjectVersion
1070
     0
  0
VISUALSTYLE
  5
2E
102
{ACAD_REACTORS
330
2A
102
}
102
{ACAD_XDICTIONARY
360
2A4
102
}
330
2A
100
AcDbVisualStyle
  2
GouraudWithEdges
 70
     3
 71
     2
 72
     2
 73
     1
 90
        2
 40
-0.6
 41
30.0
 62
     5
 63
     7
 74
     1
 91
        4
 64
     7
 65
   257
 75
     1
175
     1
 42
1.0
 92
        0
 66
   257
 43
1.0
 76
     1
 77
     6
 78
     2
 67
     7
 79
     5
170
     0
171
     0
290
     0
174
     0
 93
       13
 44
0.0
173
     0
291
     1
 45
0.0
1001
ACAD
1000
AcDbSavedByObjectVersion
1070
     0
  0
VISUALSTYLE
  5
38
102
{ACAD_REACTORS
330
2A
102
}
102
{ACAD_XDICTIONARY
360
2B8
102
}
330
2A
100
AcDbVisualStyle
  2
Linepattern
 70
    14
 71
     2
 72
     2
 73
     0
 90
        0
 40
-0.6
 41
-30.0
 62
     5
 63
     7
 74
     1
 91
        4
 64
     7
 65
   257
 75
     7
175
     7
 42
1.0
 92
        8
 66
     7
 43
1.0
 76
     1
 77
     6
 78
     2
 67
     7
 79
     5
170
     0
171
     0
290
     0
174
     0
 93
        1
 44
0.0
173
     0
291
     1
 45
0.0
1001
ACAD
1000
AcDbSavedByObjectVersion
1070
     0
  0
VISUALSTYLE
  5
33
102
{ACAD_REACTORS
330
2A
102
}
102
{ACAD_XDICTIONARY
360
2AE
102
}
330
2A
100
AcDbVisualStyle
  2
Realistic
 70
     8
 71
     2
 72
     2
 73
     0
 90
        0
 40
-0.6
 41
-30.0
 62
     5
 63
     7
 74
     1
 91
        0
 64
     7
 65
   257
 75
     1
175
     1
 42
1.0
 92
        8
 66
     8
 43
1.0
 76
     1
 77
     6
 78
     2
 67
     7
 79
     5
170
     0
171
     0
290
     0
174
     0
 93
       13
 44
0.0
173
     0
291
     0
 45
0.0
1001
ACAD
1000
AcDbSavedByObjectVersion
1070
     0
  0
VISUALSTYLE
  5
37
102
{ACAD_REACTORS
330
2A
102
}
102
{ACAD_XDICTIONARY
360
2B6
102
}
330
2A
100
AcDbVisualStyle
  2
Thicken
 70
    13
 71
     2
 72
     2
 73
     0
 90
        0
 40
-0.6
 41
-30.0
 62
     5
 63
     7
 74
     1
 91
        4
 64
     7
 65
   257
 75
     1
175
     1
 42
1.0
 92
       12
 66
     7
 43
1.0
 76
     1
 77
     6
 78
     2
 67
     7
 79
     5
170
     0
171
     0
290
     0
174
     0
 93
        1
 44
0.0
173
     0
291
     1
 45
0.0
1001
ACAD
1000
AcDbSavedByObjectVersion
1070
     0
  0
DICTIONARYVAR
  5
29D
102
{ACAD_REACTORS
330
275
102
}
330
275
100
DictionaryVariables
280
     0
  1
1:1
  0
DICTIONARYVAR
  5
279
102
{ACAD_REACTORS
330
275
102
}
330
275
100
DictionaryVariables
280
     0
  1
2
  0
DICTIONARYVAR
  5
27A
102
{ACAD_REACTORS
330
275
102
}
330
275
100
DictionaryVariables
280
     0
  1
1
  0
DICTIONARYVAR
  5
278
102
{ACAD_REACTORS
330
275
102
}
330
275
100
DictionaryVariables
280
     0
  1
0
  0
DICTIONARY
  5
2C0
330
3D
100
AcDbDictionary
280
     1
281
     1
  3
ACAD_XREC_ROUNDTRIP
360
2C1
  0
DICTIONARY
  5
2BE
330
3C
100
AcDbDictionary
280
     1
281
     1
  3
ACAD_XREC_ROUNDTRIP
360
2BF
  0
DICTIONARY
  5
2C2
330
3E
100
AcDbDictionary
280
     1
281
     1
  3
ACAD_XREC_ROUNDTRIP
360
2C3
  0
DICTIONARY
  5
2A6
330
2F
100
AcDbDictionary
280
     1
281
     1
  3
ACAD_XREC_ROUNDTRIP
360
2A7
  0
DICTIONARY
  5
2AA
330
31
100
AcDbDictionary
280
     1
281
     1
  3
ACAD_XREC_ROUNDTRIP
360
2AB
  0
DICTIONARY
  5
2A8
330
30
100
AcDbDictionary
280
     1
281
     1
  3
ACAD_XREC_ROUNDTRIP
360
2A9
  0
DICTIONARY
  5
2AC
330
32
100
AcDbDictionary
280
     1
281
     1
  3
ACAD_XREC_ROUNDTRIP
360
2AD
  0
DICTIONARY
  5
2B4
330
36
100
AcDbDictionary
280
     1
281
     1
  3
ACAD_XREC_ROUNDTRIP
360
2B5
  0
DICTIONARY
  5
2BC
330
3A
100
AcDbDictionary
280
     1
281
     1
  3
ACAD_XREC_ROUNDTRIP
360
2BD
  0
DICTIONARY
  5
2B0
330
34
100
AcDbDictionary
280
     1
281
     1
  3
ACAD_XREC_ROUNDTRIP
360
2B1
  0
DICTIONARY
  5
2B2
330
35
100
AcDbDictionary
280
     1
281
     1
  3
ACAD_XREC_ROUNDTRIP
360
2B3
  0
DICTIONARY
  5
2BA
330
39
100
AcDbDictionary
280
     1
281
     1
  3
ACAD_XREC_ROUNDTRIP
360
2BB
  0
DICTIONARY
  5
29E
330
2B
100
AcDbDictionary
280
     1
281
     1
  3
ACAD_XREC_ROUNDTRIP
360
29F
  0
DICTIONARY
  5
2A0
330
2C
100
AcDbDictionary
280
     1
281
     1
  3
ACAD_XREC_ROUNDTRIP
360
2A1
  0
DICTIONARY
  5
2A2
330
2D
100
AcDbDictionary
280
     1
281
     1
  3
ACAD_XREC_ROUNDTRIP
360
2A3
  0
DICTIONARY
  5
2A4
330
2E
100
AcDbDictionary
280
     1
281
     1
  3
ACAD_XREC_ROUNDTRIP
360
2A5
  0
DICTIONARY
  5
2B8
330
38
100
AcDbDictionary
280
     1
281
     1
  3
ACAD_XREC_ROUNDTRIP
360
2B9
  0
DICTIONARY
  5
2AE
330
33
100
AcDbDictionary
280
     1
281
     1
  3
ACAD_XREC_ROUNDTRIP
360
2AF
  0
DICTIONARY
  5
2B6
330
37
100
AcDbDictionary
280
     1
281
     1
  3
ACAD_XREC_ROUNDTRIP
360
2B7
  0
XRECORD
  5
2C1
102
{ACAD_REACTORS
330
2C0
102
}
330
2C0
100
AcDbXrecord
280
     1
102
MATERIAL
148
0.0
149
0.0
149
0.0
 93
        0
 94
      127
282
     0
 72
     1
 77
     1
171
     1
175
     1
179
     1
273
     0
  0
XRECORD
  5
2BF
102
{ACAD_REACTORS
330
2BE
102
}
330
2BE
100
AcDbXrecord
280
     1
102
MATERIAL
148
0.0
149
0.0
149
0.0
 93
        0
 94
      127
282
     0
 72
     1
 77
     1
171
     1
175
     1
179
     1
273
     0
  0
XRECORD
  5
2C3
102
{ACAD_REACTORS
330
2C2
102
}
330
2C2
100
AcDbXrecord
280
     1
102
MATERIAL
148
0.0
149
0.0
149
0.0
 93
        0
 94
      127
282
     0
 72
     1
 77
     1
171
     1
175
     1
179
     1
273
     0
  0
XRECORD
  5
2A7
102
{ACAD_REACTORS
330
2A6
102
}
330
2A6
100
AcDbXrecord
280
     1
102
RTVSPropertyOp0
 70
     1
102
RTVSPropertyOp1
 70
     1
102
RTVSPropertyOp2
 70
     1
102
RTVSPropertyOp3
 70
     1
102
RTVSPropertyOp4
 70
     1
102
RTVSPropertyOp5
 70
     1
102
RTVSPropertyOp6
 70
     1
102
RTVSPropertyOp7
 70
     1
102
RTVSPropertyOp8
 70
     1
102
RTVSPropertyOp9
 70
     1
102
RTVSPropertyOp10
 70
     1
102
RTVSPropertyOp11
 70
     1
102
RTVSPropertyOp12
 70
     1
102
RTVSPropertyOp13
 70
     1
102
RTVSPropertyOp14
 70
     1
102
RTVSPropertyOp15
 70
     1
102
RTVSPropertyOp16
 70
     1
102
RTVSPropertyOp17
 70
     1
102
RTVSPropertyOp18
 70
     1
102
RTVSPropertyOp19
 70
     1
102
RTVSPropertyOp20
 70
     1
102
RTVSPropertyOp21
 70
     1
102
RTVSPropertyOp22
 70
     1
102
RTVSPropertyOp23
 70
     1
102
RTVSPropertyOp24
 70
     1
102
RTVSPropertyOp25
 70
     1
102
RTVSPropertyOp26
 70
     1
102
RTVSPropertyOp27
 70
     1
102
RTVSPropertyOp28
 70
     1
102
RTVSPropertyOp29
 70
     1
102
RTVSPropertyOp30
 70
     1
102
RTVSPropertyOp31
 70
     1
102
RTVSPropertyOp32
 70
     1
  0
XRECORD
  5
2AB
102
{ACAD_REACTORS
330
2AA
102
}
330
2AA
100
AcDbXrecord
280
     1
102
RTVSPropertyOp0
 70
     1
102
RTVSPropertyOp1
 70
     1
102
RTVSPropertyOp2
 70
     1
102
RTVSPropertyOp3
 70
     1
102
RTVSPropertyOp4
 70
     1
102
RTVSPropertyOp5
 70
     1
102
RTVSPropertyOp6
 70
     1
102
RTVSPropertyOp7
 70
     1
102
RTVSPropertyOp8
 70
     1
102
RTVSPropertyOp9
 70
     1
102
RTVSPropertyOp10
 70
     1
102
RTVSPropertyOp11
 70
     1
102
RTVSPropertyOp12
 70
     1
102
RTVSPropertyOp13
 70
     1
102
RTVSPropertyOp14
 70
     1
102
RTVSPropertyOp15
 70
     1
102
RTVSPropertyOp16
 70
     1
102
RTVSPropertyOp17
 70
     1
102
RTVSPropertyOp18
 70
     1
102
RTVSPropertyOp19
 70
     1
102
RTVSPropertyOp20
 70
     1
102
RTVSPropertyOp21
 70
     1
102
RTVSPropertyOp22
 70
     1
102
RTVSPropertyOp23
 70
     1
102
RTVSPropertyOp24
 70
     1
102
RTVSPropertyOp25
 70
     1
102
RTVSPropertyOp26
 70
     1
102
RTVSPropertyOp27
 70
     1
102
RTVSPropertyOp28
 70
     1
102
RTVSPropertyOp29
 70
     1
102
RTVSPropertyOp30
 70
     1
102
RTVSPropertyOp31
 70
     1
102
RTVSPropertyOp32
 70
     1
  0
XRECORD
  5
2A9
102
{ACAD_REACTORS
330
2A8
102
}
330
2A8
100
AcDbXrecord
280
     1
102
RTVSPropertyOp0
 70
     1
102
RTVSPropertyOp1
 70
     1
102
RTVSPropertyOp2
 70
     1
102
RTVSPropertyOp3
 70
     1
102
RTVSPropertyOp4
 70
     1
102
RTVSPropertyOp5
 70
     1
102
RTVSPropertyOp6
 70
     1
102
RTVSPropertyOp7
 70
     1
102
RTVSPropertyOp8
 70
     1
102
RTVSPropertyOp9
 70
     1
102
RTVSPropertyOp10
 70
     1
102
RTVSPropertyOp11
 70
     1
102
RTVSPropertyOp12
 70
     1
102
RTVSPropertyOp13
 70
     1
102
RTVSPropertyOp14
 70
     1
102
RTVSPropertyOp15
 70
     1
102
RTVSPropertyOp16
 70
     1
102
RTVSPropertyOp17
 70
     1
102
RTVSPropertyOp18
 70
     1
102
RTVSPropertyOp19
 70
     1
102
RTVSPropertyOp20
 70
     1
102
RTVSPropertyOp21
 70
     1
102
RTVSPropertyOp22
 70
     1
102
RTVSPropertyOp23
 70
     1
102
RTVSPropertyOp24
 70
     1
102
RTVSPropertyOp25
 70
     1
102
RTVSPropertyOp26
 70
     1
102
RTVSPropertyOp27
 70
     1
102
RTVSPropertyOp28
 70
     1
102
RTVSPropertyOp29
 70
     1
102
RTVSPropertyOp30
 70
     1
102
RTVSPropertyOp31
 70
     1
102
RTVSPropertyOp32
 70
     1
  0
XRECORD
  5
2AD
102
{ACAD_REACTORS
330
2AC
102
}
330
2AC
100
AcDbXrecord
280
     1
102
RTVSPropertyOp0
 70
     1
102
RTVSPropertyOp1
 70
     1
102
RTVSPropertyOp2
 70
     1
102
RTVSPropertyOp3
 70
     1
102
RTVSPropertyOp4
 70
     1
102
RTVSPropertyOp5
 70
     1
102
RTVSPropertyOp6
 70
     1
102
RTVSPropertyOp7
 70
     1
102
RTVSPropertyOp8
 70
     1
102
RTVSPropertyOp9
 70
     1
102
RTVSPropertyOp10
 70
     1
102
RTVSPropertyOp11
 70
     1
102
RTVSPropertyOp12
 70
     1
102
RTVSPropertyOp13
 70
     1
102
RTVSPropertyOp14
 70
     1
102
RTVSPropertyOp15
 70
     1
102
RTVSPropertyOp16
 70
     1
102
RTVSPropertyOp17
 70
     1
102
RTVSPropertyOp18
 70
     1
102
RTVSPropertyOp19
 70
     1
102
RTVSPropertyOp20
 70
     1
102
RTVSPropertyOp21
 70
     1
102
RTVSPropertyOp22
 70
     1
102
RTVSPropertyOp23
 70
     1
102
RTVSPropertyOp24
 70
     1
102
RTVSPropertyOp25
 70
     1
102
RTVSPropertyOp26
 70
     1
102
RTVSPropertyOp27
 70
     1
102
RTVSPropertyOp28
 70
     1
102
RTVSPropertyOp29
 70
     1
102
RTVSPropertyOp30
 70
     1
102
RTVSPropertyOp31
 70
     1
102
RTVSPropertyOp32
 70
     1
  0
XRECORD
  5
2B5
102
{ACAD_REACTORS
330
2B4
102
}
330
2B4
100
AcDbXrecord
280
     1
102
RTVSPropertyOp0
 70
     1
102
RTVSPropertyOp1
 70
     1
102
RTVSPropertyOp2
 70
     1
102
RTVSPropertyOp3
 70
     1
102
RTVSPropertyOp4
 70
     1
102
RTVSPropertyOp5
 70
     1
102
RTVSPropertyOp6
 70
     1
102
RTVSPropertyOp7
 70
     1
102
RTVSPropertyOp8
 70
     1
102
RTVSPropertyOp9
 70
     1
102
RTVSPropertyOp10
 70
     1
102
RTVSPropertyOp11
 70
     1
102
RTVSPropertyOp12
 70
     1
102
RTVSPropertyOp13
 70
     1
102
RTVSPropertyOp14
 70
     1
102
RTVSPropertyOp15
 70
     1
102
RTVSPropertyOp16
 70
     1
102
RTVSPropertyOp17
 70
     1
102
RTVSPropertyOp18
 70
     1
102
RTVSPropertyOp19
 70
     1
102
RTVSPropertyOp20
 70
     1
102
RTVSPropertyOp21
 70
     1
102
RTVSPropertyOp22
 70
     1
102
RTVSPropertyOp23
 70
     1
102
RTVSPropertyOp24
 70
     1
102
RTVSPropertyOp25
 70
     1
102
RTVSPropertyOp26
 70
     1
102
RTVSPropertyOp27
 70
     1
102
RTVSPropertyOp28
 70
     1
102
RTVSPropertyOp29
 70
     1
102
RTVSPropertyOp30
 70
     1
102
RTVSPropertyOp31
 70
     1
102
RTVSPropertyOp32
 70
     1
  0
XRECORD
  5
2BD
102
{ACAD_REACTORS
330
2BC
102
}
330
2BC
100
AcDbXrecord
280
     1
102
RTVSPropertyOp0
 70
     1
102
RTVSPropertyOp1
 70
     1
102
RTVSPropertyOp2
 70
     1
102
RTVSPropertyOp3
 70
     1
102
RTVSPropertyOp4
 70
     1
102
RTVSPropertyOp5
 70
     1
102
RTVSPropertyOp6
 70
     1
102
RTVSPropertyOp7
 70
     1
102
RTVSPropertyOp8
 70
     1
102
RTVSPropertyOp9
 70
     1
102
RTVSPropertyOp10
 70
     1
102
RTVSPropertyOp11
 70
     1
102
RTVSPropertyOp12
 70
     1
102
RTVSPropertyOp13
 70
     1
102
RTVSPropertyOp14
 70
     1
102
RTVSPropertyOp15
 70
     1
102
RTVSPropertyOp16
 70
     1
102
RTVSPropertyOp17
 70
     1
102
RTVSPropertyOp18
 70
     1
102
RTVSPropertyOp19
 70
     1
102
RTVSPropertyOp20
 70
     1
102
RTVSPropertyOp21
 70
     1
102
RTVSPropertyOp22
 70
     1
102
RTVSPropertyOp23
 70
     1
102
RTVSPropertyOp24
 70
     1
102
RTVSPropertyOp25
 70
     1
102
RTVSPropertyOp26
 70
     1
102
RTVSPropertyOp27
 70
     1
102
RTVSPropertyOp28
 70
     1
102
RTVSPropertyOp29
 70
     1
102
RTVSPropertyOp30
 70
     1
102
RTVSPropertyOp31
 70
     1
102
RTVSPropertyOp32
 70
     1
  0
XRECORD
  5
2B1
102
{ACAD_REACTORS
330
2B0
102
}
330
2B0
100
AcDbXrecord
280
     1
102
RTVSPropertyOp0
 70
     1
102
RTVSPropertyOp1
 70
     1
102
RTVSPropertyOp2
 70
     1
102
RTVSPropertyOp3
 70
     1
102
RTVSPropertyOp4
 70
     1
102
RTVSPropertyOp5
 70
     1
102
RTVSPropertyOp6
 70
     1
102
RTVSPropertyOp7
 70
     1
102
RTVSPropertyOp8
 70
     1
102
RTVSPropertyOp9
 70
     1
102
RTVSPropertyOp10
 70
     1
102
RTVSPropertyOp11
 70
     1
102
RTVSPropertyOp12
 70
     1
102
RTVSPropertyOp13
 70
     1
102
RTVSPropertyOp14
 70
     1
102
RTVSPropertyOp15
 70
     1
102
RTVSPropertyOp16
 70
     1
102
RTVSPropertyOp17
 70
     1
102
RTVSPropertyOp18
 70
     1
102
RTVSPropertyOp19
 70
     1
102
RTVSPropertyOp20
 70
     1
102
RTVSPropertyOp21
 70
     1
102
RTVSPropertyOp22
 70
     1
102
RTVSPropertyOp23
 70
     1
102
RTVSPropertyOp24
 70
     1
102
RTVSPropertyOp25
 70
     1
102
RTVSPropertyOp26
 70
     1
102
RTVSPropertyOp27
 70
     1
102
RTVSPropertyOp28
 70
     1
102
RTVSPropertyOp29
 70
     1
102
RTVSPropertyOp30
 70
     1
102
RTVSPropertyOp31
 70
     1
102
RTVSPropertyOp32
 70
     1
  0
XRECORD
  5
2B3
102
{ACAD_REACTORS
330
2B2
102
}
330
2B2
100
AcDbXrecord
280
     1
102
RTVSPropertyOp0
 70
     1
102
RTVSPropertyOp1
 70
     1
102
RTVSPropertyOp2
 70
     1
102
RTVSPropertyOp3
 70
     1
102
RTVSPropertyOp4
 70
     1
102
RTVSPropertyOp5
 70
     1
102
RTVSPropertyOp6
 70
     1
102
RTVSPropertyOp7
 70
     1
102
RTVSPropertyOp8
 70
     1
102
RTVSPropertyOp9
 70
     1
102
RTVSPropertyOp10
 70
     1
102
RTVSPropertyOp11
 70
     1
102
RTVSPropertyOp12
 70
     1
102
RTVSPropertyOp13
 70
     1
102
RTVSPropertyOp14
 70
     1
102
RTVSPropertyOp15
 70
     1
102
RTVSPropertyOp16
 70
     1
102
RTVSPropertyOp17
 70
     1
102
RTVSPropertyOp18
 70
     1
102
RTVSPropertyOp19
 70
     1
102
RTVSPropertyOp20
 70
     1
102
RTVSPropertyOp21
 70
     1
102
RTVSPropertyOp22
 70
     1
102
RTVSPropertyOp23
 70
     1
102
RTVSPropertyOp24
 70
     1
102
RTVSPropertyOp25
 70
     1
102
RTVSPropertyOp26
 70
     1
102
RTVSPropertyOp27
 70
     1
102
RTVSPropertyOp28
 70
     1
102
RTVSPropertyOp29
 70
     1
102
RTVSPropertyOp30
 70
     1
102
RTVSPropertyOp31
 70
     1
102
RTVSPropertyOp32
 70
     1
  0
XRECORD
  5
2BB
102
{ACAD_REACTORS
330
2BA
102
}
330
2BA
100
AcDbXrecord
280
     1
102
RTVSPropertyOp0
 70
     1
102
RTVSPropertyOp1
 70
     1
102
RTVSPropertyOp2
 70
     1
102
RTVSPropertyOp3
 70
     1
102
RTVSPropertyOp4
 70
     1
102
RTVSPropertyOp5
 70
     1
102
RTVSPropertyOp6
 70
     1
102
RTVSPropertyOp7
 70
     1
102
RTVSPropertyOp8
 70
     1
102
RTVSPropertyOp9
 70
     1
102
RTVSPropertyOp10
 70
     1
102
RTVSPropertyOp11
 70
     1
102
RTVSPropertyOp12
 70
     1
102
RTVSPropertyOp13
 70
     1
102
RTVSPropertyOp14
 70
     1
102
RTVSPropertyOp15
 70
     1
102
RTVSPropertyOp16
 70
     1
102
RTVSPropertyOp17
 70
     1
102
RTVSPropertyOp18
 70
     1
102
RTVSPropertyOp19
 70
     1
102
RTVSPropertyOp20
 70
     1
102
RTVSPropertyOp21
 70
     1
102
RTVSPropertyOp22
 70
     1
102
RTVSPropertyOp23
 70
     1
102
RTVSPropertyOp24
 70
     1
102
RTVSPropertyOp25
 70
     1
102
RTVSPropertyOp26
 70
     1
102
RTVSPropertyOp27
 70
     1
102
RTVSPropertyOp28
 70
     1
102
RTVSPropertyOp29
 70
     1
102
RTVSPropertyOp30
 70
     1
102
RTVSPropertyOp31
 70
     1
102
RTVSPropertyOp32
 70
     1
  0
XRECORD
  5
29F
102
{ACAD_REACTORS
330
29E
102
}
330
29E
100
AcDbXrecord
280
     1
102
RTVSPropertyOp0
 70
     1
102
RTVSPropertyOp1
 70
     1
102
RTVSPropertyOp2
 70
     1
102
RTVSPropertyOp3
 70
     1
102
RTVSPropertyOp4
 70
     1
102
RTVSPropertyOp5
 70
     1
102
RTVSPropertyOp6
 70
     1
102
RTVSPropertyOp7
 70
     1
102
RTVSPropertyOp8
 70
     1
102
RTVSPropertyOp9
 70
     1
102
RTVSPropertyOp10
 70
     1
102
RTVSPropertyOp11
 70
     1
102
RTVSPropertyOp12
 70
     1
102
RTVSPropertyOp13
 70
     1
102
RTVSPropertyOp14
 70
     1
102
RTVSPropertyOp15
 70
     1
102
RTVSPropertyOp16
 70
     1
102
RTVSPropertyOp17
 70
     1
102
RTVSPropertyOp18
 70
     1
102
RTVSPropertyOp19
 70
     1
102
RTVSPropertyOp20
 70
     1
102
RTVSPropertyOp21
 70
     1
102
RTVSPropertyOp22
 70
     1
102
RTVSPropertyOp23
 70
     1
102
RTVSPropertyOp24
 70
     1
102
RTVSPropertyOp25
 70
     1
102
RTVSPropertyOp26
 70
     1
102
RTVSPropertyOp27
 70
     1
102
RTVSPropertyOp28
 70
     1
102
RTVSPropertyOp29
 70
     1
102
RTVSPropertyOp30
 70
     1
102
RTVSPropertyOp31
 70
     1
102
RTVSPropertyOp32
 70
     1
  0
XRECORD
  5
2A1
102
{ACAD_REACTORS
330
2A0
102
}
330
2A0
100
AcDbXrecord
280
     1
102
RTVSPropertyOp0
 70
     1
102
RTVSPropertyOp1
 70
     1
102
RTVSPropertyOp2
 70
     1
102
RTVSPropertyOp3
 70
     1
102
RTVSPropertyOp4
 70
     1
102
RTVSPropertyOp5
 70
     1
102
RTVSPropertyOp6
 70
     1
102
RTVSPropertyOp7
 70
     1
102
RTVSPropertyOp8
 70
     1
102
RTVSPropertyOp9
 70
     1
102
RTVSPropertyOp10
 70
     1
102
RTVSPropertyOp11
 70
     1
102
RTVSPropertyOp12
 70
     1
102
RTVSPropertyOp13
 70
     1
102
RTVSPropertyOp14
 70
     1
102
RTVSPropertyOp15
 70
     1
102
RTVSPropertyOp16
 70
     1
102
RTVSPropertyOp17
 70
     1
102
RTVSPropertyOp18
 70
     1
102
RTVSPropertyOp19
 70
     1
102
RTVSPropertyOp20
 70
     1
102
RTVSPropertyOp21
 70
     1
102
RTVSPropertyOp22
 70
     1
102
RTVSPropertyOp23
 70
     1
102
RTVSPropertyOp24
 70
     1
102
RTVSPropertyOp25
 70
     1
102
RTVSPropertyOp26
 70
     1
102
RTVSPropertyOp27
 70
     1
102
RTVSPropertyOp28
 70
     1
102
RTVSPropertyOp29
 70
     1
102
RTVSPropertyOp30
 70
     1
102
RTVSPropertyOp31
 70
     1
102
RTVSPropertyOp32
 70
     1
  0
XRECORD
  5
2A3
102
{ACAD_REACTORS
330
2A2
102
}
330
2A2
100
AcDbXrecord
280
     1
102
RTVSPropertyOp0
 70
     1
102
RTVSPropertyOp1
 70
     1
102
RTVSPropertyOp2
 70
     1
102
RTVSPropertyOp3
 70
     1
102
RTVSPropertyOp4
 70
     1
102
RTVSPropertyOp5
 70
     1
102
RTVSPropertyOp6
 70
     1
102
RTVSPropertyOp7
 70
     1
102
RTVSPropertyOp8
 70
     1
102
RTVSPropertyOp9
 70
     1
102
RTVSPropertyOp10
 70
     1
102
RTVSPropertyOp11
 70
     1
102
RTVSPropertyOp12
 70
     1
102
RTVSPropertyOp13
 70
     1
102
RTVSPropertyOp14
 70
     1
102
RTVSPropertyOp15
 70
     1
102
RTVSPropertyOp16
 70
     1
102
RTVSPropertyOp17
 70
     1
102
RTVSPropertyOp18
 70
     1
102
RTVSPropertyOp19
 70
     1
102
RTVSPropertyOp20
 70
     1
102
RTVSPropertyOp21
 70
     1
102
RTVSPropertyOp22
 70
     1
102
RTVSPropertyOp23
 70
     1
102
RTVSPropertyOp24
 70
     1
102
RTVSPropertyOp25
 70
     1
102
RTVSPropertyOp26
 70
     1
102
RTVSPropertyOp27
 70
     1
102
RTVSPropertyOp28
 70
     1
102
RTVSPropertyOp29
 70
     1
102
RTVSPropertyOp30
 70
     1
102
RTVSPropertyOp31
 70
     1
102
RTVSPropertyOp32
 70
     1
  0
XRECORD
  5
2A5
102
{ACAD_REACTORS
330
2A4
102
}
330
2A4
100
AcDbXrecord
280
     1
102
RTVSPropertyOp0
 70
     1
102
RTVSPropertyOp1
 70
     1
102
RTVSPropertyOp2
 70
     1
102
RTVSPropertyOp3
 70
     1
102
RTVSPropertyOp4
 70
     1
102
RTVSPropertyOp5
 70
     1
102
RTVSPropertyOp6
 70
     1
102
RTVSPropertyOp7
 70
     1
102
RTVSPropertyOp8
 70
     1
102
RTVSPropertyOp9
 70
     1
102
RTVSPropertyOp10
 70
     1
102
RTVSPropertyOp11
 70
     1
102
RTVSPropertyOp12
 70
     1
102
RTVSPropertyOp13
 70
     1
102
RTVSPropertyOp14
 70
     1
102
RTVSPropertyOp15
 70
     1
102
RTVSPropertyOp16
 70
     1
102
RTVSPropertyOp17
 70
     1
102
RTVSPropertyOp18
 70
     1
102
RTVSPropertyOp19
 70
     1
102
RTVSPropertyOp20
 70
     1
102
RTVSPropertyOp21
 70
     1
102
RTVSPropertyOp22
 70
     1
102
RTVSPropertyOp23
 70
     1
102
RTVSPropertyOp24
 70
     1
102
RTVSPropertyOp25
 70
     1
102
RTVSPropertyOp26
 70
     1
102
RTVSPropertyOp27
 70
     1
102
RTVSPropertyOp28
 70
     1
102
RTVSPropertyOp29
 70
     1
102
RTVSPropertyOp30
 70
     1
102
RTVSPropertyOp31
 70
     1
102
RTVSPropertyOp32
 70
     1
  0
XRECORD
  5
2B9
102
{ACAD_REACTORS
330
2B8
102
}
330
2B8
100
AcDbXrecord
280
     1
102
RTVSPropertyOp0
 70
     1
102
RTVSPropertyOp1
 70
     1
102
RTVSPropertyOp2
 70
     1
102
RTVSPropertyOp3
 70
     1
102
RTVSPropertyOp4
 70
     1
102
RTVSPropertyOp5
 70
     1
102
RTVSPropertyOp6
 70
     1
102
RTVSPropertyOp7
 70
     1
102
RTVSPropertyOp8
 70
     1
102
RTVSPropertyOp9
 70
     1
102
RTVSPropertyOp10
 70
     1
102
RTVSPropertyOp11
 70
     1
102
RTVSPropertyOp12
 70
     1
102
RTVSPropertyOp13
 70
     1
102
RTVSPropertyOp14
 70
     1
102
RTVSPropertyOp15
 70
     1
102
RTVSPropertyOp16
 70
     1
102
RTVSPropertyOp17
 70
     1
102
RTVSPropertyOp18
 70
     1
102
RTVSPropertyOp19
 70
     1
102
RTVSPropertyOp20
 70
     1
102
RTVSPropertyOp21
 70
     1
102
RTVSPropertyOp22
 70
     1
102
RTVSPropertyOp23
 70
     1
102
RTVSPropertyOp24
 70
     1
102
RTVSPropertyOp25
 70
     1
102
RTVSPropertyOp26
 70
     1
102
RTVSPropertyOp27
 70
     1
102
RTVSPropertyOp28
 70
     1
102
RTVSPropertyOp29
 70
     1
102
RTVSPropertyOp30
 70
     1
102
RTVSPropertyOp31
 70
     1
102
RTVSPropertyOp32
 70
     1
  0
XRECORD
  5
2AF
102
{ACAD_REACTORS
330
2AE
102
}
330
2AE
100
AcDbXrecord
280
     1
102
RTVSPropertyOp0
 70
     1
102
RTVSPropertyOp1
 70
     1
102
RTVSPropertyOp2
 70
     1
102
RTVSPropertyOp3
 70
     1
102
RTVSPropertyOp4
 70
     1
102
RTVSPropertyOp5
 70
     1
102
RTVSPropertyOp6
 70
     1
102
RTVSPropertyOp7
 70
     1
102
RTVSPropertyOp8
 70
     1
102
RTVSPropertyOp9
 70
     1
102
RTVSPropertyOp10
 70
     1
102
RTVSPropertyOp11
 70
     1
102
RTVSPropertyOp12
 70
     1
102
RTVSPropertyOp13
 70
     1
102
RTVSPropertyOp14
 70
     1
102
RTVSPropertyOp15
 70
     1
102
RTVSPropertyOp16
 70
     1
102
RTVSPropertyOp17
 70
     1
102
RTVSPropertyOp18
 70
     1
102
RTVSPropertyOp19
 70
     1
102
RTVSPropertyOp20
 70
     1
102
RTVSPropertyOp21
 70
     1
102
RTVSPropertyOp22
 70
     1
102
RTVSPropertyOp23
 70
     1
102
RTVSPropertyOp24
 70
     1
102
RTVSPropertyOp25
 70
     1
102
RTVSPropertyOp26
 70
     1
102
RTVSPropertyOp27
 70
     1
102
RTVSPropertyOp28
 70
     1
102
RTVSPropertyOp29
 70
     1
102
RTVSPropertyOp30
 70
     1
102
RTVSPropertyOp31
 70
     1
102
RTVSPropertyOp32
 70
     1
  0
XRECORD
  5
2B7
102
{ACAD_REACTORS
330
2B6
102
}
330
2B6
100
AcDbXrecord
280
     1
102
RTVSPropertyOp0
 70
     1
102
RTVSPropertyOp1
 70
     1
102
RTVSPropertyOp2
 70
     1
102
RTVSPropertyOp3
 70
     1
102
RTVSPropertyOp4
 70
     1
102
RTVSPropertyOp5
 70
     1
102
RTVSPropertyOp6
 70
     1
102
RTVSPropertyOp7
 70
     1
102
RTVSPropertyOp8
 70
     1
102
RTVSPropertyOp9
 70
     1
102
RTVSPropertyOp10
 70
     1
102
RTVSPropertyOp11
 70
     1
102
RTVSPropertyOp12
 70
     1
102
RTVSPropertyOp13
 70
     1
102
RTVSPropertyOp14
 70
     1
102
RTVSPropertyOp15
 70
     1
102
RTVSPropertyOp16
 70
     1
102
RTVSPropertyOp17
 70
     1
102
RTVSPropertyOp18
 70
     1
102
RTVSPropertyOp19
 70
     1
102
RTVSPropertyOp20
 70
     1
102
RTVSPropertyOp21
 70
     1
102
RTVSPropertyOp22
 70
     1
102
RTVSPropertyOp23
 70
     1
102
RTVSPropertyOp24
 70
     1
102
RTVSPropertyOp25
 70
     1
102
RTVSPropertyOp26
 70
     1
102
RTVSPropertyOp27
 70
     1
102
RTVSPropertyOp28
 70
     1
102
RTVSPropertyOp29
 70
     1
102
RTVSPropertyOp30
 70
     1
102
RTVSPropertyOp31
 70
     1
102
RTVSPropertyOp32
 70
     1
  0
ENDSEC
  0
EOF
