  0
SECTION
  2
HEADER
  9
$ACADVER
  1
AC1015
  9
$ACADMAINTVER
 70
     6
  9
$DWGCODEPAGE
  3
ANSI_932
  9
$INSBASE
 10
0.0
 20
0.0
 30
0.0
  9
$EXTMIN
 10
1099.171540263775
 20
1059.012406305858
 30
0.0
  9
$EXTMAX
 10
3621.237023065774
 20
2040.448189148005
 30
0.0
  9
$LIMMIN
 10
0.0
 20
0.0
  9
$LIMMAX
 10
4200.0
 20
2970.0
  9
$ORTHOMODE
 70
     0
  9
$REGENMODE
 70
     1
  9
$FILLMODE
 70
     1
  9
$QTEXTMODE
 70
     0
  9
$MIRRTEXT
 70
     1
  9
$LTSCALE
 40
10.0
  9
$ATTMODE
 70
     2
  9
$TEXTSIZE
 40
5.0
  9
$TRACEWID
 40
1.0
  9
$TEXTSTYLE
  7
MSP明朝1
  9
$CLAYER
  8
sunpo
  9
$CELTYPE
  6
BYLAYER
  9
$CECOLOR
 62
   256
  9
$CELTSCALE
 40
1.0
  9
$DISPSILH
 70
     0
  9
$DIMSCALE
 40
0.0
  9
$DIMASZ
 40
2.0
  9
$DIMEXO
 40
0.0
  9
$DIMDLI
 40
3.0
  9
$DIMRND
 40
0.0
  9
$DIMDLE
 40
0.0
  9
$DIMEXE
 40
0.7
  9
$DIMTP
 40
0.0
  9
$DIMTM
 40
0.0
  9
$DIMTXT
 40
2.5
  9
$DIMCEN
 40
0.0
  9
$DIMTSZ
 40
0.0
  9
$DIMTOL
 70
     0
  9
$DIMLIM
 70
     0
  9
$DIMTIH
 70
     0
  9
$DIMTOH
 70
     0
  9
$DIMSE1
 70
     0
  9
$DIMSE2
 70
     0
  9
$DIMTAD
 70
     1
  9
$DIMZIN
 70
     8
  9
$DIMBLK
  1

  9
$DIMASO
 70
     1
  9
$DIMSHO
 70
     1
  9
$DIMPOST
  1

  9
$DIMAPOST
  1

  9
$DIMALT
 70
     0
  9
$DIMALTD
 70
     4
  9
$DIMALTF
 40
0.0394
  9
$DIMLFAC
 40
1.0
  9
$DIMTOFL
 70
     1
  9
$DIMTVP
 40
0.0
  9
$DIMTIX
 70
     0
  9
$DIMSOXD
 70
     0
  9
$DIMSAH
 70
     1
  9
$DIMBLK1
  1
OPEN30
  9
$DIMBLK2
  1
OPEN30
  9
$DIMSTYLE
  2
MSP明朝寸法1
  9
$DIMCLRD
 70
     3
  9
$DIMCLRE
 70
     3
  9
$DIMCLRT
 70
     3
  9
$DIMTFAC
 40
1.0
  9
$DIMGAP
 40
1.0
  9
$DIMJUST
 70
     0
  9
$DIMSD1
 70
     0
  9
$DIMSD2
 70
     0
  9
$DIMTOLJ
 70
     1
  9
$DIMTZIN
 70
     0
  9
$DIMALTZ
 70
     0
  9
$DIMALTTZ
 70
     0
  9
$DIMUPT
 70
     1
  9
$DIMDEC
 70
     2
  9
$DIMTDEC
 70
     2
  9
$DIMALTU
 70
     8
  9
$DIMALTTD
 70
     4
  9
$DIMTXSTY
  7
MSP明朝W1
  9
$DIMAUNIT
 70
     0
  9
$DIMADEC
 70
     0
  9
$DIMALTRND
 40
0.0
  9
$DIMAZIN
 70
     0
  9
$DIMDSEP
 70
    46
  9
$DIMATFIT
 70
     3
  9
$DIMFRAC
 70
     0
  9
$DIMLDRBLK
  1
OPEN30
  9
$DIMLUNIT
 70
     2
  9
$DIMLWD
 70
    -2
  9
$DIMLWE
 70
    -2
  9
$DIMTMOVE
 70
     0
  9
$LUNITS
 70
     2
  9
$LUPREC
 70
     3
  9
$SKETCHINC
 40
1.0
  9
$FILLETRAD
 40
0.5
  9
$AUNITS
 70
     0
  9
$AUPREC
 70
     3
  9
$MENU
  1
acad
  9
$ELEVATION
 40
0.0
  9
$PELEVATION
 40
0.0
  9
$THICKNESS
 40
0.0
  9
$LIMCHECK
 70
     0
  9
$CHAMFERA
 40
100.0
  9
$CHAMFERB
 40
100.0
  9
$CHAMFERC
 40
200.0
  9
$CHAMFERD
 40
0.0
  9
$SKPOLY
 70
     0
  9
$TDCREATE
 40
2451337.667237268
  9
$TDUCREATE
 40
2451337.292237268
  9
$TDUPDATE
 40
2456127.688479085
  9
$TDUUPDATE
 40
2456127.313479085
  9
$TDINDWG
 40
0.4923177431
  9
$TDUSRTIMER
 40
0.4923177431
  9
$USRTIMER
 70
     1
  9
$ANGBASE
 50
0.0
  9
$ANGDIR
 70
     0
  9
$PDMODE
 70
     0
  9
$PDSIZE
 40
0.0
  9
$PLINEWID
 40
0.0
  9
$SPLFRAME
 70
     0
  9
$SPLINETYPE
 70
     6
  9
$SPLINESEGS
 70
     8
  9
$HANDSEED
  5
2952
  9
$SURFTAB1
 70
     6
  9
$SURFTAB2
 70
     6
  9
$SURFTYPE
 70
     6
  9
$SURFU
 70
     6
  9
$SURFV
 70
     6
  9
$UCSBASE
  2

  9
$UCSNAME
  2

  9
$UCSORG
 10
1000.0
 20
1000.0
 30
0.0
  9
$UCSXDIR
 10
1.0
 20
0.0
 30
0.0
  9
$UCSYDIR
 10
0.0
 20
1.0
 30
0.0
  9
$UCSORTHOREF
  2

  9
$UCSORTHOVIEW
 70
     0
  9
$UCSORGTOP
 10
0.0
 20
0.0
 30
0.0
  9
$UCSORGBOTTOM
 10
0.0
 20
0.0
 30
0.0
  9
$UCSORGLEFT
 10
0.0
 20
0.0
 30
0.0
  9
$UCSORGRIGHT
 10
0.0
 20
0.0
 30
0.0
  9
$UCSORGFRONT
 10
0.0
 20
0.0
 30
0.0
  9
$UCSORGBACK
 10
0.0
 20
0.0
 30
0.0
  9
$PUCSBASE
  2

  9
$PUCSNAME
  2

  9
$PUCSORG
 10
0.0
 20
0.0
 30
0.0
  9
$PUCSXDIR
 10
1.0
 20
0.0
 30
0.0
  9
$PUCSYDIR
 10
0.0
 20
1.0
 30
0.0
  9
$PUCSORTHOREF
  2

  9
$PUCSORTHOVIEW
 70
     0
  9
$PUCSORGTOP
 10
0.0
 20
0.0
 30
0.0
  9
$PUCSORGBOTTOM
 10
0.0
 20
0.0
 30
0.0
  9
$PUCSORGLEFT
 10
0.0
 20
0.0
 30
0.0
  9
$PUCSORGRIGHT
 10
0.0
 20
0.0
 30
0.0
  9
$PUCSORGFRONT
 10
0.0
 20
0.0
 30
0.0
  9
$PUCSORGBACK
 10
0.0
 20
0.0
 30
0.0
  9
$USERI1
 70
     0
  9
$USERI2
 70
     0
  9
$USERI3
 70
     0
  9
$USERI4
 70
     0
  9
$USERI5
 70
     0
  9
$USERR1
 40
0.0
  9
$USERR2
 40
0.0
  9
$USERR3
 40
0.0
  9
$USERR4
 40
0.0
  9
$USERR5
 40
0.0
  9
$WORLDVIEW
 70
     1
  9
$SHADEDGE
 70
     3
  9
$SHADEDIF
 70
    70
  9
$TILEMODE
 70
     0
  9
$MAXACTVP
 70
    48
  9
$PINSBASE
 10
0.0
 20
0.0
 30
0.0
  9
$PLIMCHECK
 70
     0
  9
$PEXTMIN
 10
23.0
 20
5.0
 30
0.0
  9
$PEXTMAX
 10
409.0
 20
285.0
 30
0.0
  9
$PLIMMIN
 10
-3.17498779296875
 20
-3.174999952316284
  9
$PLIMMAX
 10
416.9833374023437
 20
293.856829881668
  9
$UNITMODE
 70
     0
  9
$VISRETAIN
 70
     1
  9
$PLINEGEN
 70
     0
  9
$PSLTSCALE
 70
     1
  9
$TREEDEPTH
 70
  3020
  9
$CMLSTYLE
  2
STANDARD
  9
$CMLJUST
 70
     0
  9
$CMLSCALE
 40
20.0
  9
$PROXYGRAPHICS
 70
     1
  9
$MEASUREMENT
 70
     1
  9
$CELWEIGHT
370
    -1
  9
$ENDCAPS
280
     0
  9
$JOINSTYLE
280
     0
  9
$LWDISPLAY
290
     0
  9
$INSUNITS
 70
     0
  9
$HYPERLINKBASE
  1

  9
$STYLESHEET
  1

  9
$XEDIT
290
     1
  9
$CEPSNTYPE
380
     0
  9
$PSTYLEMODE
290
     1
  9
$FINGERPRINTGUID
  2
{DA56F698-4D96-44D3-BB4C-31B7C08E0CFA}
  9
$VERSIONGUID
  2
{AD3179A3-C9C9-4ACC-B07E-A6A702284EB1}
  9
$EXTNAMES
290
     1
  9
$PSVPSCALE
 40
0.0
  9
$OLESTARTUP
290
     0
  0
ENDSEC
  0
SECTION
  2
CLASSES
  0
CLASS
  1
DICTIONARYVAR
  2
AcDbDictionaryVar
  3
AutoCAD 2000
 90
        0
280
     0
281
     0
  0
CLASS
  1
HATCH
  2
AcDbHatch
  3
AutoCAD 2000
 90
    32768
280
     0
281
     1
  0
CLASS
  1
ACDBDICTIONARYWDFLT
  2
AcDbDictionaryWithDefault
  3
AutoCAD 2000
 90
        0
280
     0
281
     0
  0
CLASS
  1
ACDBPLACEHOLDER
  2
AcDbPlaceHolder
  3
AutoCAD 2000
 90
        0
280
     0
281
     0
  0
CLASS
  1
LAYOUT
  2
AcDbLayout
  3
AutoCAD 2000
 90
        0
280
     0
281
     0
  0
ENDSEC
  0
SECTION
  2
TABLES
  0
TABLE
  2
VPORT
  5
8
330
0
100
AcDbSymbolTable
 70
     1
  0
VPORT
  5
294B
330
8
100
AcDbSymbolTableRecord
100
AcDbViewportTableRecord
  2
*Active
 70
     0
 10
0.0
 20
0.0
 11
1.0
 21
1.0
 12
1525.326774766721
 22
1221.811668304343
 13
0.0
 23
0.0
 14
10.0
 24
10.0
 15
10.0
 25
10.0
 16
0.0
 26
0.0
 36
1.0
 17
0.0
 27
0.0
 37
0.0
 40
568.2167984704847
 41
2.024813895781637
 42
50.0
 43
0.0
 44
0.0
 50
0.0
 51
0.0
 71
     0
 72
   100
 73
     1
 74
     1
 75
     0
 76
     0
 77
     0
 78
     0
281
     0
 65
     1
110
1000.0
120
1000.0
130
0.0
111
1.0
121
0.0
131
0.0
112
0.0
122
1.0
132
0.0
 79
     0
146
0.0
  0
ENDTAB
  0
TABLE
  2
LTYPE
  5
5
330
0
100
AcDbSymbolTable
 70
     2
  0
LTYPE
  5
12
330
5
100
AcDbSymbolTableRecord
100
AcDbLinetypeTableRecord
  2
BYBLOCK
 70
     0
  3

 72
    65
 73
     0
 40
0.0
  0
LTYPE
  5
13
330
5
100
AcDbSymbolTableRecord
100
AcDbLinetypeTableRecord
  2
BYLAYER
 70
     0
  3

 72
    65
 73
     0
 40
0.0
  0
LTYPE
  5
14
330
5
100
AcDbSymbolTableRecord
100
AcDbLinetypeTableRecord
  2
CONTINUOUS
 70
     0
  3
Solid line
 72
    65
 73
     0
 40
0.0
  0
LTYPE
  5
173
330
5
100
AcDbSymbolTableRecord
100
AcDbLinetypeTableRecord
  2
HIDDEN
 70
     0
  3
_ _ _ _ _ _ _ _ _ _ _ _ _ _ _ _ _ _ _ _ _ _ _
 72
    65
 73
     2
 40
0.375
 49
0.25
 74
     0
 49
-0.125
 74
     0
  0
ENDTAB
  0
TABLE
  2
LAYER
  5
2
102
{ACAD_XDICTIONARY
360
25EB
102
}
330
0
100
AcDbSymbolTable
 70
     8
  0
LAYER
  5
E
330
2
100
AcDbSymbolTableRecord
100
AcDbLayerTableRecord
  2
0
 70
     0
 62
     7
  6
CONTINUOUS
370
    -3
390
231F
  0
LAYER
  5
176
330
2
100
AcDbSymbolTableRecord
100
AcDbLayerTableRecord
  2
ﾃｷｽﾄ
 70
     0
 62
     3
  6
CONTINUOUS
370
    -3
390
231F
  0
LAYER
  5
177
330
2
100
AcDbSymbolTableRecord
100
AcDbLayerTableRecord
  2
ﾀｲﾄﾙ枠
 70
     0
 62
     5
  6
CONTINUOUS
370
    -3
390
231F
  0
LAYER
  5
7B2
330
2
100
AcDbSymbolTableRecord
100
AcDbLayerTableRecord
  2
DEFPOINTS
 70
     0
 62
     7
  6
CONTINUOUS
290
     0
370
    -3
390
231F
  0
LAYER
  5
136E
330
2
100
AcDbSymbolTableRecord
100
AcDbLayerTableRecord
  2
VEW枠1
 70
     0
 62
    -9
  6
CONTINUOUS
370
    -3
390
231F
  0
LAYER
  5
136F
330
2
100
AcDbSymbolTableRecord
100
AcDbLayerTableRecord
  2
VEW枠2
 70
     0
 62
    -9
  6
CONTINUOUS
370
    -3
390
231F
  0
LAYER
  5
2680
330
2
100
AcDbSymbolTableRecord
100
AcDbLayerTableRecord
  2
sunpo
 70
     0
 62
     3
  6
CONTINUOUS
370
     9
390
231F
  0
LAYER
  5
28C3
330
2
100
AcDbSymbolTableRecord
100
AcDbLayerTableRecord
  2
sen-h
 70
     0
 62
     6
  6
HIDDEN
370
    15
390
231F
  0
ENDTAB
  0
TABLE
  2
STYLE
  5
3
330
0
100
AcDbSymbolTable
 70
     6
  0
STYLE
  5
F
330
3
100
AcDbSymbolTableRecord
100
AcDbTextStyleTableRecord
  2
STANDARD
 70
     0
 40
0.0
 41
1.0
 50
0.0
 71
     0
 42
25.0
  3
txt
  4

  0
STYLE
  5
179
330
3
100
AcDbSymbolTableRecord
100
AcDbTextStyleTableRecord
  2
BIGFONT
 70
     0
 40
1.0
 41
1.0
 50
0.0
 71
     0
 42
1.0
  3
txt.shx
  4
bigfont
  0
STYLE
  5
84E
330
3
100
AcDbSymbolTableRecord
100
AcDbTextStyleTableRecord
  2
TYPE1
 70
     0
 40
0.0
 41
0.7
 50
0.0
 71
     0
 42
25.0
  3
txt.shx
  4

  0
STYLE
  5
105B
330
3
100
AcDbSymbolTableRecord
100
AcDbTextStyleTableRecord
  2
MSP明朝1
 70
     0
 40
0.0
 41
0.7
 50
0.0
 71
     0
 42
5.0
  3
MS PMincho.ttf
  4

1001
ACAD
1000
MS PMincho
1071
    32786
  0
STYLE
  5
105D
330
3
100
AcDbSymbolTableRecord
100
AcDbTextStyleTableRecord
  2
MSP明朝W1
 70
     0
 40
0.0
 41
1.0
 50
0.0
 71
     0
 42
25.0
  3
MS PMincho.ttf
  4

1001
ACAD
1000
MS PMincho
1071
    32786
  0
STYLE
  5
2328
330
3
100
AcDbSymbolTableRecord
100
AcDbTextStyleTableRecord
  2
明朝TATE
 70
     0
 40
0.0
 41
1.0
 50
0.0
 71
     0
 42
2.5
  3
@MS PMincho.ttf
  4

1001
ACAD
1000
@MS PMincho
1071
    32786
  0
ENDTAB
  0
TABLE
  2
VIEW
  5
6
330
0
100
AcDbSymbolTable
 70
     0
  0
ENDTAB
  0
TABLE
  2
UCS
  5
7
330
0
100
AcDbSymbolTable
 70
     0
  0
ENDTAB
  0
TABLE
  2
APPID
  5
9
330
0
100
AcDbSymbolTable
 70
     5
  0
APPID
  5
10
330
9
100
AcDbSymbolTableRecord
100
AcDbRegAppTableRecord
  2
ACAD
 70
     0
  0
APPID
  5
24
330
9
100
AcDbSymbolTableRecord
100
AcDbRegAppTableRecord
  2
CONTENTTABDATA
 70
     0
  0
APPID
  5
25
330
9
100
AcDbSymbolTableRecord
100
AcDbRegAppTableRecord
  2
CONTENTCURRENTTAB
 70
     0
  0
APPID
  5
17B
330
9
100
AcDbSymbolTableRecord
100
AcDbRegAppTableRecord
  2
CONTENTBLOCKDESCRIPTION
 70
     0
  0
APPID
  5
17C
330
9
100
AcDbSymbolTableRecord
100
AcDbRegAppTableRecord
  2
CONTENTBLOCKICON
 70
     0
  0
ENDTAB
  0
TABLE
  2
DIMSTYLE
  5
A
330
0
100
AcDbSymbolTable
 70
     5
100
AcDbDimStyleTable
 71
     0
  0
DIMSTYLE
105
1D
330
A
100
AcDbSymbolTableRecord
100
AcDbDimStyleTableRecord
  2
STANDARD
 70
     0
340
F
  0
DIMSTYLE
105
2D0
330
A
100
AcDbSymbolTableRecord
100
AcDbDimStyleTableRecord
  2
TEST01
 70
     0
 41
2.0
 42
0.0
 43
3.0
 44
0.7
 73
     0
 74
     0
 77
     1
 78
     8
140
2.5
141
2.5
143
0.0394
147
1.0
171
     4
172
     1
173
     1
176
     3
177
     3
178
     3
271
     2
272
     2
273
     8
274
     4
340
84E
341
33A
343
33A
344
33A
  0
DIMSTYLE
105
10C0
102
{ACAD_REACTORS
330
2081
330
2082
330
209B
330
209C
330
209D
330
209E
330
20A0
330
20A1
330
20A8
330
20B4
330
20B5
102
}
330
A
100
AcDbSymbolTableRecord
100
AcDbDimStyleTableRecord
  2
MSP明朝寸法1
 70
     0
 41
2.0
 42
0.0
 43
3.0
 44
0.7
 73
     0
 74
     0
 77
     1
 78
     8
140
2.5
141
1.5
143
0.0394
147
1.0
171
     4
172
     1
173
     1
176
     3
177
     3
178
     3
271
     2
272
     2
273
     8
274
     4
340
105D
341
33A
343
33A
344
33A
  0
DIMSTYLE
105
2681
330
A
100
AcDbSymbolTableRecord
100
AcDbDimStyleTableRecord
  2
MSP明朝寸法2_1
 70
     0
 40
0.5
 41
2.0
 42
0.0
 43
3.0
 44
0.7
 73
     0
 74
     0
 77
     1
 78
     8
140
2.5
141
1.5
143
0.0394
147
1.0
171
     4
172
     1
173
     1
176
     3
177
     3
178
     3
271
     2
272
     2
273
     8
274
     4
340
105D
341
33A
343
33A
344
33A
  0
DIMSTYLE
105
28C4
330
A
100
AcDbSymbolTableRecord
100
AcDbDimStyleTableRecord
  2
MSP明朝寸法5
 70
     0
 40
5.0
 41
2.299999999999999
 42
0.625
 43
3.75
 44
0.625
 73
     0
 74
     0
 77
     1
 78
     8
140
2.299999999999999
141
0.0
143
0.03937007874016
147
0.625
171
     3
172
     1
176
   256
177
   256
178
   256
271
     2
272
     2
274
     3
283
     0
284
     8
340
105D
341
33A
342
33A
371
    -1
372
    -1
  0
ENDTAB
  0
TABLE
  2
BLOCK_RECORD
  5
1
330
0
100
AcDbSymbolTable
 70
    14
  0
BLOCK_RECORD
  5
18
330
1
100
AcDbSymbolTableRecord
100
AcDbBlockTableRecord
  2
*MODEL_SPACE
340
2322
  0
BLOCK_RECORD
  5
15
330
1
100
AcDbSymbolTableRecord
100
AcDbBlockTableRecord
  2
*PAPER_SPACE
340
2323
  0
BLOCK_RECORD
  5
33A
330
1
100
AcDbSymbolTableRecord
100
AcDbBlockTableRecord
  2
_OPEN30
340
0
102
{BLKREFS
331
22C4
331
28E0
331
28E1
331
28E9
331
28EA
331
28F2
331
28F3
331
28FD
331
28FE
331
2906
331
2907
331
2911
331
2912
331
291A
331
291B
331
2925
331
2926
331
292F
331
2930
331
2938
331
2939
331
2943
331
2944
102
}
  0
BLOCK_RECORD
  5
20C1
330
1
100
AcDbSymbolTableRecord
100
AcDbBlockTableRecord
  2
*D1
340
0
  0
BLOCK_RECORD
  5
20CD
330
1
100
AcDbSymbolTableRecord
100
AcDbBlockTableRecord
  2
*D2
340
0
  0
BLOCK_RECORD
  5
20E1
330
1
100
AcDbSymbolTableRecord
100
AcDbBlockTableRecord
  2
*D3
340
0
  0
BLOCK_RECORD
  5
20ED
330
1
100
AcDbSymbolTableRecord
100
AcDbBlockTableRecord
  2
*D4
340
0
  0
BLOCK_RECORD
  5
20FB
330
1
100
AcDbSymbolTableRecord
100
AcDbBlockTableRecord
  2
*D5
340
0
  0
BLOCK_RECORD
  5
2108
330
1
100
AcDbSymbolTableRecord
100
AcDbBlockTableRecord
  2
*D6
340
0
  0
BLOCK_RECORD
  5
2114
330
1
100
AcDbSymbolTableRecord
100
AcDbBlockTableRecord
  2
*D7
340
0
  0
BLOCK_RECORD
  5
2122
330
1
100
AcDbSymbolTableRecord
100
AcDbBlockTableRecord
  2
*D8
340
0
  0
BLOCK_RECORD
  5
2136
330
1
100
AcDbSymbolTableRecord
100
AcDbBlockTableRecord
  2
*D9
340
0
  0
BLOCK_RECORD
  5
214C
330
1
100
AcDbSymbolTableRecord
100
AcDbBlockTableRecord
  2
*D10
340
0
  0
BLOCK_RECORD
  5
2158
330
1
100
AcDbSymbolTableRecord
100
AcDbBlockTableRecord
  2
*D11
340
0
  0
BLOCK_RECORD
  5
2329
330
1
100
AcDbSymbolTableRecord
100
AcDbBlockTableRecord
  2
A3
340
0
  0
ENDTAB
  0
ENDSEC
  0
SECTION
  2
BLOCKS
  0
BLOCK
  5
19
330
18
100
AcDbEntity
  8
0
100
AcDbBlockBegin
  2
*MODEL_SPACE
 70
     0
 10
0.0
 20
0.0
 30
0.0
  3
*MODEL_SPACE
  1

  0
ENDBLK
  5
1A
330
18
100
AcDbEntity
  8
0
100
AcDbBlockEnd
  0
BLOCK
  5
16
330
15
100
AcDbEntity
 67
     1
  8
0
100
AcDbBlockBegin
  2
*PAPER_SPACE
 70
     0
 10
0.0
 20
0.0
 30
0.0
  3
*PAPER_SPACE
  1

  0
ENDBLK
  5
17
330
15
100
AcDbEntity
 67
     1
  8
0
100
AcDbBlockEnd
  0
BLOCK
  5
33B
330
33A
100
AcDbEntity
  8
0
100
AcDbBlockBegin
  2
_OPEN30
 70
     0
 10
0.0
 20
0.0
 30
0.0
  3
_OPEN30
  1

  0
LINE
  5
33C
330
33A
100
AcDbEntity
  8
0
  6
ByBlock
 62
     0
100
AcDbLine
 10
-1.0
 20
0.26794919
 30
0.0
 11
0.0
 21
0.0
 31
0.0
  0
LINE
  5
33D
330
33A
100
AcDbEntity
  8
0
  6
ByBlock
 62
     0
100
AcDbLine
 10
0.0
 20
0.0
 30
0.0
 11
-1.0
 21
-0.26794919
 31
0.0
  0
LINE
  5
33E
330
33A
100
AcDbEntity
  8
0
  6
ByBlock
 62
     0
100
AcDbLine
 10
0.0
 20
0.0
 30
0.0
 11
-1.0
 21
0.0
 31
0.0
  0
ENDBLK
  5
33F
330
33A
100
AcDbEntity
  8
0
100
AcDbBlockEnd
  0
BLOCK
  5
2249
330
20C1
100
AcDbEntity
  8
0
100
AcDbBlockBegin
  2
*D1
 70
     1
 10
0.0
 20
0.0
 30
0.0
  3
*D1
  1

  0
LINE
  5
28DD
330
20C1
100
AcDbEntity
  8
sunpo
 62
     3
370
    -2
100
AcDbLine
 10
1211.890641387371
 20
1966.691266540527
 30
0.0
 11
1126.290641387371
 21
1966.691266540527
 31
0.0
  0
LINE
  5
28DE
330
20C1
100
AcDbEntity
  8
sunpo
 62
     3
370
    -2
100
AcDbLine
 10
1211.890641387371
 20
1481.691266540527
 30
0.0
 11
1126.290641387371
 21
1481.691266540527
 31
0.0
  0
LINE
  5
28DF
330
20C1
100
AcDbEntity
  8
sunpo
 62
     3
370
    -2
100
AcDbLine
 10
1131.890641387371
 20
1950.691266540527
 30
0.0
 11
1131.890641387371
 21
1497.691266540527
 31
0.0
  0
INSERT
  5
28E0
330
20C1
100
AcDbEntity
  8
sunpo
 62
     3
370
    -2
100
AcDbBlockReference
  2
_OPEN30
 10
1131.890641387371
 20
1966.691266540527
 30
0.0
 41
16.0
 42
16.0
 43
16.0
 50
90.0
  0
INSERT
  5
28E1
330
20C1
100
AcDbEntity
  8
sunpo
 62
     3
370
    -2
100
AcDbBlockReference
  2
_OPEN30
 10
1131.890641387371
 20
1481.691266540527
 30
0.0
 41
16.0
 42
16.0
 43
16.0
 50
270.0
  0
MTEXT
  5
28E2
330
20C1
100
AcDbEntity
  8
sunpo
 62
     3
100
AcDbMText
 10
1113.890641387371
 20
1724.191266540527
 30
0.0
 40
20.0
 41
0.0
 71
     5
 72
     1
  1
\A1;485
  7
MSP明朝W1
 11
0.0000000000000001
 21
1.0
 31
0.0
 73
     1
 44
1.0
  0
POINT
  5
28E3
330
20C1
100
AcDbEntity
  8
DEFPOINTS
 62
     0
100
AcDbPoint
 10
1211.890641387371
 20
1966.691266540527
 30
0.0
  0
POINT
  5
28E4
330
20C1
100
AcDbEntity
  8
DEFPOINTS
 62
     0
100
AcDbPoint
 10
1211.890641387371
 20
1481.691266540527
 30
0.0
  0
POINT
  5
28E5
330
20C1
100
AcDbEntity
  8
DEFPOINTS
 62
     0
100
AcDbPoint
 10
1131.890641387371
 20
1481.691266540527
 30
0.0
  0
ENDBLK
  5
2253
330
20C1
100
AcDbEntity
  8
0
100
AcDbBlockEnd
  0
BLOCK
  5
2233
330
20CD
100
AcDbEntity
  8
0
100
AcDbBlockBegin
  2
*D2
 70
     1
 10
0.0
 20
0.0
 30
0.0
  3
*D2
  1

  0
LINE
  5
28E6
330
20CD
100
AcDbEntity
  8
sunpo
 62
     3
370
    -2
100
AcDbLine
 10
3501.890641387371
 20
1516.691266540527
 30
0.0
 11
3501.890641387371
 21
1376.091266540527
 31
0.0
  0
LINE
  5
28E7
330
20CD
100
AcDbEntity
  8
sunpo
 62
     3
370
    -2
100
AcDbLine
 10
1211.890641387371
 20
1481.691266540527
 30
0.0
 11
1211.890641387371
 21
1376.091266540527
 31
0.0
  0
LINE
  5
28E8
330
20CD
100
AcDbEntity
  8
sunpo
 62
     3
370
    -2
100
AcDbLine
 10
3485.89064138737
 20
1381.691266540527
 30
0.0
 11
1227.890641387371
 21
1381.691266540527
 31
0.0
  0
INSERT
  5
28E9
330
20CD
100
AcDbEntity
  8
sunpo
 62
     3
370
    -2
100
AcDbBlockReference
  2
_OPEN30
 10
3501.890641387371
 20
1381.691266540527
 30
0.0
 41
16.0
 42
16.0
 43
16.0
  0
INSERT
  5
28EA
330
20CD
100
AcDbEntity
  8
sunpo
 62
     3
370
    -2
100
AcDbBlockReference
  2
_OPEN30
 10
1211.890641387371
 20
1381.691266540527
 30
0.0
 41
16.0
 42
16.0
 43
16.0
 50
180.0
  0
MTEXT
  5
28EB
330
20CD
100
AcDbEntity
  8
sunpo
 62
     3
100
AcDbMText
 10
2356.890641387371
 20
1399.691266540527
 30
0.0
 40
20.0
 41
0.0
 71
     5
 72
     1
  1
\A1;2750
  7
MSP明朝W1
 73
     1
 44
1.0
  0
POINT
  5
28EC
330
20CD
100
AcDbEntity
  8
DEFPOINTS
 62
     0
100
AcDbPoint
 10
3501.890641387371
 20
1516.691266540527
 30
0.0
  0
POINT
  5
28ED
330
20CD
100
AcDbEntity
  8
DEFPOINTS
 62
     0
100
AcDbPoint
 10
1211.890641387371
 20
1481.691266540527
 30
0.0
  0
POINT
  5
28EE
330
20CD
100
AcDbEntity
  8
DEFPOINTS
 62
     0
100
AcDbPoint
 10
1211.890641387371
 20
1381.691266540527
 30
0.0
  0
ENDBLK
  5
223D
330
20CD
100
AcDbEntity
  8
0
100
AcDbBlockEnd
  0
BLOCK
  5
226E
330
20E1
100
AcDbEntity
  8
0
100
AcDbBlockBegin
  2
*D3
 70
     1
 10
0.0
 20
0.0
 30
0.0
  3
*D3
  1

  0
LINE
  5
28EF
330
20E1
100
AcDbEntity
  8
sunpo
 62
     3
370
    -2
100
AcDbLine
 10
1190.042173386406
 20
1115.212406305858
 30
0.0
 11
1174.747787210583
 21
1115.212406305858
 31
0.0
  0
LINE
  5
28F0
330
20E1
100
AcDbEntity
  8
sunpo
 62
     3
370
    -2
100
AcDbLine
 10
1183.447787210583
 20
1073.712406305858
 30
0.0
 11
1174.747787210583
 21
1073.712406305858
 31
0.0
  0
LINE
  5
28F1
330
20E1
100
AcDbEntity
  8
sunpo
 62
     3
370
    -2
100
AcDbLine
 10
1175.447787210583
 20
1113.212406305858
 30
0.0
 11
1175.447787210583
 21
1075.712406305858
 31
0.0
  0
INSERT
  5
28F2
330
20E1
100
AcDbEntity
  8
sunpo
 62
     3
370
    -2
100
AcDbBlockReference
  2
_OPEN30
 10
1175.447787210583
 20
1115.212406305858
 30
0.0
 41
2.0
 42
2.0
 43
2.0
 50
90.0
  0
INSERT
  5
28F3
330
20E1
100
AcDbEntity
  8
sunpo
 62
     3
370
    -2
100
AcDbBlockReference
  2
_OPEN30
 10
1175.447787210583
 20
1073.712406305858
 30
0.0
 41
2.0
 42
2.0
 43
2.0
 50
270.0
  0
MTEXT
  5
28F4
330
20E1
100
AcDbEntity
  8
sunpo
 62
     3
100
AcDbMText
 10
1173.197787210583
 20
1094.462406305858
 30
0.0
 40
2.5
 41
0.0
 71
     5
 72
     1
  1
\A1;41.5
  7
MSP明朝W1
 11
0.0000000000000001
 21
1.0
 31
0.0
 73
     1
 44
1.0
  0
POINT
  5
28F5
330
20E1
100
AcDbEntity
  8
DEFPOINTS
 62
     0
100
AcDbPoint
 10
1190.042173386406
 20
1115.212406305858
 30
0.0
  0
POINT
  5
28F6
330
20E1
100
AcDbEntity
  8
DEFPOINTS
 62
     0
100
AcDbPoint
 10
1183.447787210583
 20
1073.712406305858
 30
0.0
  0
POINT
  5
28F7
330
20E1
100
AcDbEntity
  8
DEFPOINTS
 62
     0
100
AcDbPoint
 10
1175.447787210583
 20
1073.712406305858
 30
0.0
  0
ENDBLK
  5
2278
330
20E1
100
AcDbEntity
  8
0
100
AcDbBlockEnd
  0
BLOCK
  5
2279
330
20ED
100
AcDbEntity
  8
0
100
AcDbBlockBegin
  2
*D4
 70
     1
 10
0.0
 20
0.0
 30
0.0
  3
*D4
  1

  0
LINE
  5
290C
330
20ED
100
AcDbEntity
  8
sunpo
 62
     3
370
    -2
100
AcDbLine
 10
1183.447787210583
 20
1073.712406305858
 30
0.0
 11
1183.447787210583
 21
1065.012406305858
 31
0.0
  0
LINE
  5
290D
330
20ED
100
AcDbEntity
  8
sunpo
 62
     3
370
    -2
100
AcDbLine
 10
1188.447787210583
 20
1073.712406305858
 30
0.0
 11
1188.447787210583
 21
1065.012406305858
 31
0.0
  0
LINE
  5
290E
330
20ED
100
AcDbEntity
  8
sunpo
 62
     3
370
    -2
100
AcDbLine
 10
1181.447787210583
 20
1065.712406305858
 30
0.0
 11
1179.447787210583
 21
1065.712406305858
 31
0.0
  0
LINE
  5
290F
330
20ED
100
AcDbEntity
  8
sunpo
 62
     3
370
    -2
100
AcDbLine
 10
1190.447787210583
 20
1065.712406305858
 30
0.0
 11
1192.447787210583
 21
1065.712406305858
 31
0.0
  0
LINE
  5
2910
330
20ED
100
AcDbEntity
  8
sunpo
 62
     3
370
    -2
100
AcDbLine
 10
1183.447787210583
 20
1065.712406305858
 30
0.0
 11
1188.447787210583
 21
1065.712406305858
 31
0.0
  0
INSERT
  5
2911
330
20ED
100
AcDbEntity
  8
sunpo
 62
     3
370
    -2
100
AcDbBlockReference
  2
_OPEN30
 10
1183.447787210583
 20
1065.712406305858
 30
0.0
 41
2.0
 42
2.0
 43
2.0
  0
INSERT
  5
2912
330
20ED
100
AcDbEntity
  8
sunpo
 62
     3
370
    -2
100
AcDbBlockReference
  2
_OPEN30
 10
1188.447787210583
 20
1065.712406305858
 30
0.0
 41
2.0
 42
2.0
 43
2.0
 50
180.0
  0
MTEXT
  5
2913
330
20ED
100
AcDbEntity
  8
sunpo
 62
     3
100
AcDbMText
 10
1185.947787210583
 20
1067.962406305858
 30
0.0
 40
2.5
 41
0.0
 71
     5
 72
     1
  1
\A1;5
  7
MSP明朝W1
 73
     1
 44
1.0
  0
POINT
  5
2914
330
20ED
100
AcDbEntity
  8
DEFPOINTS
 62
     0
100
AcDbPoint
 10
1183.447787210583
 20
1073.712406305858
 30
0.0
  0
POINT
  5
2915
330
20ED
100
AcDbEntity
  8
DEFPOINTS
 62
     0
100
AcDbPoint
 10
1188.447787210583
 20
1073.712406305858
 30
0.0
  0
POINT
  5
2916
330
20ED
100
AcDbEntity
  8
DEFPOINTS
 62
     0
100
AcDbPoint
 10
1188.447787210583
 20
1065.712406305858
 30
0.0
  0
ENDBLK
  5
2285
330
20ED
100
AcDbEntity
  8
0
100
AcDbBlockEnd
  0
BLOCK
  5
22AD
330
20FB
100
AcDbEntity
  8
0
100
AcDbBlockBegin
  2
*D5
 70
     1
 10
0.0
 20
0.0
 30
0.0
  3
*D5
  1

  0
LINE
  5
28F8
330
20FB
100
AcDbEntity
  8
sunpo
 62
     3
370
    -2
100
AcDbLine
 10
1214.122424543658
 20
1115.212406305858
 30
0.0
 11
1214.822424543659
 21
1115.212406305858
 31
0.0
  0
LINE
  5
28F9
330
20FB
100
AcDbEntity
  8
sunpo
 62
     3
370
    -2
100
AcDbLine
 10
1214.122424543658
 20
1109.712406305858
 30
0.0
 11
1214.822424543659
 21
1109.712406305858
 31
0.0
  0
LINE
  5
28FA
330
20FB
100
AcDbEntity
  8
sunpo
 62
     3
370
    -2
100
AcDbLine
 10
1214.122424543659
 20
1107.712406305858
 30
0.0
 11
1214.122424543659
 21
1105.712406305858
 31
0.0
  0
LINE
  5
28FB
330
20FB
100
AcDbEntity
  8
sunpo
 62
     3
370
    -2
100
AcDbLine
 10
1214.122424543659
 20
1117.212406305858
 30
0.0
 11
1214.122424543659
 21
1125.468024283386
 31
0.0
  0
LINE
  5
28FC
330
20FB
100
AcDbEntity
  8
sunpo
 62
     3
370
    -2
100
AcDbLine
 10
1214.122424543659
 20
1109.712406305858
 30
0.0
 11
1214.122424543659
 21
1115.212406305858
 31
0.0
  0
INSERT
  5
28FD
330
20FB
100
AcDbEntity
  8
sunpo
 62
     3
370
    -2
100
AcDbBlockReference
  2
_OPEN30
 10
1214.122424543659
 20
1109.712406305858
 30
0.0
 41
2.0
 42
2.0
 43
2.0
 50
90.0
  0
INSERT
  5
28FE
330
20FB
100
AcDbEntity
  8
sunpo
 62
     3
370
    -2
100
AcDbBlockReference
  2
_OPEN30
 10
1214.122424543659
 20
1115.212406305858
 30
0.0
 41
2.0
 42
2.0
 43
2.0
 50
270.0
  0
MTEXT
  5
28FF
330
20FB
100
AcDbEntity
  8
sunpo
 62
     3
100
AcDbMText
 10
1211.872424543658
 20
1122.340215294622
 30
0.0
 40
2.5
 41
0.0
 71
     5
 72
     1
  1
\A1;5.5
  7
MSP明朝W1
 11
0.0000000000000001
 21
1.0
 31
0.0
 73
     1
 44
1.0
  0
POINT
  5
2900
330
20FB
100
AcDbEntity
  8
DEFPOINTS
 62
     0
100
AcDbPoint
 10
1214.122424543658
 20
1115.212406305858
 30
0.0
  0
POINT
  5
2901
330
20FB
100
AcDbEntity
  8
DEFPOINTS
 62
     0
100
AcDbPoint
 10
1214.122424543658
 20
1109.712406305858
 30
0.0
  0
POINT
  5
2902
330
20FB
100
AcDbEntity
  8
DEFPOINTS
 62
     0
100
AcDbPoint
 10
1214.122424543659
 20
1109.712406305858
 30
0.0
  0
ENDBLK
  5
22B9
330
20FB
100
AcDbEntity
  8
0
100
AcDbBlockEnd
  0
BLOCK
  5
2254
330
2108
100
AcDbEntity
  8
0
100
AcDbBlockBegin
  2
*D6
 70
     1
 10
0.0
 20
0.0
 30
0.0
  3
*D6
  1

  0
LINE
  5
2903
330
2108
100
AcDbEntity
  8
sunpo
 62
     3
370
    -2
100
AcDbLine
 10
1214.122424543658
 20
1109.712406305858
 30
0.0
 11
1213.422424543658
 21
1109.712406305858
 31
0.0
  0
LINE
  5
2904
330
2108
100
AcDbEntity
  8
sunpo
 62
     3
370
    -2
100
AcDbLine
 10
1188.447787210583
 20
1073.712406305858
 30
0.0
 11
1214.822424543658
 21
1073.712406305858
 31
0.0
  0
LINE
  5
2905
330
2108
100
AcDbEntity
  8
sunpo
 62
     3
370
    -2
100
AcDbLine
 10
1214.122424543658
 20
1107.712406305858
 30
0.0
 11
1214.122424543658
 21
1075.712406305858
 31
0.0
  0
INSERT
  5
2906
330
2108
100
AcDbEntity
  8
sunpo
 62
     3
370
    -2
100
AcDbBlockReference
  2
_OPEN30
 10
1214.122424543658
 20
1109.712406305858
 30
0.0
 41
2.0
 42
2.0
 43
2.0
 50
90.0
  0
INSERT
  5
2907
330
2108
100
AcDbEntity
  8
sunpo
 62
     3
370
    -2
100
AcDbBlockReference
  2
_OPEN30
 10
1214.122424543658
 20
1073.712406305858
 30
0.0
 41
2.0
 42
2.0
 43
2.0
 50
270.0
  0
MTEXT
  5
2908
330
2108
100
AcDbEntity
  8
sunpo
 62
     3
100
AcDbMText
 10
1211.521300948152
 20
1091.712406305858
 30
0.0
 40
2.5
 41
0.0
 71
     5
 72
     1
  1
\A1;(36)
  7
MSP明朝W1
 11
0.0000000000000001
 21
1.0
 31
0.0
 73
     1
 44
1.0
  0
POINT
  5
2909
330
2108
100
AcDbEntity
  8
DEFPOINTS
 62
     0
100
AcDbPoint
 10
1214.122424543658
 20
1109.712406305858
 30
0.0
  0
POINT
  5
290A
330
2108
100
AcDbEntity
  8
DEFPOINTS
 62
     0
100
AcDbPoint
 10
1188.447787210583
 20
1073.712406305858
 30
0.0
  0
POINT
  5
290B
330
2108
100
AcDbEntity
  8
DEFPOINTS
 62
     0
100
AcDbPoint
 10
1214.122424543658
 20
1073.712406305858
 30
0.0
  0
ENDBLK
  5
225E
330
2108
100
AcDbEntity
  8
0
100
AcDbBlockEnd
  0
BLOCK
  5
2291
330
2114
100
AcDbEntity
  8
0
100
AcDbBlockBegin
  2
*D7
 70
     1
 10
0.0
 20
0.0
 30
0.0
  3
*D7
  1

  0
LINE
  5
2920
330
2114
100
AcDbEntity
  8
sunpo
 62
     3
370
    -2
100
AcDbLine
 10
1333.447787210583
 20
1073.712406305858
 30
0.0
 11
1333.447787210583
 21
1065.012406305858
 31
0.0
  0
LINE
  5
2921
330
2114
100
AcDbEntity
  8
sunpo
 62
     3
370
    -2
100
AcDbLine
 10
1328.447787210583
 20
1073.712406305858
 30
0.0
 11
1328.447787210583
 21
1065.012406305858
 31
0.0
  0
LINE
  5
2922
330
2114
100
AcDbEntity
  8
sunpo
 62
     3
370
    -2
100
AcDbLine
 10
1335.447787210583
 20
1065.712406305858
 30
0.0
 11
1337.447787210583
 21
1065.712406305858
 31
0.0
  0
LINE
  5
2923
330
2114
100
AcDbEntity
  8
sunpo
 62
     3
370
    -2
100
AcDbLine
 10
1326.447787210583
 20
1065.712406305858
 30
0.0
 11
1324.447787210583
 21
1065.712406305858
 31
0.0
  0
LINE
  5
2924
330
2114
100
AcDbEntity
  8
sunpo
 62
     3
370
    -2
100
AcDbLine
 10
1333.447787210583
 20
1065.712406305858
 30
0.0
 11
1328.447787210583
 21
1065.712406305858
 31
0.0
  0
INSERT
  5
2925
330
2114
100
AcDbEntity
  8
sunpo
 62
     3
370
    -2
100
AcDbBlockReference
  2
_OPEN30
 10
1333.447787210583
 20
1065.712406305858
 30
0.0
 41
2.0
 42
2.0
 43
2.0
 50
180.0
  0
INSERT
  5
2926
330
2114
100
AcDbEntity
  8
sunpo
 62
     3
370
    -2
100
AcDbBlockReference
  2
_OPEN30
 10
1328.447787210583
 20
1065.712406305858
 30
0.0
 41
2.0
 42
2.0
 43
2.0
  0
MTEXT
  5
2927
330
2114
100
AcDbEntity
  8
sunpo
 62
     3
100
AcDbMText
 10
1330.947787210583
 20
1067.962406305858
 30
0.0
 40
2.5
 41
0.0
 71
     5
 72
     1
  1
\A1;5
  7
MSP明朝W1
 73
     1
 44
1.0
  0
POINT
  5
2928
330
2114
100
AcDbEntity
  8
DEFPOINTS
 62
     0
100
AcDbPoint
 10
1333.447787210583
 20
1073.712406305858
 30
0.0
  0
POINT
  5
2929
330
2114
100
AcDbEntity
  8
DEFPOINTS
 62
     0
100
AcDbPoint
 10
1328.447787210583
 20
1073.712406305858
 30
0.0
  0
POINT
  5
292A
330
2114
100
AcDbEntity
  8
DEFPOINTS
 62
     0
100
AcDbPoint
 10
1328.447787210583
 20
1065.712406305858
 30
0.0
  0
ENDBLK
  5
229D
330
2114
100
AcDbEntity
  8
0
100
AcDbBlockEnd
  0
BLOCK
  5
2286
330
2122
100
AcDbEntity
  8
0
100
AcDbBlockBegin
  2
*D8
 70
     1
 10
0.0
 20
0.0
 30
0.0
  3
*D8
  1

  0
LINE
  5
2917
330
2122
100
AcDbEntity
  8
sunpo
 62
     3
370
    -2
100
AcDbLine
 10
1183.447787210583
 20
1065.712406305858
 30
0.0
 11
1183.447787210583
 21
1059.012406305858
 31
0.0
  0
LINE
  5
2918
330
2122
100
AcDbEntity
  8
sunpo
 62
     3
370
    -2
100
AcDbLine
 10
1333.447787210583
 20
1065.712406305858
 30
0.0
 11
1333.447787210583
 21
1059.012406305858
 31
0.0
  0
LINE
  5
2919
330
2122
100
AcDbEntity
  8
sunpo
 62
     3
370
    -2
100
AcDbLine
 10
1185.447787210583
 20
1059.712406305858
 30
0.0
 11
1331.447787210583
 21
1059.712406305858
 31
0.0
  0
INSERT
  5
291A
330
2122
100
AcDbEntity
  8
sunpo
 62
     3
370
    -2
100
AcDbBlockReference
  2
_OPEN30
 10
1183.447787210583
 20
1059.712406305858
 30
0.0
 41
2.0
 42
2.0
 43
2.0
 50
180.0
  0
INSERT
  5
291B
330
2122
100
AcDbEntity
  8
sunpo
 62
     3
370
    -2
100
AcDbBlockReference
  2
_OPEN30
 10
1333.447787210583
 20
1059.712406305858
 30
0.0
 41
2.0
 42
2.0
 43
2.0
  0
MTEXT
  5
291C
330
2122
100
AcDbEntity
  8
sunpo
 62
     3
100
AcDbMText
 10
1258.447787210583
 20
1061.962406305858
 30
0.0
 40
2.5
 41
0.0
 71
     5
 72
     1
  1
\A1;485
  7
MSP明朝W1
 73
     1
 44
1.0
  0
POINT
  5
291D
330
2122
100
AcDbEntity
  8
DEFPOINTS
 62
     0
100
AcDbPoint
 10
1183.447787210583
 20
1065.712406305858
 30
0.0
  0
POINT
  5
291E
330
2122
100
AcDbEntity
  8
DEFPOINTS
 62
     0
100
AcDbPoint
 10
1333.447787210583
 20
1065.712406305858
 30
0.0
  0
POINT
  5
291F
330
2122
100
AcDbEntity
  8
DEFPOINTS
 62
     0
100
AcDbPoint
 10
1333.447787210583
 20
1059.712406305858
 30
0.0
  0
ENDBLK
  5
2290
330
2122
100
AcDbEntity
  8
0
100
AcDbBlockEnd
  0
BLOCK
  5
22F9
330
2136
100
AcDbEntity
  8
0
100
AcDbBlockBegin
  2
*D9
 70
     1
 10
0.0
 20
0.0
 30
0.0
  3
*D9
  1

  0
LINE
  5
293E
330
2136
100
AcDbEntity
  8
sunpo
 62
     3
370
    -2
100
AcDbLine
 10
1473.161101355786
 20
1073.712406305858
 30
0.0
 11
1473.161101355786
 21
1065.012406305858
 31
0.0
  0
LINE
  5
293F
330
2136
100
AcDbEntity
  8
sunpo
 62
     3
370
    -2
100
AcDbLine
 10
1468.161101355786
 20
1073.712406305858
 30
0.0
 11
1468.161101355786
 21
1065.012406305858
 31
0.0
  0
LINE
  5
2940
330
2136
100
AcDbEntity
  8
sunpo
 62
     3
370
    -2
100
AcDbLine
 10
1475.161101355786
 20
1065.712406305858
 30
0.0
 11
1477.161101355786
 21
1065.712406305858
 31
0.0
  0
LINE
  5
2941
330
2136
100
AcDbEntity
  8
sunpo
 62
     3
370
    -2
100
AcDbLine
 10
1466.161101355786
 20
1065.712406305858
 30
0.0
 11
1464.161101355786
 21
1065.712406305858
 31
0.0
  0
LINE
  5
2942
330
2136
100
AcDbEntity
  8
sunpo
 62
     3
370
    -2
100
AcDbLine
 10
1473.161101355786
 20
1065.712406305858
 30
0.0
 11
1468.161101355786
 21
1065.712406305858
 31
0.0
  0
INSERT
  5
2943
330
2136
100
AcDbEntity
  8
sunpo
 62
     3
370
    -2
100
AcDbBlockReference
  2
_OPEN30
 10
1473.161101355786
 20
1065.712406305858
 30
0.0
 41
2.0
 42
2.0
 43
2.0
 50
180.0
  0
INSERT
  5
2944
330
2136
100
AcDbEntity
  8
sunpo
 62
     3
370
    -2
100
AcDbBlockReference
  2
_OPEN30
 10
1468.161101355786
 20
1065.712406305858
 30
0.0
 41
2.0
 42
2.0
 43
2.0
  0
MTEXT
  5
2945
330
2136
100
AcDbEntity
  8
sunpo
 62
     3
100
AcDbMText
 10
1470.661101355786
 20
1067.962406305858
 30
0.0
 40
2.5
 41
0.0
 71
     5
 72
     1
  1
\A1;5
  7
MSP明朝W1
 73
     1
 44
1.0
  0
POINT
  5
2946
330
2136
100
AcDbEntity
  8
DEFPOINTS
 62
     0
100
AcDbPoint
 10
1473.161101355786
 20
1073.712406305858
 30
0.0
  0
POINT
  5
2947
330
2136
100
AcDbEntity
  8
DEFPOINTS
 62
     0
100
AcDbPoint
 10
1468.161101355786
 20
1073.712406305858
 30
0.0
  0
POINT
  5
2948
330
2136
100
AcDbEntity
  8
DEFPOINTS
 62
     0
100
AcDbPoint
 10
1468.161101355786
 20
1065.712406305858
 30
0.0
  0
ENDBLK
  5
2305
330
2136
100
AcDbEntity
  8
0
100
AcDbBlockEnd
  0
BLOCK
  5
22DB
330
214C
100
AcDbEntity
  8
0
100
AcDbBlockBegin
  2
*D10
 70
     1
 10
0.0
 20
0.0
 30
0.0
  3
*D10
  1

  0
LINE
  5
2935
330
214C
100
AcDbEntity
  8
sunpo
 62
     3
370
    -2
100
AcDbLine
 10
1466.566715179963
 20
1115.212406305858
 30
0.0
 11
1485.786841536665
 21
1115.212406305858
 31
0.0
  0
LINE
  5
2936
330
214C
100
AcDbEntity
  8
sunpo
 62
     3
370
    -2
100
AcDbLine
 10
1473.213482510024
 20
1073.712406305858
 30
0.0
 11
1485.786841536665
 21
1073.712406305858
 31
0.0
  0
LINE
  5
2937
330
214C
100
AcDbEntity
  8
sunpo
 62
     3
370
    -2
100
AcDbLine
 10
1485.086841536665
 20
1113.212406305858
 30
0.0
 11
1485.086841536665
 21
1075.712406305858
 31
0.0
  0
INSERT
  5
2938
330
214C
100
AcDbEntity
  8
sunpo
 62
     3
370
    -2
100
AcDbBlockReference
  2
_OPEN30
 10
1485.086841536665
 20
1115.212406305858
 30
0.0
 41
2.0
 42
2.0
 43
2.0
 50
90.0
  0
INSERT
  5
2939
330
214C
100
AcDbEntity
  8
sunpo
 62
     3
370
    -2
100
AcDbBlockReference
  2
_OPEN30
 10
1485.086841536665
 20
1073.712406305858
 30
0.0
 41
2.0
 42
2.0
 43
2.0
 50
270.0
  0
MTEXT
  5
293A
330
214C
100
AcDbEntity
  8
sunpo
 62
     3
100
AcDbMText
 10
1482.836841536664
 20
1094.462406305858
 30
0.0
 40
2.5
 41
0.0
 71
     5
 72
     1
  1
\A1;41.5
  7
MSP明朝W1
 11
0.0000000000000001
 21
1.0
 31
0.0
 73
     1
 44
1.0
  0
POINT
  5
293B
330
214C
100
AcDbEntity
  8
DEFPOINTS
 62
     0
100
AcDbPoint
 10
1466.566715179963
 20
1115.212406305858
 30
0.0
  0
POINT
  5
293C
330
214C
100
AcDbEntity
  8
DEFPOINTS
 62
     0
100
AcDbPoint
 10
1473.213482510024
 20
1073.712406305858
 30
0.0
  0
POINT
  5
293D
330
214C
100
AcDbEntity
  8
DEFPOINTS
 62
     0
100
AcDbPoint
 10
1485.086841536665
 20
1073.712406305858
 30
0.0
  0
ENDBLK
  5
22E5
330
214C
100
AcDbEntity
  8
0
100
AcDbBlockEnd
  0
BLOCK
  5
22C8
330
2158
100
AcDbEntity
  8
0
100
AcDbBlockBegin
  2
*D11
 70
     1
 10
0.0
 20
0.0
 30
0.0
  3
*D11
  1

  0
LINE
  5
292B
330
2158
100
AcDbEntity
  8
sunpo
 62
     3
370
    -2
100
AcDbLine
 10
1430.7381914902
 20
1109.712406305858
 30
0.0
 11
1431.438191490201
 21
1109.712406305858
 31
0.0
  0
LINE
  5
292C
330
2158
100
AcDbEntity
  8
sunpo
 62
     3
370
    -2
100
AcDbLine
 10
1430.7381914902
 20
1115.212406305858
 30
0.0
 11
1431.438191490201
 21
1115.212406305858
 31
0.0
  0
LINE
  5
292D
330
2158
100
AcDbEntity
  8
sunpo
 62
     3
370
    -2
100
AcDbLine
 10
1430.738191490201
 20
1107.712406305858
 30
0.0
 11
1430.738191490201
 21
1105.712406305858
 31
0.0
  0
LINE
  5
292E
330
2158
100
AcDbEntity
  8
sunpo
 62
     3
370
    -2
100
AcDbLine
 10
1430.738191490201
 20
1117.212406305858
 30
0.0
 11
1430.738191490201
 21
1125.468024283386
 31
0.0
  0
INSERT
  5
292F
330
2158
100
AcDbEntity
  8
sunpo
 62
     3
370
    -2
100
AcDbBlockReference
  2
_OPEN30
 10
1430.738191490201
 20
1109.712406305858
 30
0.0
 41
2.0
 42
2.0
 43
2.0
 50
90.0
  0
INSERT
  5
2930
330
2158
100
AcDbEntity
  8
sunpo
 62
     3
370
    -2
100
AcDbBlockReference
  2
_OPEN30
 10
1430.738191490201
 20
1115.212406305858
 30
0.0
 41
2.0
 42
2.0
 43
2.0
 50
270.0
  0
MTEXT
  5
2931
330
2158
100
AcDbEntity
  8
sunpo
 62
     3
100
AcDbMText
 10
1428.4881914902
 20
1122.340215294622
 30
0.0
 40
2.5
 41
0.0
 71
     5
 72
     1
  1
\A1;5.5
  7
MSP明朝W1
 11
0.0000000000000001
 21
1.0
 31
0.0
 73
     1
 44
1.0
  0
POINT
  5
2932
330
2158
100
AcDbEntity
  8
DEFPOINTS
 62
     0
100
AcDbPoint
 10
1430.7381914902
 20
1109.712406305858
 30
0.0
  0
POINT
  5
2933
330
2158
100
AcDbEntity
  8
DEFPOINTS
 62
     0
100
AcDbPoint
 10
1430.7381914902
 20
1115.212406305858
 30
0.0
  0
POINT
  5
2934
330
2158
100
AcDbEntity
  8
DEFPOINTS
 62
     0
100
AcDbPoint
 10
1430.738191490201
 20
1115.212406305858
 30
0.0
  0
ENDBLK
  5
22D3
330
2158
100
AcDbEntity
  8
0
100
AcDbBlockEnd
  0
BLOCK
  5
247E
330
2329
100
AcDbEntity
  8
0
100
AcDbBlockBegin
  2
A3
 70
     0
 10
0.0
 20
0.0
 30
0.0
  3
A3
  1

  0
LINE
  5
232A
330
2329
100
AcDbEntity
  8
ﾀｲﾄﾙ枠
  6
Continuous
 62
     5
100
AcDbLine
 10
438.0
 20
10.0
 30
0.0
 11
52.0
 21
10.0
 31
0.0
  0
LINE
  5
232B
330
2329
100
AcDbEntity
  8
ﾀｲﾄﾙ枠
  6
Continuous
 62
     5
100
AcDbLine
 10
52.0
 20
290.0
 30
0.0
 11
438.0
 21
290.0
 31
0.0
  0
LINE
  5
232C
330
2329
100
AcDbEntity
  8
0
 62
     5
100
AcDbLine
 10
52.0
 20
290.0
 30
0.0
 11
52.0
 21
10.0
 31
0.0
  0
LINE
  5
232D
330
2329
100
AcDbEntity
  8
ﾀｲﾄﾙ枠
  6
Continuous
 62
     5
100
AcDbLine
 10
438.0
 20
290.0
 30
0.0
 11
438.0
 21
10.0
 31
0.0
  0
TEXT
  5
232E
330
2329
100
AcDbEntity
  8
0
370
    30
100
AcDbText
 10
365.5140449438202
 20
27.85509299812699
 30
0.0
 40
4.5
  1
.
  7
MSP明朝W1
 72
     4
 11
366.5
 21
28.23430648127306
 31
0.0
100
AcDbText
  0
LINE
  5
232F
330
2329
100
AcDbEntity
  8
ﾀｲﾄﾙ枠
100
AcDbLine
 10
293.0
 20
50.23430648127305
 30
0.0
 11
438.0
 21
50.23430648127305
 31
0.0
  0
LINE
  5
2330
330
2329
100
AcDbEntity
  8
ﾀｲﾄﾙ枠
100
AcDbLine
 10
293.0
 20
22.23430648127306
 30
0.0
 11
438.0
 21
22.23430648127306
 31
0.0
  0
LINE
  5
2331
330
2329
100
AcDbEntity
  8
ﾀｲﾄﾙ枠
100
AcDbLine
 10
293.0
 20
34.23430648127306
 30
0.0
 11
378.0
 21
34.23430648127306
 31
0.0
  0
MTEXT
  5
2332
330
2329
100
AcDbEntity
  8
ﾀｲﾄﾙ枠
370
    30
100
AcDbMText
 10
294.7260722277714
 20
49.129015812067
 30
0.0
 40
2.5
 41
11.5
 71
     1
 72
     5
  1
{\fＭＳ Ｐ明朝|b0|i0|c128|p18;工事名}
 73
     1
 44
1.0
1001
ACAD
1000
MTEXTBEGIN
1070
    73
1070
     1
1070
    44
1040
1.0
1070
    74
1070
     0
1000
MTEXTEND
  0
MTEXT
  5
2333
330
2329
100
AcDbEntity
  8
ﾀｲﾄﾙ枠
370
    30
100
AcDbMText
 10
294.6956708772145
 20
33.09362710847778
 30
0.0
 40
2.5
 41
11.5
 71
     1
 72
     5
  1
{\fＭＳ Ｐ明朝|b0|i0|c128|p18;製品名}
 73
     1
 44
1.0
1001
ACAD
1000
MTEXTBEGIN
1070
    73
1070
     1
1070
    44
1040
1.0
1070
    74
1070
     0
1000
MTEXTEND
  0
LINE
  5
2334
330
2329
100
AcDbEntity
  8
ﾀｲﾄﾙ枠
100
AcDbLine
 10
293.0
 20
10.23430648127305
 30
0.0
 11
293.0
 21
50.23430648127305
 31
0.0
  0
TEXT
  5
2335
330
2329
100
AcDbEntity
  8
0
100
AcDbText
 10
334.5140449438202
 20
39.85509299812699
 30
0.0
 40
4.5
  1
.
  7
MSP明朝W1
 72
     4
 11
335.4999999999999
 21
40.23430648127305
 31
0.0
100
AcDbText
  0
LINE
  5
2336
330
2329
100
AcDbEntity
  8
ﾀｲﾄﾙ枠
  6
Continuous
370
    40
100
AcDbLine
 10
334.1593430171533
 20
17.6039541482177
 30
0.0
 11
334.8068430171533
 21
16.74062081488437
 31
0.0
  0
LINE
  5
2337
330
2329
100
AcDbEntity
  8
ﾀｲﾄﾙ枠
  6
Continuous
370
    40
100
AcDbLine
 10
334.8068430171533
 20
16.2739541482177
 30
0.0
 11
334.4168430171532
 21
16.7939541482177
 31
0.0
  0
LINE
  5
2338
330
2329
100
AcDbEntity
  8
ﾀｲﾄﾙ枠
  6
Continuous
370
    40
100
AcDbLine
 10
334.8068430171533
 20
17.6039541482177
 30
0.0
 11
333.3568430171533
 21
17.6039541482177
 31
0.0
  0
LINE
  5
2339
330
2329
100
AcDbEntity
  8
ﾀｲﾄﾙ枠
  6
Continuous
370
    40
100
AcDbLine
 10
309.3568430171533
 20
17.8739541482177
 30
0.0
 11
309.3568430171533
 21
17.7239541482177
 31
0.0
  0
LINE
  5
233A
330
2329
100
AcDbEntity
  8
ﾀｲﾄﾙ枠
  6
Continuous
370
    40
100
AcDbLine
 10
306.8218430171532
 20
16.7039541482177
 30
0.0
 11
308.8368430171533
 21
16.7039541482177
 31
0.0
  0
LINE
  5
233B
330
2329
100
AcDbEntity
  8
ﾀｲﾄﾙ枠
  6
Continuous
370
    40
100
AcDbLine
 10
308.8368430171533
 20
13.6939541482177
 30
0.0
 11
303.8768430171533
 21
13.6939541482177
 31
0.0
  0
LINE
  5
233C
330
2329
100
AcDbEntity
  8
ﾀｲﾄﾙ枠
  6
Continuous
370
    40
100
AcDbLine
 10
304.8068430171533
 20
13.8439541482177
 30
0.0
 11
307.9068430171532
 21
13.8439541482177
 31
0.0
  0
LINE
  5
233D
330
2329
100
AcDbEntity
  8
ﾀｲﾄﾙ枠
  6
Continuous
370
    40
100
AcDbLine
 10
303.8768430171533
 20
15.6639541482177
 30
0.0
 11
308.8368430171533
 21
15.6639541482177
 31
0.0
  0
LINE
  5
233E
330
2329
100
AcDbEntity
  8
ﾀｲﾄﾙ枠
  6
Continuous
370
    40
100
AcDbLine
 10
307.9068430171532
 20
15.5139541482177
 30
0.0
 11
304.8068430171533
 21
15.5139541482177
 31
0.0
  0
LINE
  5
233F
330
2329
100
AcDbEntity
  8
ﾀｲﾄﾙ枠
  6
Continuous
370
    40
100
AcDbLine
 10
308.8368430171533
 20
16.5539541482177
 30
0.0
 11
303.8768430171533
 21
16.5539541482177
 31
0.0
  0
LINE
  5
2340
330
2329
100
AcDbEntity
  8
ﾀｲﾄﾙ枠
  6
Continuous
370
    40
100
AcDbLine
 10
305.8918430171532
 20
16.7039541482177
 30
0.0
 11
305.8918430171532
 21
17.7239541482177
 31
0.0
  0
LINE
  5
2341
330
2329
100
AcDbEntity
  8
ﾀｲﾄﾙ枠
  6
Continuous
370
    40
100
AcDbLine
 10
305.8918430171532
 20
17.8739541482177
 30
0.0
 11
305.8918430171532
 21
18.7839541482177
 31
0.0
  0
LINE
  5
2342
330
2329
100
AcDbEntity
  8
ﾀｲﾄﾙ枠
  6
Continuous
370
    40
100
AcDbLine
 10
305.8918430171532
 20
18.7839541482177
 30
0.0
 11
306.8218430171532
 21
18.7839541482177
 31
0.0
  0
LINE
  5
2343
330
2329
100
AcDbEntity
  8
ﾀｲﾄﾙ枠
  6
Continuous
370
    40
100
AcDbLine
 10
306.8218430171532
 20
18.7839541482177
 30
0.0
 11
306.8218430171532
 21
17.8739541482177
 31
0.0
  0
LINE
  5
2344
330
2329
100
AcDbEntity
  8
ﾀｲﾄﾙ枠
  6
Continuous
370
    40
100
AcDbLine
 10
306.8218430171532
 20
17.7239541482177
 30
0.0
 11
306.8218430171532
 21
16.7039541482177
 31
0.0
  0
LINE
  5
2345
330
2329
100
AcDbEntity
  8
ﾀｲﾄﾙ枠
  6
Continuous
370
    40
100
AcDbLine
 10
306.3568430171533
 20
16.8039541482177
 30
0.0
 11
306.3568430171533
 21
18.5339541482177
 31
0.0
  0
LINE
  5
2346
330
2329
100
AcDbEntity
  8
ﾀｲﾄﾙ枠
  6
Continuous
370
    40
100
AcDbLine
 10
306.5568430171533
 20
16.8039541482177
 30
0.0
 11
306.5568430171533
 21
18.5339541482177
 31
0.0
  0
LINE
  5
2347
330
2329
100
AcDbEntity
  8
ﾀｲﾄﾙ枠
  6
Continuous
370
    40
100
AcDbLine
 10
306.1568430171532
 20
16.8039541482177
 30
0.0
 11
306.1568430171532
 21
18.5339541482177
 31
0.0
  0
LINE
  5
2348
330
2329
100
AcDbEntity
  8
ﾀｲﾄﾙ枠
  6
Continuous
370
    40
100
AcDbLine
 10
303.8768430171533
 20
16.5539541482177
 30
0.0
 11
303.8768430171533
 21
16.7039541482177
 31
0.0
  0
LINE
  5
2349
330
2329
100
AcDbEntity
  8
ﾀｲﾄﾙ枠
  6
Continuous
370
    40
100
AcDbLine
 10
303.3568430171533
 20
17.7239541482177
 30
0.0
 11
303.3568430171533
 21
17.8739541482177
 31
0.0
  0
LINE
  5
234A
330
2329
100
AcDbEntity
  8
ﾀｲﾄﾙ枠
  6
Continuous
370
    40
100
AcDbLine
 10
303.8768430171533
 20
13.6939541482177
 30
0.0
 11
303.8768430171533
 21
15.6639541482177
 31
0.0
  0
LINE
  5
234B
330
2329
100
AcDbEntity
  8
ﾀｲﾄﾙ枠
  6
Continuous
370
    40
100
AcDbLine
 10
304.8068430171533
 20
15.5139541482177
 30
0.0
 11
304.8068430171533
 21
13.8439541482177
 31
0.0
  0
LINE
  5
234C
330
2329
100
AcDbEntity
  8
ﾀｲﾄﾙ枠
  6
Continuous
370
    40
100
AcDbLine
 10
304.3418430171533
 20
15.5139541482177
 30
0.0
 11
304.3418430171533
 21
13.8439541482177
 31
0.0
  0
LINE
  5
234D
330
2329
100
AcDbEntity
  8
ﾀｲﾄﾙ枠
  6
Continuous
370
    40
100
AcDbLine
 10
304.5418430171533
 20
15.5139541482177
 30
0.0
 11
304.5418430171533
 21
13.8439541482177
 31
0.0
  0
LINE
  5
234E
330
2329
100
AcDbEntity
  8
ﾀｲﾄﾙ枠
  6
Continuous
370
    40
100
AcDbLine
 10
304.1418430171532
 20
15.5139541482177
 30
0.0
 11
304.1418430171532
 21
13.8439541482177
 31
0.0
  0
LINE
  5
234F
330
2329
100
AcDbEntity
  8
ﾀｲﾄﾙ枠
  6
Continuous
370
    40
100
AcDbLine
 10
303.8768430171533
 20
16.7039541482177
 30
0.0
 11
305.8918430171532
 21
16.7039541482177
 31
0.0
  0
LINE
  5
2350
330
2329
100
AcDbEntity
  8
ﾀｲﾄﾙ枠
  6
Continuous
370
    40
100
AcDbLine
 10
305.8918430171532
 20
17.7239541482177
 30
0.0
 11
303.3568430171533
 21
17.7239541482177
 31
0.0
  0
LINE
  5
2351
330
2329
100
AcDbEntity
  8
ﾀｲﾄﾙ枠
  6
Continuous
370
    40
100
AcDbLine
 10
303.3568430171533
 20
17.8739541482177
 30
0.0
 11
305.8918430171532
 21
17.8739541482177
 31
0.0
  0
LINE
  5
2352
330
2329
100
AcDbEntity
  8
ﾀｲﾄﾙ枠
  6
Continuous
370
    40
100
AcDbLine
 10
308.8368430171533
 20
16.7039541482177
 30
0.0
 11
308.8368430171533
 21
16.5539541482177
 31
0.0
  0
LINE
  5
2353
330
2329
100
AcDbEntity
  8
ﾀｲﾄﾙ枠
  6
Continuous
370
    40
100
AcDbLine
 10
308.8368430171533
 20
15.6639541482177
 30
0.0
 11
308.8368430171533
 21
13.6939541482177
 31
0.0
  0
LINE
  5
2354
330
2329
100
AcDbEntity
  8
ﾀｲﾄﾙ枠
  6
Continuous
370
    40
100
AcDbLine
 10
308.3718430171533
 20
13.8439541482177
 30
0.0
 11
308.3718430171533
 21
15.5139541482177
 31
0.0
  0
LINE
  5
2355
330
2329
100
AcDbEntity
  8
ﾀｲﾄﾙ枠
  6
Continuous
370
    40
100
AcDbLine
 10
307.9068430171532
 20
13.8439541482177
 30
0.0
 11
307.9068430171532
 21
15.5139541482177
 31
0.0
  0
LINE
  5
2356
330
2329
100
AcDbEntity
  8
ﾀｲﾄﾙ枠
  6
Continuous
370
    40
100
AcDbLine
 10
308.5718430171533
 20
13.8439541482177
 30
0.0
 11
308.5718430171533
 21
15.5139541482177
 31
0.0
  0
LINE
  5
2357
330
2329
100
AcDbEntity
  8
ﾀｲﾄﾙ枠
  6
Continuous
370
    40
100
AcDbLine
 10
308.1718430171532
 20
13.8439541482177
 30
0.0
 11
308.1718430171532
 21
15.5139541482177
 31
0.0
  0
LINE
  5
2358
330
2329
100
AcDbEntity
  8
ﾀｲﾄﾙ枠
  6
Continuous
370
    40
100
AcDbLine
 10
306.8218430171532
 20
17.8739541482177
 30
0.0
 11
309.3568430171533
 21
17.8739541482177
 31
0.0
  0
LINE
  5
2359
330
2329
100
AcDbEntity
  8
ﾀｲﾄﾙ枠
  6
Continuous
370
    40
100
AcDbLine
 10
309.3568430171533
 20
17.7239541482177
 30
0.0
 11
306.8218430171532
 21
17.7239541482177
 31
0.0
  0
LINE
  5
235A
330
2329
100
AcDbEntity
  8
ﾀｲﾄﾙ枠
  6
Continuous
370
    40
100
AcDbLine
 10
314.3218430171533
 20
17.5939541482177
 30
0.0
 11
316.8568430171533
 21
17.5939541482177
 31
0.0
  0
LINE
  5
235B
330
2329
100
AcDbEntity
  8
ﾀｲﾄﾙ枠
  6
Continuous
370
    40
100
AcDbLine
 10
316.8568430171533
 20
17.7439541482177
 30
0.0
 11
314.3218430171533
 21
17.7439541482177
 31
0.0
  0
LINE
  5
235C
330
2329
100
AcDbEntity
  8
ﾀｲﾄﾙ枠
  6
Continuous
370
    40
100
AcDbLine
 10
316.8568430171533
 20
14.7498408213127
 30
0.0
 11
314.3218430171533
 21
17.0898408213127
 31
0.0
  0
LINE
  5
235D
330
2329
100
AcDbEntity
  8
ﾀｲﾄﾙ枠
  6
Continuous
370
    40
100
AcDbLine
 10
314.3218430171533
 20
16.3549504176977
 30
0.0
 11
316.8568430171533
 21
14.0149504176977
 31
0.0
  0
LINE
  5
235E
330
2329
100
AcDbEntity
  8
ﾀｲﾄﾙ枠
  6
Continuous
370
    40
100
AcDbLine
 10
316.6068430171533
 20
14.61316485027436
 30
0.0
 11
314.3218430171533
 21
16.72239561950503
 31
0.0
  0
LINE
  5
235F
330
2329
100
AcDbEntity
  8
ﾀｲﾄﾙ枠
  6
Continuous
370
    40
100
AcDbLine
 10
314.3218430171533
 20
17.0898408213127
 30
0.0
 11
314.3218430171533
 21
17.5939541482177
 31
0.0
  0
LINE
  5
2360
330
2329
100
AcDbEntity
  8
ﾀｲﾄﾙ枠
  6
Continuous
370
    40
100
AcDbLine
 10
314.3218430171533
 20
17.7439541482177
 30
0.0
 11
314.3218430171533
 21
18.7839541482177
 31
0.0
  0
LINE
  5
2361
330
2329
100
AcDbEntity
  8
ﾀｲﾄﾙ枠
  6
Continuous
370
    40
100
AcDbLine
 10
314.3218430171533
 20
13.6939541482177
 30
0.0
 11
314.3218430171533
 21
14.3439541482177
 31
0.0
  0
LINE
  5
2362
330
2329
100
AcDbEntity
  8
ﾀｲﾄﾙ枠
  6
Continuous
370
    40
100
AcDbLine
 10
314.3218430171533
 20
14.3439541482177
 30
0.0
 11
315.2968430171533
 21
14.3439541482177
 31
0.0
  0
LINE
  5
2363
330
2329
100
AcDbEntity
  8
ﾀｲﾄﾙ枠
  6
Continuous
370
    40
100
AcDbLine
 10
315.2968430171533
 20
14.3439541482177
 30
0.0
 11
315.2968430171533
 21
14.4939541482177
 31
0.0
  0
LINE
  5
2364
330
2329
100
AcDbEntity
  8
ﾀｲﾄﾙ枠
  6
Continuous
370
    40
100
AcDbLine
 10
315.2968430171533
 20
14.4939541482177
 30
0.0
 11
314.3218430171533
 21
14.4939541482177
 31
0.0
  0
LINE
  5
2365
330
2329
100
AcDbEntity
  8
ﾀｲﾄﾙ枠
  6
Continuous
370
    40
100
AcDbLine
 10
314.3218430171533
 20
14.4939541482177
 30
0.0
 11
314.3218430171533
 21
16.3549504176977
 31
0.0
  0
LINE
  5
2366
330
2329
100
AcDbEntity
  8
ﾀｲﾄﾙ枠
  6
Continuous
370
    40
100
AcDbLine
 10
313.8568430171533
 20
13.9439541482177
 30
0.0
 11
313.8568430171533
 21
18.5339541482177
 31
0.0
  0
LINE
  5
2367
330
2329
100
AcDbEntity
  8
ﾀｲﾄﾙ枠
  6
Continuous
370
    40
100
AcDbLine
 10
314.0568430171533
 20
13.9439541482177
 30
0.0
 11
314.0568430171533
 21
18.5339541482177
 31
0.0
  0
LINE
  5
2368
330
2329
100
AcDbEntity
  8
ﾀｲﾄﾙ枠
  6
Continuous
370
    40
100
AcDbLine
 10
313.6568430171532
 20
13.9439541482177
 30
0.0
 11
313.6568430171532
 21
18.5339541482177
 31
0.0
  0
LINE
  5
2369
330
2329
100
AcDbEntity
  8
ﾀｲﾄﾙ枠
  6
Continuous
370
    40
100
AcDbLine
 10
313.3918430171533
 20
18.7839541482177
 30
0.0
 11
313.3918430171533
 21
17.7439541482177
 31
0.0
  0
LINE
  5
236A
330
2329
100
AcDbEntity
  8
ﾀｲﾄﾙ枠
  6
Continuous
370
    40
100
AcDbLine
 10
313.3918430171533
 20
17.7439541482177
 30
0.0
 11
310.8568430171533
 21
17.7439541482177
 31
0.0
  0
LINE
  5
236B
330
2329
100
AcDbEntity
  8
ﾀｲﾄﾙ枠
  6
Continuous
370
    40
100
AcDbLine
 10
310.8568430171533
 20
17.7439541482177
 30
0.0
 11
310.8568430171533
 21
17.5939541482177
 31
0.0
  0
LINE
  5
236C
330
2329
100
AcDbEntity
  8
ﾀｲﾄﾙ枠
  6
Continuous
370
    40
100
AcDbLine
 10
310.8568430171533
 20
17.5939541482177
 30
0.0
 11
313.3918430171533
 21
17.5939541482177
 31
0.0
  0
LINE
  5
236D
330
2329
100
AcDbEntity
  8
ﾀｲﾄﾙ枠
  6
Continuous
370
    40
100
AcDbLine
 10
313.3918430171533
 20
17.5939541482177
 30
0.0
 11
313.3918430171533
 21
17.0898408213127
 31
0.0
  0
LINE
  5
236E
330
2329
100
AcDbEntity
  8
ﾀｲﾄﾙ枠
  6
Continuous
370
    40
100
AcDbLine
 10
310.8568430171533
 20
14.7498408213127
 30
0.0
 11
310.8568430171533
 21
14.0149504176977
 31
0.0
  0
LINE
  5
236F
330
2329
100
AcDbEntity
  8
ﾀｲﾄﾙ枠
  6
Continuous
370
    40
100
AcDbLine
 10
313.3918430171533
 20
14.4939541482177
 30
0.0
 11
312.4168430171532
 21
14.4939541482177
 31
0.0
  0
LINE
  5
2370
330
2329
100
AcDbEntity
  8
ﾀｲﾄﾙ枠
  6
Continuous
370
    40
100
AcDbLine
 10
312.4168430171532
 20
14.4939541482177
 30
0.0
 11
312.4168430171532
 21
14.3439541482177
 31
0.0
  0
LINE
  5
2371
330
2329
100
AcDbEntity
  8
ﾀｲﾄﾙ枠
  6
Continuous
370
    40
100
AcDbLine
 10
312.4168430171532
 20
14.3439541482177
 30
0.0
 11
313.3918430171533
 21
14.3439541482177
 31
0.0
  0
LINE
  5
2372
330
2329
100
AcDbEntity
  8
ﾀｲﾄﾙ枠
  6
Continuous
370
    40
100
AcDbLine
 10
313.3918430171533
 20
14.3439541482177
 30
0.0
 11
313.3918430171533
 21
13.6939541482177
 31
0.0
  0
LINE
  5
2373
330
2329
100
AcDbEntity
  8
ﾀｲﾄﾙ枠
  6
Continuous
370
    40
100
AcDbLine
 10
313.3918430171533
 20
17.0898408213127
 30
0.0
 11
310.8568430171533
 21
14.7498408213127
 31
0.0
  0
LINE
  5
2374
330
2329
100
AcDbEntity
  8
ﾀｲﾄﾙ枠
  6
Continuous
370
    40
100
AcDbLine
 10
310.8568430171533
 20
14.0149504176977
 30
0.0
 11
313.3918430171533
 21
16.3549504176977
 31
0.0
  0
LINE
  5
2375
330
2329
100
AcDbEntity
  8
ﾀｲﾄﾙ枠
  6
Continuous
370
    40
100
AcDbLine
 10
313.3918430171533
 20
16.3549504176977
 30
0.0
 11
313.3918430171533
 21
14.4939541482177
 31
0.0
  0
LINE
  5
2376
330
2329
100
AcDbEntity
  8
ﾀｲﾄﾙ枠
  6
Continuous
370
    40
100
AcDbLine
 10
313.3918430171533
 20
16.72239561950503
 30
0.0
 11
311.1068430171533
 21
14.61316485027436
 31
0.0
  0
LINE
  5
2377
330
2329
100
AcDbEntity
  8
ﾀｲﾄﾙ枠
  6
Continuous
370
    40
100
AcDbLine
 10
313.3918430171533
 20
13.6939541482177
 30
0.0
 11
314.3218430171533
 21
13.6939541482177
 31
0.0
  0
LINE
  5
2378
330
2329
100
AcDbEntity
  8
ﾀｲﾄﾙ枠
  6
Continuous
370
    40
100
AcDbLine
 10
314.3218430171533
 20
18.7839541482177
 30
0.0
 11
313.3918430171533
 21
18.7839541482177
 31
0.0
  0
LINE
  5
2379
330
2329
100
AcDbEntity
  8
ﾀｲﾄﾙ枠
  6
Continuous
370
    40
100
AcDbLine
 10
316.8568430171533
 20
17.5939541482177
 30
0.0
 11
316.8568430171533
 21
17.7439541482177
 31
0.0
  0
LINE
  5
237A
330
2329
100
AcDbEntity
  8
ﾀｲﾄﾙ枠
  6
Continuous
370
    40
100
AcDbLine
 10
316.8568430171533
 20
14.0149504176977
 30
0.0
 11
316.8568430171533
 21
14.7498408213127
 31
0.0
  0
TEXT
  5
237B
330
2329
100
AcDbEntity
  8
0
100
AcDbText
 10
320.5140449438202
 20
25.85509299812699
 30
0.0
 40
4.5
  1
.
  7
MSP明朝W1
 72
     4
 11
321.4999999999999
 21
26.23430648127305
 31
0.0
100
AcDbText
  0
LINE
  5
237C
330
2329
100
AcDbEntity
  8
ﾀｲﾄﾙ枠
  6
Continuous
370
    40
100
AcDbLine
 10
326.0821006396369
 20
18.7839541482177
 30
0.0
 11
326.7718795920126
 21
18.7839541482177
 31
0.0
  0
LINE
  5
237D
330
2329
100
AcDbEntity
  8
ﾀｲﾄﾙ枠
  6
Continuous
370
    40
100
AcDbLine
 10
327.4742881396369
 20
16.7589541482177
 30
0.0
 11
326.0821006396369
 21
18.7839541482177
 31
0.0
  0
LINE
  5
237E
330
2329
100
AcDbEntity
  8
ﾀｲﾄﾙ枠
  6
Continuous
370
    40
100
AcDbLine
 10
326.7592881396369
 20
17.7989541482177
 30
0.0
 11
325.8568430171533
 21
17.7989541482177
 31
0.0
  0
LINE
  5
237F
330
2329
100
AcDbEntity
  8
ﾀｲﾄﾙ枠
  6
Continuous
370
    40
100
AcDbLine
 10
328.3918430171532
 20
15.1747490677997
 30
0.0
 11
326.1168430171533
 21
13.8747490677997
 31
0.0
  0
LINE
  5
2380
330
2329
100
AcDbEntity
  8
ﾀｲﾄﾙ枠
  6
Continuous
370
    40
100
AcDbLine
 10
326.1168430171533
 20
14.33887351435003
 30
0.0
 11
327.6219841264219
 21
15.1989541482177
 31
0.0
  0
LINE
  5
2381
330
2329
100
AcDbEntity
  8
ﾀｲﾄﾙ枠
  6
Continuous
370
    40
100
AcDbLine
 10
328.3918430171532
 20
15.1989541482177
 30
0.0
 11
326.1168430171533
 21
15.1989541482177
 31
0.0
  0
LINE
  5
2382
330
2329
100
AcDbEntity
  8
ﾀｲﾄﾙ枠
  6
Continuous
370
    40
100
AcDbLine
 10
326.1168430171533
 20
13.8747490677997
 30
0.0
 11
326.1168430171533
 21
14.33887351435003
 31
0.0
  0
LINE
  5
2383
330
2329
100
AcDbEntity
  8
ﾀｲﾄﾙ枠
  6
Continuous
370
    40
100
AcDbLine
 10
324.3568430171533
 20
15.7939541482177
 30
0.0
 11
322.5368430171532
 21
15.7939541482177
 31
0.0
  0
LINE
  5
2384
330
2329
100
AcDbEntity
  8
ﾀｲﾄﾙ枠
  6
Continuous
370
    40
100
AcDbLine
 10
322.5368430171532
 20
15.7739541482177
 30
0.0
 11
324.3568430171533
 21
15.7739541482177
 31
0.0
  0
LINE
  5
2385
330
2329
100
AcDbEntity
  8
ﾀｲﾄﾙ枠
  6
Continuous
370
    40
100
AcDbLine
 10
324.3568430171533
 20
16.9639541482177
 30
0.0
 11
323.385295422411
 21
16.9639541482177
 31
0.0
  0
LINE
  5
2386
330
2329
100
AcDbEntity
  8
ﾀｲﾄﾙ枠
  6
Continuous
370
    40
100
AcDbLine
 10
323.385295422411
 20
16.9639541482177
 30
0.0
 11
324.075295422411
 21
18.1139541482177
 31
0.0
  0
LINE
  5
2387
330
2329
100
AcDbEntity
  8
ﾀｲﾄﾙ枠
  6
Continuous
370
    40
100
AcDbLine
 10
324.3568430171533
 20
18.1339541482177
 30
0.0
 11
322.1468430171532
 21
18.1339541482177
 31
0.0
  0
LINE
  5
2388
330
2329
100
AcDbEntity
  8
ﾀｲﾄﾙ枠
  6
Continuous
370
    40
100
AcDbLine
 10
323.192323468376
 20
17.1939541482177
 30
0.0
 11
323.571823468376
 21
17.8839541482177
 31
0.0
  0
LINE
  5
2389
330
2329
100
AcDbEntity
  8
ﾀｲﾄﾙ枠
  6
Continuous
370
    40
100
AcDbLine
 10
324.3568430171533
 20
13.7139541482177
 30
0.0
 11
322.5368430171532
 21
13.7139541482177
 31
0.0
  0
LINE
  5
238A
330
2329
100
AcDbEntity
  8
ﾀｲﾄﾙ枠
  6
Continuous
370
    40
100
AcDbLine
 10
322.5368430171532
 20
14.7339541482177
 30
0.0
 11
324.0968430171533
 21
14.7339541482177
 31
0.0
  0
LINE
  5
238B
330
2329
100
AcDbEntity
  8
ﾀｲﾄﾙ枠
  6
Continuous
370
    40
100
AcDbLine
 10
324.0968430171533
 20
14.7539541482177
 30
0.0
 11
322.5368430171532
 21
14.7539541482177
 31
0.0
  0
LINE
  5
238C
330
2329
100
AcDbEntity
  8
ﾀｲﾄﾙ枠
  6
Continuous
370
    40
100
AcDbLine
 10
319.9168430171532
 20
13.6939541482177
 30
0.0
 11
324.3568430171533
 21
13.6939541482177
 31
0.0
  0
LINE
  5
238D
330
2329
100
AcDbEntity
  8
ﾀｲﾄﾙ枠
  6
Continuous
370
    40
100
AcDbLine
 10
319.4037259169662
 20
16.9439541482177
 30
0.0
 11
324.3568430171533
 21
16.9439541482177
 31
0.0
  0
LINE
  5
238E
330
2329
100
AcDbEntity
  8
ﾀｲﾄﾙ枠
  6
Continuous
370
    40
100
AcDbLine
 10
321.9468430171533
 20
18.3639541482177
 30
0.0
 11
321.9468430171533
 21
18.5339541482177
 31
0.0
  0
LINE
  5
238F
330
2329
100
AcDbEntity
  8
ﾀｲﾄﾙ枠
  6
Continuous
370
    40
100
AcDbLine
 10
322.5368430171532
 20
15.7939541482177
 30
0.0
 11
322.5368430171532
 21
16.1839541482177
 31
0.0
  0
LINE
  5
2390
330
2329
100
AcDbEntity
  8
ﾀｲﾄﾙ枠
  6
Continuous
370
    40
100
AcDbLine
 10
322.1468430171532
 20
18.1339541482177
 30
0.0
 11
322.1468430171532
 21
18.7839541482177
 31
0.0
  0
LINE
  5
2391
330
2329
100
AcDbEntity
  8
ﾀｲﾄﾙ枠
  6
Continuous
370
    40
100
AcDbLine
 10
322.7463515143406
 20
16.9639541482177
 30
0.0
 11
323.3213515143406
 21
18.1139541482177
 31
0.0
  0
LINE
  5
2392
330
2329
100
AcDbEntity
  8
ﾀｲﾄﾙ枠
  6
Continuous
370
    40
100
AcDbLine
 10
322.5368430171532
 20
13.7139541482177
 30
0.0
 11
322.5368430171532
 21
14.7339541482177
 31
0.0
  0
LINE
  5
2393
330
2329
100
AcDbEntity
  8
ﾀｲﾄﾙ枠
  6
Continuous
370
    40
100
AcDbLine
 10
322.5368430171532
 20
14.7539541482177
 30
0.0
 11
322.5368430171532
 21
15.7739541482177
 31
0.0
  0
LINE
  5
2394
330
2329
100
AcDbEntity
  8
ﾀｲﾄﾙ枠
  6
Continuous
370
    40
100
AcDbLine
 10
322.1368430171533
 20
15.9339541482177
 30
0.0
 11
322.1368430171533
 21
13.9439541482177
 31
0.0
  0
LINE
  5
2395
330
2329
100
AcDbEntity
  8
ﾀｲﾄﾙ枠
  6
Continuous
370
    40
100
AcDbLine
 10
322.3368430171533
 20
15.9339541482177
 30
0.0
 11
322.3368430171533
 21
13.9439541482177
 31
0.0
  0
LINE
  5
2396
330
2329
100
AcDbEntity
  8
ﾀｲﾄﾙ枠
  6
Continuous
370
    40
100
AcDbLine
 10
321.9368430171533
 20
15.9339541482177
 30
0.0
 11
321.9368430171533
 21
13.9439541482177
 31
0.0
  0
LINE
  5
2397
330
2329
100
AcDbEntity
  8
ﾀｲﾄﾙ枠
  6
Continuous
370
    40
100
AcDbLine
 10
321.7368430171533
 20
16.1839541482177
 30
0.0
 11
321.7368430171533
 21
15.7939541482177
 31
0.0
  0
LINE
  5
2398
330
2329
100
AcDbEntity
  8
ﾀｲﾄﾙ枠
  6
Continuous
370
    40
100
AcDbLine
 10
321.7368430171533
 20
15.7939541482177
 30
0.0
 11
320.5868430171533
 21
15.7939541482177
 31
0.0
  0
LINE
  5
2399
330
2329
100
AcDbEntity
  8
ﾀｲﾄﾙ枠
  6
Continuous
370
    40
100
AcDbLine
 10
320.5868430171533
 20
15.7939541482177
 30
0.0
 11
320.5868430171533
 21
16.1839541482177
 31
0.0
  0
LINE
  5
239A
330
2329
100
AcDbEntity
  8
ﾀｲﾄﾙ枠
  6
Continuous
370
    40
100
AcDbLine
 10
320.5868430171533
 20
16.1839541482177
 30
0.0
 11
320.3068430171533
 21
16.1839541482177
 31
0.0
  0
LINE
  5
239B
330
2329
100
AcDbEntity
  8
ﾀｲﾄﾙ枠
  6
Continuous
370
    40
100
AcDbLine
 10
320.3068430171533
 20
16.1839541482177
 30
0.0
 11
320.3068430171533
 21
15.7739541482177
 31
0.0
  0
LINE
  5
239C
330
2329
100
AcDbEntity
  8
ﾀｲﾄﾙ枠
  6
Continuous
370
    40
100
AcDbLine
 10
320.3068430171533
 20
15.7739541482177
 30
0.0
 11
321.7368430171533
 21
15.7739541482177
 31
0.0
  0
LINE
  5
239D
330
2329
100
AcDbEntity
  8
ﾀｲﾄﾙ枠
  6
Continuous
370
    40
100
AcDbLine
 10
321.3468430171533
 20
18.7839541482177
 30
0.0
 11
321.3468430171533
 21
18.1339541482177
 31
0.0
  0
LINE
  5
239E
330
2329
100
AcDbEntity
  8
ﾀｲﾄﾙ枠
  6
Continuous
370
    40
100
AcDbLine
 10
321.3468430171533
 20
18.1339541482177
 30
0.0
 11
318.8768430171533
 21
18.1339541482177
 31
0.0
  0
LINE
  5
239F
330
2329
100
AcDbEntity
  8
ﾀｲﾄﾙ枠
  6
Continuous
370
    40
100
AcDbLine
 10
318.8768430171533
 20
18.1339541482177
 30
0.0
 11
318.8768430171533
 21
18.1139541482177
 31
0.0
  0
LINE
  5
23A0
330
2329
100
AcDbEntity
  8
ﾀｲﾄﾙ枠
  6
Continuous
370
    40
100
AcDbLine
 10
318.8768430171533
 20
18.1139541482177
 30
0.0
 11
319.4183906118956
 21
18.1139541482177
 31
0.0
  0
LINE
  5
23A1
330
2329
100
AcDbEntity
  8
ﾀｲﾄﾙ枠
  6
Continuous
370
    40
100
AcDbLine
 10
319.4183906118956
 20
18.1139541482177
 30
0.0
 11
320.1083906118956
 21
16.9639541482177
 31
0.0
  0
LINE
  5
23A2
330
2329
100
AcDbEntity
  8
ﾀｲﾄﾙ枠
  6
Continuous
370
    40
100
AcDbLine
 10
320.1083906118956
 20
16.9639541482177
 30
0.0
 11
318.8640311433432
 21
16.9639541482177
 31
0.0
  0
LINE
  5
23A3
330
2329
100
AcDbEntity
  8
ﾀｲﾄﾙ枠
  6
Continuous
370
    40
100
AcDbLine
 10
320.1723345199659
 20
18.1139541482177
 30
0.0
 11
320.7473345199659
 21
16.9639541482177
 31
0.0
  0
LINE
  5
23A4
330
2329
100
AcDbEntity
  8
ﾀｲﾄﾙ枠
  6
Continuous
370
    40
100
AcDbLine
 10
321.7468430171533
 20
18.3639541482177
 30
0.0
 11
321.7468430171533
 21
18.5339541482177
 31
0.0
  0
LINE
  5
23A5
330
2329
100
AcDbEntity
  8
ﾀｲﾄﾙ枠
  6
Continuous
370
    40
100
AcDbLine
 10
319.9218625659306
 20
17.8839541482177
 30
0.0
 11
320.3013625659306
 21
17.1939541482177
 31
0.0
  0
LINE
  5
23A6
330
2329
100
AcDbEntity
  8
ﾀｲﾄﾙ枠
  6
Continuous
370
    40
100
AcDbLine
 10
321.5468430171532
 20
18.3639541482177
 30
0.0
 11
321.5468430171532
 21
18.5339541482177
 31
0.0
  0
ARC
  5
23A7
330
2329
100
AcDbEntity
  8
ﾀｲﾄﾙ枠
  6
Continuous
370
    40
100
AcDbCircle
 10
313.3292781992699
 20
15.49697007872703
 30
0.0
 40
5.719999999999999
100
AcDbArc
 50
344.2460809455039
 51
356.9872124958172
  0
ARC
  5
23A8
330
2329
100
AcDbEntity
  8
ﾀｲﾄﾙ枠
  6
Continuous
370
    40
100
AcDbCircle
 10
313.3292781992699
 20
15.49697007872703
 30
0.0
 40
5.989999999999999
100
AcDbArc
 50
342.4820645709959
 51
356.9872124958172
  0
ARC
  5
23A9
330
2329
100
AcDbEntity
  8
ﾀｲﾄﾙ枠
  6
Continuous
370
    40
100
AcDbCircle
 10
313.3292781992699
 20
15.49697007872703
 30
0.0
 40
5.45
100
AcDbArc
 50
340.6809234802235
 51
356.9872124958172
  0
LINE
  5
23AA
330
2329
100
AcDbEntity
  8
ﾀｲﾄﾙ枠
  6
Continuous
370
    40
100
AcDbLine
 10
321.7368430171533
 20
14.7539541482177
 30
0.0
 11
320.3068430171533
 21
14.7539541482177
 31
0.0
  0
LINE
  5
23AB
330
2329
100
AcDbEntity
  8
ﾀｲﾄﾙ枠
  6
Continuous
370
    40
100
AcDbLine
 10
320.3068430171533
 20
14.7539541482177
 30
0.0
 11
320.3068430171533
 21
14.7339541482177
 31
0.0
  0
LINE
  5
23AC
330
2329
100
AcDbEntity
  8
ﾀｲﾄﾙ枠
  6
Continuous
370
    40
100
AcDbLine
 10
320.3068430171533
 20
14.7339541482177
 30
0.0
 11
321.7368430171533
 21
14.7339541482177
 31
0.0
  0
LINE
  5
23AD
330
2329
100
AcDbEntity
  8
ﾀｲﾄﾙ枠
  6
Continuous
370
    40
100
AcDbLine
 10
321.7368430171533
 20
14.7339541482177
 30
0.0
 11
321.7368430171533
 21
13.7139541482177
 31
0.0
  0
LINE
  5
23AE
330
2329
100
AcDbEntity
  8
ﾀｲﾄﾙ枠
  6
Continuous
370
    40
100
AcDbLine
 10
321.7368430171533
 20
13.7139541482177
 30
0.0
 11
319.9168430171532
 21
13.7139541482177
 31
0.0
  0
LINE
  5
23AF
330
2329
100
AcDbEntity
  8
ﾀｲﾄﾙ枠
  6
Continuous
370
    40
100
AcDbLine
 10
319.9168430171532
 20
13.7139541482177
 30
0.0
 11
319.9168430171532
 21
13.6939541482177
 31
0.0
  0
LINE
  5
23B0
330
2329
100
AcDbEntity
  8
ﾀｲﾄﾙ枠
  6
Continuous
370
    40
100
AcDbLine
 10
319.0414786119246
 20
13.6939541482177
 30
0.0
 11
318.4723933597863
 21
13.6939541482177
 31
0.0
  0
LINE
  5
23B1
330
2329
100
AcDbEntity
  8
ﾀｲﾄﾙ枠
  6
Continuous
370
    40
100
AcDbLine
 10
321.7368430171533
 20
15.7739541482177
 30
0.0
 11
321.7368430171533
 21
14.7539541482177
 31
0.0
  0
LINE
  5
23B2
330
2329
100
AcDbEntity
  8
ﾀｲﾄﾙ枠
  6
Continuous
370
    40
100
AcDbLine
 10
318.8640311433432
 20
16.9639541482177
 30
0.0
 11
318.7717453691323
 21
15.21052443820804
 31
0.0
  0
LINE
  5
23B3
330
2329
100
AcDbEntity
  8
ﾀｲﾄﾙ枠
  6
Continuous
370
    40
100
AcDbLine
 10
319.0413721830519
 20
15.1963335532647
 30
0.0
 11
319.1212469512072
 21
16.7139541482177
 31
0.0
  0
LINE
  5
23B4
330
2329
100
AcDbEntity
  8
ﾀｲﾄﾙ枠
  6
Continuous
370
    40
100
AcDbLine
 10
319.4037259169662
 20
16.9439541482177
 30
0.0
 11
319.3109989969716
 21
15.1821426683217
 31
0.0
  0
LINE
  5
23B5
330
2329
100
AcDbEntity
  8
ﾀｲﾄﾙ枠
  6
Continuous
370
    40
100
AcDbLine
 10
322.5368430171532
 20
16.1839541482177
 30
0.0
 11
321.7368430171533
 21
16.1839541482177
 31
0.0
  0
LINE
  5
23B6
330
2329
100
AcDbEntity
  8
ﾀｲﾄﾙ枠
  6
Continuous
370
    40
100
AcDbLine
 10
322.1468430171532
 20
18.7839541482177
 30
0.0
 11
321.3468430171533
 21
18.7839541482177
 31
0.0
  0
LINE
  5
23B7
330
2329
100
AcDbEntity
  8
ﾀｲﾄﾙ枠
  6
Continuous
370
    40
100
AcDbLine
 10
323.3213515143406
 20
18.1139541482177
 30
0.0
 11
320.1723345199659
 21
18.1139541482177
 31
0.0
  0
LINE
  5
23B8
330
2329
100
AcDbEntity
  8
ﾀｲﾄﾙ枠
  6
Continuous
370
    40
100
AcDbLine
 10
320.7473345199659
 20
16.9639541482177
 30
0.0
 11
322.7463515143406
 21
16.9639541482177
 31
0.0
  0
LINE
  5
23B9
330
2329
100
AcDbEntity
  8
ﾀｲﾄﾙ枠
  6
Continuous
370
    40
100
AcDbLine
 10
324.3568430171533
 20
15.7739541482177
 30
0.0
 11
324.3568430171533
 21
15.7939541482177
 31
0.0
  0
LINE
  5
23BA
330
2329
100
AcDbEntity
  8
ﾀｲﾄﾙ枠
  6
Continuous
370
    40
100
AcDbLine
 10
324.3568430171533
 20
16.9439541482177
 30
0.0
 11
324.3568430171533
 21
16.9639541482177
 31
0.0
  0
LINE
  5
23BB
330
2329
100
AcDbEntity
  8
ﾀｲﾄﾙ枠
  6
Continuous
370
    40
100
AcDbLine
 10
324.075295422411
 20
18.1139541482177
 30
0.0
 11
324.3568430171533
 21
18.1139541482177
 31
0.0
  0
LINE
  5
23BC
330
2329
100
AcDbEntity
  8
ﾀｲﾄﾙ枠
  6
Continuous
370
    40
100
AcDbLine
 10
324.3568430171533
 20
18.1139541482177
 30
0.0
 11
324.3568430171533
 21
18.1339541482177
 31
0.0
  0
LINE
  5
23BD
330
2329
100
AcDbEntity
  8
ﾀｲﾄﾙ枠
  6
Continuous
370
    40
100
AcDbLine
 10
324.3568430171533
 20
13.6939541482177
 30
0.0
 11
324.3568430171533
 21
13.7139541482177
 31
0.0
  0
LINE
  5
23BE
330
2329
100
AcDbEntity
  8
ﾀｲﾄﾙ枠
  6
Continuous
370
    40
100
AcDbLine
 10
324.0968430171533
 20
14.7339541482177
 30
0.0
 11
324.0968430171533
 21
14.7539541482177
 31
0.0
  0
LINE
  5
23BF
330
2329
100
AcDbEntity
  8
ﾀｲﾄﾙ枠
  6
Continuous
370
    40
100
AcDbLine
 10
334.4168430171532
 20
18.7839541482177
 30
0.0
 11
334.4168430171532
 21
17.6039541482177
 31
0.0
  0
LINE
  5
23C0
330
2329
100
AcDbEntity
  8
ﾀｲﾄﾙ枠
  6
Continuous
370
    40
100
AcDbLine
 10
333.8768430171533
 20
17.6039541482177
 30
0.0
 11
333.8768430171533
 21
18.7839541482177
 31
0.0
  0
LINE
  5
23C1
330
2329
100
AcDbEntity
  8
ﾀｲﾄﾙ枠
  6
Continuous
370
    40
100
AcDbLine
 10
333.8768430171533
 20
18.7839541482177
 30
0.0
 11
334.4168430171532
 21
18.7839541482177
 31
0.0
  0
LINE
  5
23C2
330
2329
100
AcDbEntity
  8
ﾀｲﾄﾙ枠
  6
Continuous
370
    40
100
AcDbLine
 10
334.4168430171532
 20
13.6939541482177
 30
0.0
 11
333.8768430171533
 21
13.6939541482177
 31
0.0
  0
LINE
  5
23C3
330
2329
100
AcDbEntity
  8
ﾀｲﾄﾙ枠
  6
Continuous
370
    40
100
AcDbLine
 10
333.8768430171533
 20
13.6939541482177
 30
0.0
 11
333.8768430171533
 21
15.68534525748604
 31
0.0
  0
LINE
  5
23C4
330
2329
100
AcDbEntity
  8
ﾀｲﾄﾙ枠
  6
Continuous
370
    40
100
AcDbLine
 10
334.1468430171532
 20
18.5339541482177
 30
0.0
 11
334.1468430171532
 21
13.9439541482177
 31
0.0
  0
LINE
  5
23C5
330
2329
100
AcDbEntity
  8
ﾀｲﾄﾙ枠
  6
Continuous
370
    40
100
AcDbLine
 10
334.4168430171532
 20
16.7939541482177
 30
0.0
 11
334.4168430171532
 21
13.6939541482177
 31
0.0
  0
LINE
  5
23C6
330
2329
100
AcDbEntity
  8
ﾀｲﾄﾙ枠
  6
Continuous
370
    40
100
AcDbLine
 10
331.8568430171533
 20
17.7989541482177
 30
0.0
 11
330.95439789467
 21
17.7989541482177
 31
0.0
  0
LINE
  5
23C7
330
2329
100
AcDbEntity
  8
ﾀｲﾄﾙ枠
  6
Continuous
370
    40
100
AcDbLine
 10
331.6315853946696
 20
18.7839541482177
 30
0.0
 11
330.2393978946696
 21
16.7589541482177
 31
0.0
  0
LINE
  5
23C8
330
2329
100
AcDbEntity
  8
ﾀｲﾄﾙ枠
  6
Continuous
370
    40
100
AcDbLine
 10
330.094117793482
 20
17.0089541482177
 30
0.0
 11
331.1187271684819
 21
18.5339541482177
 31
0.0
  0
LINE
  5
23C9
330
2329
100
AcDbEntity
  8
ﾀｲﾄﾙ枠
  6
Continuous
370
    40
100
AcDbLine
 10
330.941806442294
 20
18.7839541482177
 30
0.0
 11
331.6315853946696
 21
18.7839541482177
 31
0.0
  0
LINE
  5
23CA
330
2329
100
AcDbEntity
  8
ﾀｲﾄﾙ枠
  6
Continuous
370
    40
100
AcDbLine
 10
331.5968430171533
 20
14.33887351435003
 30
0.0
 11
330.0917019078846
 21
15.1989541482177
 31
0.0
  0
LINE
  5
23CB
330
2329
100
AcDbEntity
  8
ﾀｲﾄﾙ枠
  6
Continuous
370
    40
100
AcDbLine
 10
331.5968430171533
 20
13.8747490677997
 30
0.0
 11
331.5968430171533
 21
14.33887351435003
 31
0.0
  0
LINE
  5
23CC
330
2329
100
AcDbEntity
  8
ﾀｲﾄﾙ枠
  6
Continuous
370
    40
100
AcDbLine
 10
329.7768430171533
 20
17.7989541482177
 30
0.0
 11
329.7768430171533
 21
18.7839541482177
 31
0.0
  0
LINE
  5
23CD
330
2329
100
AcDbEntity
  8
ﾀｲﾄﾙ枠
  6
Continuous
370
    40
100
AcDbLine
 10
329.7768430171533
 20
18.7839541482177
 30
0.0
 11
329.3018430171533
 21
18.7839541482177
 31
0.0
  0
LINE
  5
23CE
330
2329
100
AcDbEntity
  8
ﾀｲﾄﾙ枠
  6
Continuous
370
    40
100
AcDbLine
 10
329.3018430171533
 20
18.7839541482177
 30
0.0
 11
329.3018430171533
 21
17.7989541482177
 31
0.0
  0
LINE
  5
23CF
330
2329
100
AcDbEntity
  8
ﾀｲﾄﾙ枠
  6
Continuous
370
    40
100
AcDbLine
 10
329.3018430171533
 20
17.7989541482177
 30
0.0
 11
328.4118430171532
 21
17.7989541482177
 31
0.0
  0
LINE
  5
23D0
330
2329
100
AcDbEntity
  8
ﾀｲﾄﾙ枠
  6
Continuous
370
    40
100
AcDbLine
 10
328.4118430171532
 20
17.7989541482177
 30
0.0
 11
328.4118430171532
 21
18.7839541482177
 31
0.0
  0
LINE
  5
23D1
330
2329
100
AcDbEntity
  8
ﾀｲﾄﾙ枠
  6
Continuous
370
    40
100
AcDbLine
 10
328.4118430171532
 20
18.7839541482177
 30
0.0
 11
327.9368430171533
 21
18.7839541482177
 31
0.0
  0
LINE
  5
23D2
330
2329
100
AcDbEntity
  8
ﾀｲﾄﾙ枠
  6
Continuous
370
    40
100
AcDbLine
 10
327.9368430171533
 20
18.7839541482177
 30
0.0
 11
327.9368430171533
 21
17.7989541482177
 31
0.0
  0
LINE
  5
23D3
330
2329
100
AcDbEntity
  8
ﾀｲﾄﾙ枠
  6
Continuous
370
    40
100
AcDbLine
 10
327.9368430171533
 20
17.7989541482177
 30
0.0
 11
327.4182858420126
 21
17.7989541482177
 31
0.0
  0
LINE
  5
23D4
330
2329
100
AcDbEntity
  8
ﾀｲﾄﾙ枠
  6
Continuous
370
    40
100
AcDbLine
 10
326.7718795920126
 20
18.7839541482177
 30
0.0
 11
328.1007858420126
 21
16.7589541482177
 31
0.0
  0
LINE
  5
23D5
330
2329
100
AcDbEntity
  8
ﾀｲﾄﾙ枠
  6
Continuous
370
    40
100
AcDbLine
 10
326.7668430171533
 20
15.9789541482177
 30
0.0
 11
328.3918430171532
 21
15.9789541482177
 31
0.0
  0
LINE
  5
23D6
330
2329
100
AcDbEntity
  8
ﾀｲﾄﾙ枠
  6
Continuous
370
    40
100
AcDbLine
 10
326.594958865825
 20
18.5339541482177
 30
0.0
 11
327.6195682408246
 21
17.0089541482177
 31
0.0
  0
LINE
  5
23D7
330
2329
100
AcDbEntity
  8
ﾀｲﾄﾙ枠
  6
Continuous
370
    40
100
AcDbLine
 10
328.3918430171532
 20
13.6939541482177
 30
0.0
 11
329.3218430171533
 21
13.6939541482177
 31
0.0
  0
LINE
  5
23D8
330
2329
100
AcDbEntity
  8
ﾀｲﾄﾙ枠
  6
Continuous
370
    40
100
AcDbLine
 10
328.3918430171532
 20
16.7589541482177
 30
0.0
 11
328.3918430171532
 21
13.6939541482177
 31
0.0
  0
LINE
  5
23D9
330
2329
100
AcDbEntity
  8
ﾀｲﾄﾙ枠
  6
Continuous
370
    40
100
AcDbLine
 10
329.3218430171533
 20
13.6939541482177
 30
0.0
 11
329.3218430171533
 21
16.7589541482177
 31
0.0
  0
LINE
  5
23DA
330
2329
100
AcDbEntity
  8
ﾀｲﾄﾙ枠
  6
Continuous
370
    40
100
AcDbLine
 10
328.8568430171533
 20
16.5089541482177
 30
0.0
 11
328.8568430171533
 21
13.9439541482177
 31
0.0
  0
LINE
  5
23DB
330
2329
100
AcDbEntity
  8
ﾀｲﾄﾙ枠
  6
Continuous
370
    40
100
AcDbLine
 10
329.0568430171532
 20
16.5089541482177
 30
0.0
 11
329.0568430171532
 21
13.9439541482177
 31
0.0
  0
LINE
  5
23DC
330
2329
100
AcDbEntity
  8
ﾀｲﾄﾙ枠
  6
Continuous
370
    40
100
AcDbLine
 10
328.6568430171532
 20
16.5089541482177
 30
0.0
 11
328.6568430171532
 21
13.9439541482177
 31
0.0
  0
LINE
  5
23DD
330
2329
100
AcDbEntity
  8
ﾀｲﾄﾙ枠
  6
Continuous
370
    40
100
AcDbLine
 10
329.3218430171533
 20
15.1747490677997
 30
0.0
 11
331.5968430171533
 21
13.8747490677997
 31
0.0
  0
LINE
  5
23DE
330
2329
100
AcDbEntity
  8
ﾀｲﾄﾙ枠
  6
Continuous
370
    40
100
AcDbLine
 10
330.2954001922939
 20
17.7989541482177
 30
0.0
 11
329.7768430171533
 21
17.7989541482177
 31
0.0
  0
LINE
  5
23DF
330
2329
100
AcDbEntity
  8
ﾀｲﾄﾙ枠
  6
Continuous
370
    40
100
AcDbLine
 10
329.6129001922939
 20
16.7589541482177
 30
0.0
 11
330.941806442294
 21
18.7839541482177
 31
0.0
  0
LINE
  5
23E0
330
2329
100
AcDbEntity
  8
ﾀｲﾄﾙ枠
  6
Continuous
370
    40
100
AcDbLine
 10
331.3368430171533
 20
16.7589541482177
 30
0.0
 11
326.3768430171533
 21
16.7589541482177
 31
0.0
  0
LINE
  5
23E1
330
2329
100
AcDbEntity
  8
ﾀｲﾄﾙ枠
  6
Continuous
370
    40
100
AcDbLine
 10
329.3218430171533
 20
15.9789541482177
 30
0.0
 11
330.9468430171532
 21
15.9789541482177
 31
0.0
  0
LINE
  5
23E2
330
2329
100
AcDbEntity
  8
ﾀｲﾄﾙ枠
  6
Continuous
370
    40
100
AcDbLine
 10
331.5968430171533
 20
15.1989541482177
 30
0.0
 11
329.3218430171533
 21
15.1989541482177
 31
0.0
  0
LINE
  5
23E3
330
2329
100
AcDbEntity
  8
ﾀｲﾄﾙ枠
  6
Continuous
370
    40
100
AcDbLine
 10
333.3568430171533
 20
14.77534525748637
 30
0.0
 11
333.3568430171533
 21
15.99580854732604
 31
0.0
  0
LINE
  5
23E4
330
2329
100
AcDbEntity
  8
ﾀｲﾄﾙ枠
  6
Continuous
370
    40
100
AcDbLine
 10
333.3568430171533
 20
15.99580854732604
 30
0.0
 11
334.00010125751
 21
17.6039541482177
 31
0.0
  0
LINE
  5
23E5
330
2329
100
AcDbEntity
  8
ﾀｲﾄﾙ枠
  6
Continuous
370
    40
100
AcDbLine
 10
333.6068430171533
 20
15.7267606038257
 30
0.0
 11
333.9384721373316
 21
16.44464970285204
 31
0.0
  0
LINE
  5
23E6
330
2329
100
AcDbEntity
  8
ﾀｲﾄﾙ枠
  6
Continuous
370
    40
100
AcDbLine
 10
333.8768430171533
 20
15.68534525748604
 30
0.0
 11
333.3568430171533
 21
14.77534525748637
 31
0.0
  0
TEXT
  5
23E7
330
2329
100
AcDbEntity
  8
ﾀｲﾄﾙ枠
100
AcDbText
 10
351.2219101123595
 20
32.37756490823933
 30
0.0
 40
2.5
  1
尺 度
 50
270.0
  7
明朝TATE
 72
     4
 11
352.4999999999999
 21
28.23430648127304
 31
0.0
100
AcDbText
  0
LINE
  5
23E8
330
2329
100
AcDbEntity
  8
ﾀｲﾄﾙ枠
  6
Continuous
370
    40
100
AcDbLine
 10
350.641957282789
 20
18.7839541482177
 30
0.0
 11
352.0717287515176
 21
18.7839541482177
 31
0.0
  0
LINE
  5
23E9
330
2329
100
AcDbEntity
  8
ﾀｲﾄﾙ枠
  6
Continuous
370
    40
100
AcDbLine
 10
354.0968430171533
 20
15.78395414821771
 30
0.0
 11
348.6168430171533
 21
15.78395414821771
 31
0.0
  0
LINE
  5
23EA
330
2329
100
AcDbEntity
  8
ﾀｲﾄﾙ枠
  6
Continuous
370
    40
100
AcDbLine
 10
351.3568430171533
 20
18.27346264540503
 30
0.0
 11
348.6168430171533
 21
16.90346264540503
 31
0.0
  0
LINE
  5
23EB
330
2329
100
AcDbEntity
  8
ﾀｲﾄﾙ枠
  6
Continuous
370
    40
100
AcDbLine
 10
348.8668430171533
 20
17.40286764611904
 30
0.0
 11
351.1290160213502
 21
18.5339541482177
 31
0.0
  0
LINE
  5
23EC
330
2329
100
AcDbEntity
  8
ﾀｲﾄﾙ枠
  6
Continuous
370
    40
100
AcDbLine
 10
353.0568430171533
 20
16.7489541482177
 30
0.0
 11
349.6568430171532
 21
16.7489541482177
 31
0.0
  0
LINE
  5
23ED
330
2329
100
AcDbEntity
  8
ﾀｲﾄﾙ枠
  6
Continuous
370
    40
100
AcDbLine
 10
349.6568430171532
 20
16.6389541482177
 30
0.0
 11
353.0568430171533
 21
16.6389541482177
 31
0.0
  0
LINE
  5
23EE
330
2329
100
AcDbEntity
  8
ﾀｲﾄﾙ枠
  6
Continuous
370
    40
100
AcDbLine
 10
353.8221507699653
 20
13.7039541482177
 30
0.0
 11
348.891535264341
 21
13.7039541482177
 31
0.0
  0
LINE
  5
23EF
330
2329
100
AcDbEntity
  8
ﾀｲﾄﾙ枠
  6
Continuous
370
    40
100
AcDbLine
 10
349.5971507699656
 20
13.7039541482177
 30
0.0
 11
351.2438174366323
 21
15.78395414821771
 31
0.0
  0
LINE
  5
23F0
330
2329
100
AcDbEntity
  8
ﾀｲﾄﾙ枠
100
AcDbLine
 10
350.0
 20
22.23430648127306
 30
0.0
 11
350.0
 21
34.23430648127306
 31
0.0
  0
LINE
  5
23F1
330
2329
100
AcDbEntity
  8
ﾀｲﾄﾙ枠
  6
Continuous
370
    40
100
AcDbLine
 10
343.8668430171533
 20
16.6939541482177
 30
0.0
 11
341.1168430171533
 21
16.6939541482177
 31
0.0
  0
LINE
  5
23F2
330
2329
100
AcDbEntity
  8
ﾀｲﾄﾙ枠
  6
Continuous
370
    40
100
AcDbLine
 10
343.8668430171533
 20
14.29890512389737
 30
0.0
 11
341.1168430171533
 21
13.74890512389737
 31
0.0
  0
LINE
  5
23F3
330
2329
100
AcDbEntity
  8
ﾀｲﾄﾙ枠
  6
Continuous
370
    40
100
AcDbLine
 10
341.1168430171533
 20
14.91216058197736
 30
0.0
 11
343.8668430171533
 21
15.24216058197737
 31
0.0
  0
LINE
  5
23F4
330
2329
100
AcDbEntity
  8
ﾀｲﾄﾙ枠
  6
Continuous
370
    40
100
AcDbLine
 10
343.6168430171533
 20
14.73053285293737
 30
0.0
 11
341.3668430171533
 21
14.37053285293737
 31
0.0
  0
LINE
  5
23F5
330
2329
100
AcDbEntity
  8
ﾀｲﾄﾙ枠
  6
Continuous
370
    40
100
AcDbLine
 10
343.5819435912518
 20
14.94865426482147
 30
0.0
 11
341.3319435912518
 21
14.58865426482147
 31
0.0
  0
LINE
  5
23F6
330
2329
100
AcDbEntity
  8
ﾀｲﾄﾙ枠
  6
Continuous
370
    40
100
AcDbLine
 10
343.6517424430547
 20
14.51241144105326
 30
0.0
 11
341.4017424430547
 21
14.15241144105326
 31
0.0
  0
LINE
  5
23F7
330
2329
100
AcDbEntity
  8
ﾀｲﾄﾙ枠
  6
Continuous
370
    40
100
AcDbLine
 10
341.1168430171533
 20
17.6039541482177
 30
0.0
 11
346.4668430171533
 21
17.6039541482177
 31
0.0
  0
LINE
  5
23F8
330
2329
100
AcDbEntity
  8
ﾀｲﾄﾙ枠
  6
Continuous
370
    40
100
AcDbLine
 10
342.2968430171533
 20
16.4439541482177
 30
0.0
 11
342.2968430171533
 21
15.05376058197737
 31
0.0
  0
LINE
  5
23F9
330
2329
100
AcDbEntity
  8
ﾀｲﾄﾙ枠
  6
Continuous
370
    40
100
AcDbLine
 10
342.6968430171533
 20
15.10176058197737
 30
0.0
 11
342.6968430171533
 21
16.6939541482177
 31
0.0
  0
LINE
  5
23FA
330
2329
100
AcDbEntity
  8
ﾀｲﾄﾙ枠
  6
Continuous
370
    40
100
AcDbLine
 10
339.2460929001122
 20
13.6939541482177
 30
0.0
 11
338.8082127081646
 21
13.6939541482177
 31
0.0
  0
LINE
  5
23FB
330
2329
100
AcDbEntity
  8
ﾀｲﾄﾙ枠
  6
Continuous
370
    40
100
AcDbLine
 10
338.6535929001122
 20
15.2739541482177
 30
0.0
 11
339.2460929001122
 21
13.6939541482177
 31
0.0
  0
LINE
  5
23FC
330
2329
100
AcDbEntity
  8
ﾀｲﾄﾙ枠
  6
Continuous
370
    40
100
AcDbLine
 10
335.6968430171533
 20
17.6039541482177
 30
0.0
 11
335.6968430171533
 21
18.7839541482177
 31
0.0
  0
LINE
  5
23FD
330
2329
100
AcDbEntity
  8
ﾀｲﾄﾙ枠
  6
Continuous
370
    40
100
AcDbLine
 10
335.6968430171533
 20
18.7839541482177
 30
0.0
 11
336.1068430171533
 21
18.7839541482177
 31
0.0
  0
LINE
  5
23FE
330
2329
100
AcDbEntity
  8
ﾀｲﾄﾙ枠
  6
Continuous
370
    40
100
AcDbLine
 10
336.1068430171533
 20
18.7839541482177
 30
0.0
 11
336.1068430171533
 21
17.6039541482177
 31
0.0
  0
LINE
  5
23FF
330
2329
100
AcDbEntity
  8
ﾀｲﾄﾙ枠
  6
Continuous
370
    40
100
AcDbLine
 10
337.1268430171533
 20
15.2739541482177
 30
0.0
 11
336.2513515143409
 21
15.2739541482177
 31
0.0
  0
LINE
  5
2400
330
2329
100
AcDbEntity
  8
ﾀｲﾄﾙ枠
  6
Continuous
370
    40
100
AcDbLine
 10
337.1268430171533
 20
18.7839541482177
 30
0.0
 11
337.7968430171533
 21
18.7839541482177
 31
0.0
  0
LINE
  5
2401
330
2329
100
AcDbEntity
  8
ﾀｲﾄﾙ枠
  6
Continuous
370
    40
100
AcDbLine
 10
334.8068430171533
 20
16.74062081488437
 30
0.0
 11
334.8068430171533
 21
16.2739541482177
 31
0.0
  0
LINE
  5
2402
330
2329
100
AcDbEntity
  8
ﾀｲﾄﾙ枠
  6
Continuous
370
    40
100
AcDbLine
 10
335.4613515143406
 20
13.6939541482177
 30
0.0
 11
335.9197454497283
 21
13.6939541482177
 31
0.0
  0
LINE
  5
2403
330
2329
100
AcDbEntity
  8
ﾀｲﾄﾙ枠
  6
Continuous
370
    40
100
AcDbLine
 10
337.7968430171533
 20
13.6939541482177
 30
0.0
 11
337.1268430171533
 21
13.6939541482177
 31
0.0
  0
LINE
  5
2404
330
2329
100
AcDbEntity
  8
ﾀｲﾄﾙ枠
  6
Continuous
370
    40
100
AcDbLine
 10
336.2513515143409
 20
15.2739541482177
 30
0.0
 11
335.4613515143406
 21
13.6939541482177
 31
0.0
  0
LINE
  5
2405
330
2329
100
AcDbEntity
  8
ﾀｲﾄﾙ枠
  6
Continuous
370
    40
100
AcDbLine
 10
335.9197454497283
 20
13.6939541482177
 30
0.0
 11
336.7097454497283
 21
15.2739541482177
 31
0.0
  0
LINE
  5
2406
330
2329
100
AcDbEntity
  8
ﾀｲﾄﾙ枠
  6
Continuous
370
    40
100
AcDbLine
 10
337.4618430171533
 20
13.9439541482177
 30
0.0
 11
337.4618430171533
 21
18.5339541482177
 31
0.0
  0
LINE
  5
2407
330
2329
100
AcDbEntity
  8
ﾀｲﾄﾙ枠
  6
Continuous
370
    40
100
AcDbLine
 10
337.7968430171533
 20
18.7839541482177
 30
0.0
 11
337.7968430171533
 21
13.6939541482177
 31
0.0
  0
LINE
  5
2408
330
2329
100
AcDbEntity
  8
ﾀｲﾄﾙ枠
  6
Continuous
370
    40
100
AcDbLine
 10
337.1268430171533
 20
13.6939541482177
 30
0.0
 11
337.1268430171533
 21
18.7839541482177
 31
0.0
  0
LINE
  5
2409
330
2329
100
AcDbEntity
  8
ﾀｲﾄﾙ枠
  6
Continuous
370
    40
100
AcDbLine
 10
338.8082127081646
 20
13.6939541482177
 30
0.0
 11
338.2157127081646
 21
15.2739541482177
 31
0.0
  0
LINE
  5
240A
330
2329
100
AcDbEntity
  8
ﾀｲﾄﾙ枠
  6
Continuous
370
    40
100
AcDbLine
 10
338.9668430171533
 20
17.6039541482177
 30
0.0
 11
335.6968430171533
 21
17.6039541482177
 31
0.0
  0
LINE
  5
240B
330
2329
100
AcDbEntity
  8
ﾀｲﾄﾙ枠
  6
Continuous
370
    40
100
AcDbLine
 10
335.6968430171533
 20
16.4339541482177
 30
0.0
 11
338.8368430171533
 21
16.4339541482177
 31
0.0
  0
LINE
  5
240C
330
2329
100
AcDbEntity
  8
ﾀｲﾄﾙ枠
  6
Continuous
370
    40
100
AcDbLine
 10
337.7968430171533
 20
15.2739541482177
 30
0.0
 11
338.6535929001122
 21
15.2739541482177
 31
0.0
  0
LINE
  5
240D
330
2329
100
AcDbEntity
  8
ﾀｲﾄﾙ枠
  6
Continuous
370
    40
100
AcDbLine
 10
341.1168430171533
 20
13.74890512389737
 30
0.0
 11
341.1168430171533
 21
14.91216058197736
 31
0.0
  0
LINE
  5
240E
330
2329
100
AcDbEntity
  8
ﾀｲﾄﾙ枠
  6
Continuous
370
    40
100
AcDbLine
 10
341.8968430171533
 20
15.00576058197736
 30
0.0
 11
341.8968430171533
 21
16.6939541482177
 31
0.0
  0
LINE
  5
240F
330
2329
100
AcDbEntity
  8
ﾀｲﾄﾙ枠
  6
Continuous
370
    40
100
AcDbLine
 10
346.4668430171533
 20
18.5239541482177
 30
0.0
 11
346.4668430171533
 21
18.3739541482177
 31
0.0
  0
LINE
  5
2410
330
2329
100
AcDbEntity
  8
ﾀｲﾄﾙ枠
  6
Continuous
370
    40
100
AcDbLine
 10
344.9712490933716
 20
18.7839541482177
 30
0.0
 11
345.3249700236043
 21
17.6139541482177
 31
0.0
  0
LINE
  5
2411
330
2329
100
AcDbEntity
  8
ﾀｲﾄﾙ枠
  6
Continuous
370
    40
100
AcDbLine
 10
344.4173206618653
 20
17.6139541482177
 30
0.0
 11
344.0635997316326
 21
18.7839541482177
 31
0.0
  0
LINE
  5
2412
330
2329
100
AcDbEntity
  8
ﾀｲﾄﾙ枠
  6
Continuous
370
    40
100
AcDbLine
 10
344.0635997316326
 20
18.7839541482177
 30
0.0
 11
344.9712490933716
 21
18.7839541482177
 31
0.0
  0
LINE
  5
2413
330
2329
100
AcDbEntity
  8
ﾀｲﾄﾙ枠
  6
Continuous
370
    40
100
AcDbLine
 10
345.9268430171533
 20
18.3739541482177
 30
0.0
 11
345.9268430171533
 21
18.5239541482177
 31
0.0
  0
LINE
  5
2414
330
2329
100
AcDbEntity
  8
ﾀｲﾄﾙ枠
  6
Continuous
370
    40
100
AcDbLine
 10
343.8668430171533
 20
15.24216058197737
 30
0.0
 11
343.8668430171533
 21
14.29890512389737
 31
0.0
  0
LINE
  5
2415
330
2329
100
AcDbEntity
  8
ﾀｲﾄﾙ枠
  6
Continuous
370
    40
100
AcDbLine
 10
345.6024369409349
 20
13.6939541482177
 30
0.0
 11
344.423367173493
 21
17.5939541482177
 31
0.0
  0
LINE
  5
2416
330
2329
100
AcDbEntity
  8
ﾀｲﾄﾙ枠
  6
Continuous
370
    40
100
AcDbLine
 10
344.5842068402564
 20
18.56305842564579
 30
0.0
 11
345.9894791940501
 21
13.91484987078961
 31
0.0
  0
LINE
  5
2417
330
2329
100
AcDbEntity
  8
ﾀｲﾄﾙ枠
  6
Continuous
370
    40
100
AcDbLine
 10
344.8149768836054
 20
18.56305842564579
 30
0.0
 11
346.2202492373992
 21
13.91484987078961
 31
0.0
  0
LINE
  5
2418
330
2329
100
AcDbEntity
  8
ﾀｲﾄﾙ枠
  6
Continuous
370
    40
100
AcDbLine
 10
344.3534367969073
 20
18.56305842564579
 30
0.0
 11
345.758709150701
 21
13.91484987078961
 31
0.0
  0
LINE
  5
2419
330
2329
100
AcDbEntity
  8
ﾀｲﾄﾙ枠
  6
Continuous
370
    40
100
AcDbLine
 10
345.3310165352323
 20
17.5939541482177
 30
0.0
 11
346.5100863026739
 21
13.6939541482177
 31
0.0
  0
LINE
  5
241A
330
2329
100
AcDbEntity
  8
ﾀｲﾄﾙ枠
  6
Continuous
370
    40
100
AcDbLine
 10
346.5100863026739
 20
13.6939541482177
 30
0.0
 11
345.6024369409349
 21
13.6939541482177
 31
0.0
  0
LINE
  5
241B
330
2329
100
AcDbEntity
  8
ﾀｲﾄﾙ枠
  6
Continuous
370
    40
100
AcDbLine
 10
346.4668430171533
 20
18.3739541482177
 30
0.0
 11
345.9268430171533
 21
18.3739541482177
 31
0.0
  0
LINE
  5
241C
330
2329
100
AcDbEntity
  8
ﾀｲﾄﾙ枠
  6
Continuous
370
    40
100
AcDbLine
 10
345.9268430171533
 20
18.5239541482177
 30
0.0
 11
346.4668430171533
 21
18.5239541482177
 31
0.0
  0
LINE
  5
241D
330
2329
100
AcDbEntity
  8
ﾀｲﾄﾙ枠
  6
Continuous
370
    40
100
AcDbLine
 10
348.6168430171533
 20
16.90346264540503
 30
0.0
 11
348.6168430171533
 21
17.65227264683304
 31
0.0
  0
LINE
  5
241E
330
2329
100
AcDbEntity
  8
ﾀｲﾄﾙ枠
  6
Continuous
370
    40
100
AcDbLine
 10
349.6568430171532
 20
16.7489541482177
 30
0.0
 11
349.6568430171532
 21
16.6389541482177
 31
0.0
  0
LINE
  5
241F
330
2329
100
AcDbEntity
  8
ﾀｲﾄﾙ枠
  6
Continuous
370
    40
100
AcDbLine
 10
348.6168430171533
 20
17.65227264683304
 30
0.0
 11
350.641957282789
 21
18.7839541482177
 31
0.0
  0
LINE
  5
2420
330
2329
100
AcDbEntity
  8
ﾀｲﾄﾙ枠
  6
Continuous
370
    40
100
AcDbLine
 10
348.891535264341
 20
13.7039541482177
 30
0.0
 11
350.5302852643413
 21
15.7739541482177
 31
0.0
  0
LINE
  5
2421
330
2329
100
AcDbEntity
  8
ﾀｲﾄﾙ枠
  6
Continuous
370
    40
100
AcDbLine
 10
350.7471660174039
 20
15.60225688537637
 30
0.0
 11
349.4501763504866
 21
13.9639541482177
 31
0.0
  0
LINE
  5
2422
330
2329
100
AcDbEntity
  8
ﾀｲﾄﾙ枠
100
AcDbLine
 10
355.0
 20
22.23430648127306
 30
0.0
 11
355.0
 21
34.23430648127306
 31
0.0
  0
LINE
  5
2423
330
2329
100
AcDbEntity
  8
ﾀｲﾄﾙ枠
  6
Continuous
370
    40
100
AcDbLine
 10
358.7914401055489
 20
14.4739541482177
 30
0.0
 11
358.6361983585866
 21
14.4739541482177
 31
0.0
  0
LINE
  5
2424
330
2329
100
AcDbEntity
  8
ﾀｲﾄﾙ枠
  6
Continuous
370
    40
100
AcDbLine
 10
356.2136994888339
 20
14.4739541482177
 30
0.0
 11
356.3718133718422
 21
14.4739541482177
 31
0.0
  0
LINE
  5
2425
330
2329
100
AcDbEntity
  8
ﾀｲﾄﾙ枠
  6
Continuous
370
    40
100
AcDbLine
 10
356.6970328221672
 20
15.9239541482177
 30
0.0
 11
356.2136994888339
 21
14.4739541482177
 31
0.0
  0
LINE
  5
2426
330
2329
100
AcDbEntity
  8
ﾀｲﾄﾙ枠
  6
Continuous
370
    40
100
AcDbLine
 10
352.0717287515176
 20
18.7839541482177
 30
0.0
 11
354.0968430171533
 21
17.65227264683304
 31
0.0
  0
LINE
  5
2427
330
2329
100
AcDbEntity
  8
ﾀｲﾄﾙ枠
  6
Continuous
370
    40
100
AcDbLine
 10
354.0968430171533
 20
17.65227264683304
 30
0.0
 11
354.0968430171533
 21
16.90346264540503
 31
0.0
  0
LINE
  5
2428
330
2329
100
AcDbEntity
  8
ﾀｲﾄﾙ枠
  6
Continuous
370
    40
100
AcDbLine
 10
354.0968430171533
 20
16.90346264540503
 30
0.0
 11
351.3568430171533
 21
18.27346264540503
 31
0.0
  0
LINE
  5
2429
330
2329
100
AcDbEntity
  8
ﾀｲﾄﾙ枠
  6
Continuous
370
    40
100
AcDbLine
 10
351.1290160213502
 20
18.5339541482177
 30
0.0
 11
351.5846700129563
 21
18.5339541482177
 31
0.0
  0
LINE
  5
242A
330
2329
100
AcDbEntity
  8
ﾀｲﾄﾙ枠
  6
Continuous
370
    40
100
AcDbLine
 10
351.5846700129563
 20
18.5339541482177
 30
0.0
 11
353.8468430171533
 21
17.40286764611904
 31
0.0
  0
LINE
  5
242B
330
2329
100
AcDbEntity
  8
ﾀｲﾄﾙ枠
  6
Continuous
370
    40
100
AcDbLine
 10
353.0568430171533
 20
16.6389541482177
 30
0.0
 11
353.0568430171533
 21
16.7489541482177
 31
0.0
  0
LINE
  5
242C
330
2329
100
AcDbEntity
  8
ﾀｲﾄﾙ枠
  6
Continuous
370
    40
100
AcDbLine
 10
352.1834007699652
 20
15.7739541482177
 30
0.0
 11
353.8221507699653
 21
13.7039541482177
 31
0.0
  0
LINE
  5
242D
330
2329
100
AcDbEntity
  8
ﾀｲﾄﾙ枠
  6
Continuous
370
    40
100
AcDbLine
 10
351.4698685976743
 20
15.78395414821771
 30
0.0
 11
353.1165352643413
 21
13.7039541482177
 31
0.0
  0
LINE
  5
242E
330
2329
100
AcDbEntity
  8
ﾀｲﾄﾙ枠
  6
Continuous
370
    40
100
AcDbLine
 10
353.2635096838199
 20
13.9639541482177
 30
0.0
 11
351.9665200169026
 21
15.60225688537637
 31
0.0
  0
LINE
  5
242F
330
2329
100
AcDbEntity
  8
ﾀｲﾄﾙ枠
  6
Continuous
370
    40
100
AcDbLine
 10
358.4768430171533
 20
17.0839541482177
 30
0.0
 11
356.3768430171533
 21
17.0839541482177
 31
0.0
  0
LINE
  5
2430
330
2329
100
AcDbEntity
  8
ﾀｲﾄﾙ枠
  6
Continuous
370
    40
100
AcDbLine
 10
358.4047734388823
 20
15.9239541482177
 30
0.0
 11
357.9568430171533
 21
15.9239541482177
 31
0.0
  0
LINE
  5
2431
330
2329
100
AcDbEntity
  8
ﾀｲﾄﾙ枠
  6
Continuous
370
    40
100
AcDbLine
 10
357.1568430171532
 20
15.9239541482177
 30
0.0
 11
356.6970328221672
 21
15.9239541482177
 31
0.0
  0
LINE
  5
2432
330
2329
100
AcDbEntity
  8
ﾀｲﾄﾙ枠
  6
Continuous
370
    40
100
AcDbLine
 10
356.6368430171532
 20
18.7739541482177
 30
0.0
 11
358.3468430171533
 21
18.7739541482177
 31
0.0
  0
LINE
  5
2433
330
2329
100
AcDbEntity
  8
ﾀｲﾄﾙ枠
  6
Continuous
370
    40
100
AcDbLine
 10
357.1568430171532
 20
13.6939541482177
 30
0.0
 11
357.9568430171533
 21
13.6939541482177
 31
0.0
  0
LINE
  5
2434
330
2329
100
AcDbEntity
  8
ﾀｲﾄﾙ枠
  6
Continuous
370
    40
100
AcDbLine
 10
357.1568430171532
 20
17.0839541482177
 30
0.0
 11
357.1568430171532
 21
13.6939541482177
 31
0.0
  0
LINE
  5
2435
330
2329
100
AcDbEntity
  8
ﾀｲﾄﾙ枠
  6
Continuous
370
    40
100
AcDbLine
 10
357.9568430171533
 20
13.6939541482177
 30
0.0
 11
357.9568430171533
 21
17.0839541482177
 31
0.0
  0
LINE
  5
2436
330
2329
100
AcDbEntity
  8
ﾀｲﾄﾙ枠
  6
Continuous
370
    40
100
AcDbLine
 10
357.5568430171533
 20
16.8339541482177
 30
0.0
 11
357.5568430171533
 21
13.9439541482177
 31
0.0
  0
LINE
  5
2437
330
2329
100
AcDbEntity
  8
ﾀｲﾄﾙ枠
  6
Continuous
370
    40
100
AcDbLine
 10
356.3718133718422
 20
14.4739541482177
 30
0.0
 11
356.8551467051756
 21
15.9239541482177
 31
0.0
  0
LINE
  5
2438
330
2329
100
AcDbEntity
  8
ﾀｲﾄﾙ枠
  6
Continuous
370
    40
100
AcDbLine
 10
357.7568430171532
 20
16.8339541482177
 30
0.0
 11
357.7568430171532
 21
13.9439541482177
 31
0.0
  0
LINE
  5
2439
330
2329
100
AcDbEntity
  8
ﾀｲﾄﾙ枠
  6
Continuous
370
    40
100
AcDbLine
 10
357.3568430171533
 20
16.8339541482177
 30
0.0
 11
357.3568430171533
 21
13.9439541482177
 31
0.0
  0
LINE
  5
243A
330
2329
100
AcDbEntity
  8
ﾀｲﾄﾙ枠
  6
Continuous
370
    40
100
AcDbLine
 10
358.6361983585866
 20
14.4739541482177
 30
0.0
 11
358.2495316919196
 21
15.9239541482177
 31
0.0
  0
LINE
  5
243B
330
2329
100
AcDbEntity
  8
ﾀｲﾄﾙ枠
  6
Continuous
370
    40
100
AcDbLine
 10
358.4047734388823
 20
15.9239541482177
 30
0.0
 11
358.7914401055489
 21
14.4739541482177
 31
0.0
  0
LINE
  5
243C
330
2329
100
AcDbEntity
  8
ﾀｲﾄﾙ枠
  6
Continuous
370
    40
100
AcDbLine
 10
359.8868430171533
 20
18.7839541482177
 30
0.0
 11
360.8168430171533
 21
18.7839541482177
 31
0.0
  0
LINE
  5
243D
330
2329
100
AcDbEntity
  8
ﾀｲﾄﾙ枠
  6
Continuous
370
    40
100
AcDbLine
 10
359.3668430171533
 20
17.0839541482177
 30
0.0
 11
361.7268430171533
 21
17.0839541482177
 31
0.0
  0
LINE
  5
243E
330
2329
100
AcDbEntity
  8
ﾀｲﾄﾙ枠
  6
Continuous
370
    40
100
AcDbLine
 10
361.8568430171533
 20
13.6389541482177
 30
0.0
 11
359.2368430171533
 21
13.6389541482177
 31
0.0
  0
LINE
  5
243F
330
2329
100
AcDbEntity
  8
ﾀｲﾄﾙ枠
  6
Continuous
370
    40
100
AcDbLine
 10
359.8868430171533
 20
13.6389541482177
 30
0.0
 11
359.8868430171533
 21
18.7839541482177
 31
0.0
  0
LINE
  5
2440
330
2329
100
AcDbEntity
  8
ﾀｲﾄﾙ枠
  6
Continuous
370
    40
100
AcDbLine
 10
360.8168430171533
 20
18.7839541482177
 30
0.0
 11
360.8168430171533
 21
13.6389541482177
 31
0.0
  0
LINE
  5
2441
330
2329
100
AcDbEntity
  8
ﾀｲﾄﾙ枠
  6
Continuous
370
    40
100
AcDbLine
 10
360.3518430171533
 20
13.8889541482177
 30
0.0
 11
360.3518430171533
 21
18.5339541482177
 31
0.0
  0
LINE
  5
2442
330
2329
100
AcDbEntity
  8
ﾀｲﾄﾙ枠
  6
Continuous
370
    40
100
AcDbLine
 10
360.5518430171533
 20
13.8889541482177
 30
0.0
 11
360.5518430171533
 21
18.5339541482177
 31
0.0
  0
LINE
  5
2443
330
2329
100
AcDbEntity
  8
ﾀｲﾄﾙ枠
  6
Continuous
370
    40
100
AcDbLine
 10
360.1518430171533
 20
13.8889541482177
 30
0.0
 11
360.1518430171533
 21
18.5339541482177
 31
0.0
  0
TEXT
  5
2444
330
2329
100
AcDbEntity
  8
0
370
    30
100
AcDbText
 10
408.0
 20
14.11715324063652
 30
0.0
 40
4.0
  1
AA-000000
  7
MSP明朝W1
 11
408.0
 21
16.11715324063652
 31
0.0
100
AcDbText
 73
     2
  0
MTEXT
  5
2445
330
2329
100
AcDbEntity
  8
ﾀｲﾄﾙ枠
 62
     7
100
AcDbMText
 10
427.1638740951223
 20
49.28490200109685
 30
0.0
 40
2.5
 41
12.0
 71
     1
 72
     5
  1
{\fＭＳ Ｐ明朝|b0|i0|c128|p18;写　図}
 73
     1
 44
1.0
1001
ACAD
1000
MTEXTBEGIN
1070
    73
1070
     1
1070
    44
1040
1.0
1070
    74
1070
     0
1000
MTEXTEND
  0
LINE
  5
2446
330
2329
100
AcDbEntity
  8
ﾀｲﾄﾙ枠
100
AcDbLine
 10
378.0
 20
28.23430648127306
 30
0.0
 11
438.0
 21
28.23430648127306
 31
0.0
  0
LINE
  5
2447
330
2329
100
AcDbEntity
  8
ﾀｲﾄﾙ枠
100
AcDbLine
 10
378.0
 20
45.23430648127305
 30
0.0
 11
438.0
 21
45.23430648127305
 31
0.0
  0
LINE
  5
2448
330
2329
100
AcDbEntity
  8
ﾀｲﾄﾙ枠
100
AcDbLine
 10
378.0
 20
10.23430648127305
 30
0.0
 11
378.0
 21
50.23430648127305
 31
0.0
  0
MTEXT
  5
2449
330
2329
100
AcDbEntity
  8
ﾀｲﾄﾙ枠
370
    30
100
AcDbMText
 10
402.8581436041745
 20
20.69086127879382
 30
0.0
 40
2.0
 41
4.799999999999999
 71
     1
 72
     5
  1
{\fＭＳ Ｐ明朝|b0|i0|c128|p18;図\P\P番}
  7
TYPE1
 73
     1
 44
1.0
1001
ACAD
1000
MTEXTBEGIN
1070
    73
1070
     1
1070
    44
1040
1.0
1070
    74
1070
     0
1000
MTEXTEND
  0
LINE
  5
244A
330
2329
100
AcDbEntity
  8
ﾀｲﾄﾙ枠
100
AcDbLine
 10
402.0
 20
10.23430648127305
 30
0.0
 11
402.0
 21
22.23430648127306
 31
0.0
  0
TEXT
  5
244B
330
2329
100
AcDbEntity
  8
0
100
AcDbText
 10
397.0
 20
23.73430648127305
 30
0.0
 40
3.0
  1
2001
  7
MSP明朝W1
 11
397.0
 21
25.23430648127305
 31
0.0
100
AcDbText
 73
     2
  0
TEXT
  5
244C
330
2329
100
AcDbEntity
  8
0
100
AcDbText
 10
381.0
 20
23.73430648127305
 30
0.0
 40
3.0
  1
作成日　　　　　年　　月　　日
  7
MSP明朝W1
 11
381.0
 21
25.23430648127305
 31
0.0
100
AcDbText
 73
     2
  0
MTEXT
  5
244D
330
2329
100
AcDbEntity
  8
ﾀｲﾄﾙ枠
 62
     7
100
AcDbMText
 10
391.507132442457
 20
49.45639605900431
 30
0.0
 40
2.5
 41
12.0
 71
     1
 72
     5
  1
{\fＭＳ Ｐ明朝|b0|i0|c128|p18;検　図}
 73
     1
 44
1.0
1001
ACAD
1000
MTEXTBEGIN
1070
    73
1070
     1
1070
    44
1040
1.0
1070
    74
1070
     0
1000
MTEXTEND
  0
LINE
  5
244E
330
2329
100
AcDbEntity
  8
ﾀｲﾄﾙ枠
100
AcDbLine
 10
378.0
 20
16.23430648127305
 30
0.0
 11
402.0
 21
16.23430648127305
 31
0.0
  0
TEXT
  5
244F
330
2329
100
AcDbEntity
  8
0
100
AcDbText
 10
393.9101123595505
 20
42.48711547003707
 30
0.0
 40
4.0
  1
富井
 50
270.0
  7
明朝TATE
 72
     4
 11
396.0
 21
36.73430648127303
 31
0.0
100
AcDbText
  0
LINE
  5
2450
330
2329
100
AcDbEntity
  8
ﾀｲﾄﾙ枠
100
AcDbLine
 10
390.0
 20
28.23430648127306
 30
0.0
 11
390.0
 21
50.23430648127305
 31
0.0
  0
MTEXT
  5
2451
330
2329
100
AcDbEntity
  8
ﾀｲﾄﾙ枠
 62
     7
100
AcDbMText
 10
379.8879175140975
 20
49.37683685107971
 30
0.0
 40
2.5
 41
12.0
 71
     1
 72
     5
  1
{\fＭＳ Ｐ明朝|b0|i0|c128|p18;承　認}
 73
     1
 44
1.0
1001
ACAD
1000
MTEXTBEGIN
1070
    73
1070
     1
1070
    44
1040
1.0
1070
    74
1070
     0
1000
MTEXTEND
  0
TEXT
  5
2452
330
2329
100
AcDbEntity
  8
0
100
AcDbText
 10
417.8876404494381
 20
42.48711547003707
 30
0.0
 40
4.0
  1
鍵山
 50
270.0
  7
明朝TATE
 72
     4
 11
420.0
 21
36.73430648127303
 31
0.0
100
AcDbText
  0
LINE
  5
2453
330
2329
100
AcDbEntity
  8
ﾀｲﾄﾙ枠
100
AcDbLine
 10
426.0
 20
28.23430648127306
 30
0.0
 11
426.0
 21
50.23430648127305
 31
0.0
  0
LINE
  5
2454
330
2329
100
AcDbEntity
  8
ﾀｲﾄﾙ枠
100
AcDbLine
 10
414.0
 20
28.23430648127306
 30
0.0
 11
414.0
 21
50.23430648127305
 31
0.0
  0
LINE
  5
2455
330
2329
100
AcDbEntity
  8
ﾀｲﾄﾙ枠
100
AcDbLine
 10
402.0
 20
28.23430648127306
 30
0.0
 11
402.0
 21
50.23430648127305
 31
0.0
  0
TEXT
  5
2456
330
2329
100
AcDbEntity
  8
0
100
AcDbText
 10
414.0
 20
23.73430648127305
 30
0.0
 40
3.0
  1
04
  7
MSP明朝W1
 11
414.0
 21
25.23430648127305
 31
0.0
100
AcDbText
 73
     2
  0
TEXT
  5
2457
330
2329
100
AcDbEntity
  8
0
100
AcDbText
 10
424.0
 20
23.73430648127305
 30
0.0
 40
3.0
  1
06
  7
MSP明朝W1
 11
424.0
 21
25.23430648127305
 31
0.0
100
AcDbText
 73
     2
  0
MTEXT
  5
2458
330
2329
100
AcDbEntity
  8
ﾀｲﾄﾙ枠
 62
     7
100
AcDbMText
 10
416.1936457408828
 20
49.4563967183483
 30
0.0
 40
2.5
 41
12.0
 71
     1
 72
     5
  1
{\fＭＳ Ｐ明朝|b0|i0|c128|p18;製　図}
 73
     1
 44
1.0
1001
ACAD
1000
MTEXTBEGIN
1070
    73
1070
     1
1070
    44
1040
1.0
1070
    74
1070
     0
1000
MTEXTEND
  0
MTEXT
  5
2459
330
2329
100
AcDbEntity
  8
ﾀｲﾄﾙ枠
 62
     7
100
AcDbMText
 10
402.9538667992062
 20
49.28165466311215
 30
0.0
 40
2.5
 41
12.0
 71
     1
 72
     5
  1
{\fＭＳ Ｐ明朝|b0|i0|c128|p18;担　当}
 73
     1
 44
1.0
1001
ACAD
1000
MTEXTBEGIN
1070
    73
1070
     1
1070
    44
1040
1.0
1070
    74
1070
     0
1000
MTEXTEND
  0
LINE
  5
245A
330
2329
100
AcDbEntity
  8
ﾀｲﾄﾙ枠
100
AcDbLine
 10
438.0
 20
270.0
 30
0.0
 11
348.0
 21
270.0
 31
0.0
  0
LINE
  5
245B
330
2329
100
AcDbEntity
  8
ﾀｲﾄﾙ枠
100
AcDbLine
 10
438.0
 20
275.0
 30
0.0
 11
348.0
 21
275.0
 31
0.0
  0
LINE
  5
245C
330
2329
100
AcDbEntity
  8
ﾀｲﾄﾙ枠
100
AcDbLine
 10
438.0
 20
280.0
 30
0.0
 11
348.0
 21
280.0
 31
0.0
  0
LINE
  5
245D
330
2329
100
AcDbEntity
  8
ﾀｲﾄﾙ枠
100
AcDbLine
 10
438.0
 20
285.0
 30
0.0
 11
348.0
 21
285.0
 31
0.0
  0
LINE
  5
245E
330
2329
100
AcDbEntity
  8
ﾀｲﾄﾙ枠
100
AcDbLine
 10
438.0
 20
290.0
 30
0.0
 11
348.0
 21
290.0
 31
0.0
  0
TEXT
  5
245F
330
2329
100
AcDbEntity
  8
0
100
AcDbText
 10
360.7106741573033
 20
286.2289325842696
 30
0.0
 40
2.5
  1
日　付
  7
MSP明朝W1
 72
     4
 11
365.5
 21
287.5
 31
0.0
100
AcDbText
  0
LINE
  5
2460
330
2329
100
AcDbEntity
  8
ﾀｲﾄﾙ枠
100
AcDbLine
 10
348.0
 20
270.0
 30
0.0
 11
348.0
 21
290.0
 31
0.0
  0
LINE
  5
2461
330
2329
100
AcDbEntity
  8
ﾀｲﾄﾙ枠
100
AcDbLine
 10
358.0
 20
270.0
 30
0.0
 11
358.0
 21
290.0
 31
0.0
  0
TEXT
  5
2462
330
2329
100
AcDbEntity
  8
0
100
AcDbText
 10
352.2808988764044
 20
271.2074525992509
 30
0.0
 40
2.0
  1
3
  7
MSP明朝W1
 72
     4
 11
353.0
 21
272.1905986666666
 31
0.0
100
AcDbText
  0
TEXT
  5
2463
330
2329
100
AcDbEntity
  8
0
100
AcDbText
 10
352.2808988764044
 20
276.2186885543071
 30
0.0
 40
2.0
  1
2
  7
MSP明朝W1
 72
     4
 11
353.0
 21
277.1905986666666
 31
0.0
100
AcDbText
  0
LINE
  5
2464
330
2329
100
AcDbEntity
  8
ﾀｲﾄﾙ枠
370
    20
100
AcDbLine
 10
351.0
 20
276.0358979999999
 30
0.0
 11
355.0
 21
276.0358979999999
 31
0.0
  0
LINE
  5
2465
330
2329
100
AcDbEntity
  8
ﾀｲﾄﾙ枠
370
    20
100
AcDbLine
 10
351.0
 20
276.0358979999999
 30
0.0
 11
353.0
 21
279.4999999999999
 31
0.0
  0
LINE
  5
2466
330
2329
100
AcDbEntity
  8
ﾀｲﾄﾙ枠
370
    20
100
AcDbLine
 10
355.0
 20
276.0358979999999
 30
0.0
 11
353.0
 21
279.4999999999999
 31
0.0
  0
LINE
  5
2467
330
2329
100
AcDbEntity
  8
ﾀｲﾄﾙ枠
370
    20
100
AcDbLine
 10
351.0
 20
271.0358979999999
 30
0.0
 11
355.0
 21
271.0358979999999
 31
0.0
  0
LINE
  5
2468
330
2329
100
AcDbEntity
  8
ﾀｲﾄﾙ枠
370
    20
100
AcDbLine
 10
351.0
 20
271.0358979999999
 30
0.0
 11
353.0
 21
274.5
 31
0.0
  0
LINE
  5
2469
330
2329
100
AcDbEntity
  8
ﾀｲﾄﾙ枠
370
    20
100
AcDbLine
 10
355.0
 20
271.0358979999999
 30
0.0
 11
353.0
 21
274.5
 31
0.0
  0
LINE
  5
246A
330
2329
100
AcDbEntity
  8
ﾀｲﾄﾙ枠
100
AcDbLine
 10
362.5
 20
277.4999999999999
 30
0.0
 11
363.5
 21
277.4999999999999
 31
0.0
  0
LINE
  5
246B
330
2329
100
AcDbEntity
  8
ﾀｲﾄﾙ枠
100
AcDbLine
 10
362.5
 20
272.5
 30
0.0
 11
363.5
 21
272.5
 31
0.0
  0
TEXT
  5
246C
330
2329
100
AcDbEntity
  8
0
100
AcDbText
 10
352.2808988764044
 20
281.2130705767789
 30
0.0
 40
2.0
  1
1
  7
MSP明朝W1
 72
     4
 11
353.0
 21
282.1905986666666
 31
0.0
100
AcDbText
  0
TEXT
  5
246D
330
2329
100
AcDbEntity
  8
0
100
AcDbText
 10
351.2022471910112
 20
286.25702247191
 30
0.0
 40
2.5
  1
№
  7
MSP明朝W1
 72
     4
 11
353.0
 21
287.5
 31
0.0
100
AcDbText
  0
LINE
  5
246E
330
2329
100
AcDbEntity
  8
ﾀｲﾄﾙ枠
370
    20
100
AcDbLine
 10
351.0
 20
281.0358979999999
 30
0.0
 11
355.0
 21
281.0358979999999
 31
0.0
  0
LINE
  5
246F
330
2329
100
AcDbEntity
  8
ﾀｲﾄﾙ枠
370
    20
100
AcDbLine
 10
355.0
 20
281.0358979999999
 30
0.0
 11
353.0
 21
284.5
 31
0.0
  0
LINE
  5
2470
330
2329
100
AcDbEntity
  8
ﾀｲﾄﾙ枠
370
    20
100
AcDbLine
 10
351.0
 20
281.0358979999999
 30
0.0
 11
353.0
 21
284.5
 31
0.0
  0
TEXT
  5
2471
330
2329
100
AcDbEntity
  8
0
100
AcDbText
 10
365.3354287158817
 20
282.0220593408239
 30
0.0
 40
2.0
  1
.
  7
MSP明朝W1
 72
     4
 11
365.7736309630727
 21
282.1905986666666
 31
0.0
100
AcDbText
  0
TEXT
  5
2472
330
2329
100
AcDbEntity
  8
0
100
AcDbText
 10
360.4523443278109
 20
282.0220593408239
 30
0.0
 40
2.0
  1
.
  7
MSP明朝W1
 72
     4
 11
360.8905465750019
 21
282.1905986666666
 31
0.0
100
AcDbText
  0
LINE
  5
2473
330
2329
100
AcDbEntity
  8
ﾀｲﾄﾙ枠
100
AcDbLine
 10
362.5
 20
282.5
 30
0.0
 11
363.5
 21
282.5
 31
0.0
  0
TEXT
  5
2474
330
2329
100
AcDbEntity
  8
0
100
AcDbText
 10
432.5617977528089
 20
282.3314606741573
 30
0.0
 40
2.0
  1
.
  7
MSP明朝W1
 72
     4
 11
433.0
 21
282.5
 31
0.0
100
AcDbText
  0
TEXT
  5
2475
330
2329
100
AcDbEntity
  8
0
100
AcDbText
 10
429.4044943820224
 20
286.2078651685393
 30
0.0
 40
2.5
  1
担当
  7
MSP明朝W1
 72
     4
 11
433.0
 21
287.5
 31
0.0
100
AcDbText
  0
TEXT
  5
2476
330
2329
100
AcDbEntity
  8
0
100
AcDbText
 10
393.3089887640449
 20
286.2219101123595
 30
0.0
 40
2.5
  1
改訂内容
  7
MSP明朝W1
 72
     4
 11
400.4999999999999
 21
287.5
 31
0.0
100
AcDbText
  0
LINE
  5
2477
330
2329
100
AcDbEntity
  8
ﾀｲﾄﾙ枠
100
AcDbLine
 10
373.0
 20
270.0
 30
0.0
 11
373.0
 21
290.0
 31
0.0
  0
LINE
  5
2478
330
2329
100
AcDbEntity
  8
ﾀｲﾄﾙ枠
100
AcDbLine
 10
373.0
 20
270.0
 30
0.0
 11
373.0
 21
290.0
 31
0.0
  0
LINE
  5
2479
330
2329
100
AcDbEntity
  8
ﾀｲﾄﾙ枠
100
AcDbLine
 10
367.5
 20
277.4999999999999
 30
0.0
 11
368.5
 21
277.4999999999999
 31
0.0
  0
LINE
  5
247A
330
2329
100
AcDbEntity
  8
ﾀｲﾄﾙ枠
100
AcDbLine
 10
367.5
 20
272.5
 30
0.0
 11
368.5
 21
272.5
 31
0.0
  0
TEXT
  5
247B
330
2329
100
AcDbEntity
  8
0
100
AcDbText
 10
370.0568212265226
 20
282.0220593408239
 30
0.0
 40
2.0
  1
.
  7
MSP明朝W1
 72
     4
 11
370.4950234737136
 21
282.1905986666666
 31
0.0
100
AcDbText
  0
LINE
  5
247C
330
2329
100
AcDbEntity
  8
ﾀｲﾄﾙ枠
100
AcDbLine
 10
367.5
 20
282.5
 30
0.0
 11
368.5
 21
282.5
 31
0.0
  0
LINE
  5
247D
330
2329
100
AcDbEntity
  8
ﾀｲﾄﾙ枠
100
AcDbLine
 10
428.0
 20
270.0
 30
0.0
 11
428.0
 21
290.0
 31
0.0
  0
ENDBLK
  5
247F
330
2329
100
AcDbEntity
  8
0
100
AcDbBlockEnd
  0
ENDSEC
  0
SECTION
  2
ENTITIES
  0
MTEXT
  5
1422
330
18
100
AcDbEntity
  8
0
 62
     3
100
AcDbMText
 10
2255.387085609579
 20
2104.565198799706
 30
0.0
 40
2.5
 41
0.0
 71
     6
 72
     1
  1
 
  7
TYPE1
 73
     1
 44
1.0
  0
MTEXT
  5
1426
330
18
100
AcDbEntity
  8
0
 62
     3
100
AcDbMText
 10
2283.286084648451
 20
2105.815198799706
 30
0.0
 40
2.5
 41
0.0
 71
     4
 72
     1
  1
 
  7
TYPE1
 73
     1
 44
1.0
  0
MTEXT
  5
1B6A
330
18
100
AcDbEntity
  8
0
 62
     3
100
AcDbMText
 10
2255.387085609579
 20
2104.565198799706
 30
0.0
 40
2.5
 41
0.0
 71
     6
 72
     1
  1
 
  7
TYPE1
 73
     1
 44
1.0
  0
MTEXT
  5
1B6B
330
18
100
AcDbEntity
  8
0
 62
     3
100
AcDbMText
 10
2283.286084648451
 20
2105.815198799706
 30
0.0
 40
2.5
 41
0.0
 71
     4
 72
     1
  1
 
  7
TYPE1
 73
     1
 44
1.0
  0
MTEXT
  5
1B76
330
18
100
AcDbEntity
  8
0
 62
     3
100
AcDbMText
 10
2289.603684719001
 20
2105.815198799706
 30
0.0
 40
2.5
 41
0.0
 71
     4
 72
     1
  1
 
  7
TYPE1
 73
     1
 44
1.0
  0
LINE
  5
2062
330
18
100
AcDbEntity
  8
0
100
AcDbLine
 10
1211.890641387371
 20
1481.691266540527
 30
0.0
 11
1211.890641387371
 21
1966.691266540527
 31
0.0
  0
LINE
  5
2063
330
18
100
AcDbEntity
  8
0
 62
     3
100
AcDbLine
 10
2338.499403810336
 20
1936.691266540527
 30
0.0
 11
2353.236609394048
 21
1991.691266540527
 31
0.0
  0
MTEXT
  5
2064
330
18
100
AcDbEntity
  8
0
 62
     3
100
AcDbMText
 10
2026.280695250808
 20
235.038877818257
 30
0.0
 40
2.5
 41
0.0
 71
     6
 72
     1
  1
 
  7
TYPE1
 73
     1
 44
1.0
  0
MTEXT
  5
2065
330
18
100
AcDbEntity
  8
0
 62
     3
100
AcDbMText
 10
2054.179694289679
 20
236.2888778182571
 30
0.0
 40
2.5
 41
0.0
 71
     4
 72
     1
  1
 
  7
TYPE1
 73
     1
 44
1.0
  0
LINE
  5
2066
330
18
100
AcDbEntity
  8
0
 62
     3
100
AcDbLine
 10
2348.852165614437
 20
1936.691266540527
 30
0.0
 11
2363.589371198148
 21
1991.691266540527
 31
0.0
  0
LINE
  5
2067
330
18
100
AcDbEntity
  8
0
100
AcDbLine
 10
1211.890641387371
 20
1966.691266540527
 30
0.0
 11
2346.53787958327
 21
1966.691266540527
 31
0.0
  0
MTEXT
  5
2068
330
18
100
AcDbEntity
  8
sunpo
100
AcDbMText
 10
1961.585676121568
 20
2011.906839489517
 30
0.0
 40
20.0
 41
0.0
 71
     6
 72
     1
  1
\A1;A
  7
MSP明朝W1
 73
     1
 44
1.0
  0
MTEXT
  5
2069
330
18
100
AcDbEntity
  8
sunpo
100
AcDbMText
 10
3541.382145260719
 20
2025.72908802441
 30
0.0
 40
20.0
 41
0.0
 71
     4
 72
     1
  1
2-R35
  7
MSP明朝W1
 73
     1
 44
1.0
  0
LINE
  5
206A
330
18
100
AcDbEntity
  8
0
100
AcDbLine
 10
3501.890641387371
 20
1516.691266540527
 30
0.0
 11
3501.890641387371
 21
1931.691266540527
 31
0.0
  0
LINE
  5
206B
330
18
100
AcDbEntity
  8
0
100
AcDbLine
 10
1211.890641387371
 20
1481.691266540527
 30
0.0
 11
2346.537879583269
 21
1481.691266540527
 31
0.0
  0
ARC
  5
206C
330
18
100
AcDbEntity
  8
0
100
AcDbCircle
 10
3466.890641387371
 20
1931.691266540527
 30
0.0
 40
35.0
100
AcDbArc
 50
0.0
 51
90.0
  0
ARC
  5
206D
330
18
100
AcDbEntity
  8
0
100
AcDbCircle
 10
3466.890641387371
 20
1516.691266540527
 30
0.0
 40
35.0
100
AcDbArc
 50
270.0
 51
0.0000000000000382
  0
LINE
  5
206E
330
18
100
AcDbEntity
  8
0
 62
     3
100
AcDbLine
 10
2339.839149772491
 20
1456.691266540527
 30
0.0
 11
2354.576355356203
 21
1511.691266540527
 31
0.0
  0
LINE
  5
206F
330
18
100
AcDbEntity
  8
0
 62
     3
100
AcDbLine
 10
2350.191911576592
 20
1456.691266540527
 30
0.0
 11
2364.929117160304
 21
1511.691266540527
 31
0.0
  0
LINE
  5
2070
330
18
100
AcDbEntity
  8
sen-h
100
AcDbLine
 10
1211.890641387371
 20
1961.691266540527
 30
0.0
 11
2345.198133621114
 21
1961.691266540527
 31
0.0
  0
LINE
  5
2071
330
18
100
AcDbEntity
  8
sen-h
100
AcDbLine
 10
3496.89064138737
 20
1516.691266540527
 30
0.0
 11
3496.89064138737
 21
1931.691266540527
 31
0.0
  0
LINE
  5
2072
330
18
100
AcDbEntity
  8
sen-h
100
AcDbLine
 10
1211.890641387371
 20
1486.691266540527
 30
0.0
 11
2347.877625545425
 21
1486.691266540527
 31
0.0
  0
ARC
  5
2073
330
18
100
AcDbEntity
  8
sen-h
100
AcDbCircle
 10
3466.890641387371
 20
1931.691266540527
 30
0.0
 40
30.0
100
AcDbArc
 50
0.0
 51
90.0
  0
ARC
  5
2074
330
18
100
AcDbEntity
  8
sen-h
100
AcDbCircle
 10
3466.890641387371
 20
1516.691266540527
 30
0.0
 40
30.0
100
AcDbArc
 50
270.0
 51
0.0000000000000382
  0
LINE
  5
2075
330
18
100
AcDbEntity
  8
0
100
AcDbLine
 10
2356.890641387371
 20
1966.691266540527
 30
0.0
 11
3466.890641387371
 21
1966.691266540527
 31
0.0
  0
LINE
  5
2076
330
18
100
AcDbEntity
  8
sen-h
100
AcDbLine
 10
2355.550895425215
 20
1961.691266540527
 30
0.0
 11
3466.890641387371
 21
1961.691266540527
 31
0.0
  0
LINE
  5
2077
330
18
100
AcDbEntity
  8
sen-h
100
AcDbLine
 10
2358.230387349526
 20
1486.691266540527
 30
0.0
 11
3466.890641387371
 21
1486.691266540527
 31
0.0
  0
LINE
  5
2078
330
18
100
AcDbEntity
  8
0
100
AcDbLine
 10
2356.890641387371
 20
1481.691266540527
 30
0.0
 11
3466.890641387371
 21
1481.691266540527
 31
0.0
  0
LINE
  5
2079
330
18
100
AcDbEntity
  8
sunpo
100
AcDbLine
 10
1905.804477233063
 20
2016.691266540527
 30
0.0
 11
1905.804477233063
 21
1431.691266540527
 31
0.0
  0
LINE
  5
207A
330
18
100
AcDbEntity
  8
sunpo
100
AcDbLine
 10
1905.804477233063
 20
1997.762433768403
 30
0.0
 11
1971.48018438172
 21
1997.762433768403
 31
0.0
  0
LINE
  5
207B
330
18
100
AcDbEntity
  8
sunpo
100
AcDbLine
 10
1905.804477233063
 20
1997.762433768403
 30
0.0
 11
1933.324751463402
 21
2006.360168649594
 31
0.0
  0
LINE
  5
207C
330
18
100
AcDbEntity
  8
sunpo
100
AcDbLine
 10
1933.324751463402
 20
2006.360168649594
 30
0.0
 11
1933.324751463402
 21
1992.155217772869
 31
0.0
  0
MTEXT
  5
207D
330
18
100
AcDbEntity
  8
sunpo
100
AcDbMText
 10
1961.585676121568
 20
1458.903447048314
 30
0.0
 40
20.0
 41
0.0
 71
     6
 72
     1
  1
\A1;A
  7
MSP明朝W1
 73
     1
 44
1.0
  0
LINE
  5
207E
330
18
100
AcDbEntity
  8
sunpo
100
AcDbLine
 10
1905.804477233063
 20
1444.7590413272
 30
0.0
 11
1971.48018438172
 21
1444.7590413272
 31
0.0
  0
LINE
  5
207F
330
18
100
AcDbEntity
  8
sunpo
100
AcDbLine
 10
1905.804477233063
 20
1444.7590413272
 30
0.0
 11
1933.324751463402
 21
1453.35677620839
 31
0.0
  0
LINE
  5
2080
330
18
100
AcDbEntity
  8
sunpo
100
AcDbLine
 10
1933.324751463402
 20
1453.35677620839
 30
0.0
 11
1933.324751463402
 21
1439.151825331665
 31
0.0
  0
DIMENSION
  5
2081
330
18
100
AcDbEntity
  8
sunpo
100
AcDbDimension
  2
*D1
 10
1131.890641387371
 20
1481.691266540527
 30
0.0
 11
1113.890641387371
 21
1724.191266540527
 31
0.0
 70
    32
 71
     5
 42
485.0
  3
MSP明朝寸法1
100
AcDbAlignedDimension
 13
1211.890641387371
 23
1966.691266540527
 33
0.0
 14
1211.890641387371
 24
1481.691266540527
 34
0.0
 50
90.0
100
AcDbRotatedDimension
1001
ACAD
1000
DSTYLE
1002
{
1070
    40
1040
8.0
1002
}
  0
DIMENSION
  5
2082
330
18
100
AcDbEntity
  8
sunpo
100
AcDbDimension
  2
*D2
 10
1211.890641387371
 20
1381.691266540527
 30
0.0
 11
2356.890641387371
 21
1399.691266540527
 31
0.0
 70
    32
  1
2750
 71
     5
 42
2289.999999999999
  3
MSP明朝寸法1
100
AcDbAlignedDimension
 13
3501.890641387371
 23
1516.691266540527
 33
0.0
 14
1211.890641387371
 24
1481.691266540527
 34
0.0
100
AcDbRotatedDimension
1001
ACAD
1000
DSTYLE
1002
{
1070
    40
1040
8.0
1002
}
  0
LINE
  5
2083
330
18
100
AcDbEntity
  8
sunpo
100
AcDbLine
 10
3386.190633210992
 20
1724.191266540527
 30
0.0
 11
3596.985104778783
 21
1724.191266540527
 31
0.0
  0
MTEXT
  5
2084
330
18
100
AcDbEntity
  8
sunpo
100
AcDbMText
 10
3589.573208358932
 20
1668.410067652021
 30
0.0
 40
20.0
 41
0.0
 71
     6
 72
     1
  1
B
  7
MSP明朝W1
 11
-0.0000000000000002
 21
-1.0
 31
0.0
 73
     1
 44
1.0
  0
LINE
  5
2085
330
18
100
AcDbEntity
  8
sunpo
100
AcDbLine
 10
3575.428802637818
 20
1724.191266540527
 30
0.0
 11
3575.428802637818
 21
1658.51555939187
 31
0.0
  0
LINE
  5
2086
330
18
100
AcDbEntity
  8
sunpo
100
AcDbLine
 10
3575.428802637818
 20
1724.191266540527
 30
0.0
 11
3584.026537519008
 21
1696.670992310188
 31
0.0
  0
LINE
  5
2087
330
18
100
AcDbEntity
  8
sunpo
100
AcDbLine
 10
3584.026537519008
 20
1696.670992310188
 30
0.0
 11
3569.821586642283
 21
1696.670992310188
 31
0.0
  0
MTEXT
  5
2088
330
18
100
AcDbEntity
  8
sunpo
100
AcDbMText
 10
3412.628270216351
 20
1668.410067652021
 30
0.0
 40
20.0
 41
0.0
 71
     6
 72
     1
  1
B
  7
MSP明朝W1
 11
-0.0000000000000002
 21
-1.0
 31
0.0
 73
     1
 44
1.0
  0
LINE
  5
2089
330
18
100
AcDbEntity
  8
sunpo
100
AcDbLine
 10
3398.483864495237
 20
1724.191266540527
 30
0.0
 11
3398.483864495237
 21
1658.51555939187
 31
0.0
  0
LINE
  5
208A
330
18
100
AcDbEntity
  8
sunpo
100
AcDbLine
 10
3398.483864495237
 20
1724.191266540527
 30
0.0
 11
3407.081599376428
 21
1696.670992310188
 31
0.0
  0
LINE
  5
208B
330
18
100
AcDbEntity
  8
sunpo
100
AcDbLine
 10
3407.081599376428
 20
1696.670992310188
 30
0.0
 11
3392.876648499703
 21
1696.670992310188
 31
0.0
  0
LEADER
  5
208C
330
18
100
AcDbEntity
  8
sunpo
100
AcDbLeader
  3
TEST01
 76
     2
 10
3490.88735675896
 20
1956.864136655132
 30
0.0
 10
3533.562260041994
 20
2006.617139570432
 30
0.0
1001
ACAD
1000
DSTYLE
1002
{
1070
    40
1040
8.0
1002
}
  0
LINE
  5
208D
330
18
100
AcDbEntity
  8
sunpo
100
AcDbLine
 10
3533.562260041994
 20
2006.617139570432
 30
0.0
 11
3621.237023065774
 21
2006.617139570432
 31
0.0
  0
LINE
  5
208E
330
18
100
AcDbEntity
  8
0
100
AcDbLine
 10
1188.447787210583
 20
1073.712406305858
 30
0.0
 11
1190.259969812713
 21
1108.290910240222
 31
0.0
  0
LINE
  5
208F
330
18
100
AcDbEntity
  8
0
100
AcDbLine
 10
1190.638750639095
 20
1115.212406305858
 30
0.0
 11
1258.447787210583
 21
1115.212406305858
 31
0.0
  0
LINE
  5
2090
330
18
100
AcDbEntity
  8
0
100
AcDbLine
 10
1191.757914114845
 20
1109.712406305858
 30
0.0
 11
1256.974066652212
 21
1109.712406305858
 31
0.0
  0
LINE
  5
2091
330
18
100
AcDbEntity
  8
0
100
AcDbLine
 10
1183.395406056346
 20
1073.712406305858
 30
0.0
 11
1188.447787210583
 21
1073.712406305858
 31
0.0
  0
ARC
  5
2092
330
18
100
AcDbEntity
  8
0
100
AcDbCircle
 10
1191.757914114845
 20
1108.212406305858
 30
0.0
 40
1.5
100
AcDbArc
 50
90.0
 51
177.0
  0
LINE
  5
2093
330
18
100
AcDbEntity
  8
0
 62
     3
100
AcDbLine
 10
1258.072874745013
 20
1104.153955673068
 30
0.0
 11
1262.159099929587
 21
1119.403955673068
 31
0.0
  0
LINE
  5
2094
330
18
100
AcDbEntity
  8
0
 62
     3
100
AcDbLine
 10
1255.484684293987
 20
1104.153955673068
 30
0.0
 11
1259.570909478562
 21
1119.403955673068
 31
0.0
  0
ARC
  5
2095
330
18
100
AcDbEntity
  8
0
100
AcDbCircle
 10
1325.137660306321
 20
1108.212406305858
 30
0.0
 40
1.5
100
AcDbArc
 50
2.999999999999999
 51
90.0
  0
LINE
  5
2096
330
18
100
AcDbEntity
  8
0
100
AcDbLine
 10
1328.447787210583
 20
1073.712406305858
 30
0.0
 11
1326.635604608453
 21
1108.290910240222
 31
0.0
  0
LINE
  5
2097
330
18
100
AcDbEntity
  8
0
100
AcDbLine
 10
1333.500168364821
 20
1073.712406305858
 30
0.0
 11
1328.447787210583
 21
1073.712406305858
 31
0.0
  0
LINE
  5
2098
330
18
100
AcDbEntity
  8
0
100
AcDbLine
 10
1261.035977661608
 20
1115.212406305858
 30
0.0
 11
1326.256823782071
 21
1115.212406305858
 31
0.0
  0
LINE
  5
2099
330
18
100
AcDbEntity
  8
0
100
AcDbLine
 10
1259.562257103237
 20
1109.712406305858
 30
0.0
 11
1325.137660306321
 21
1109.712406305858
 31
0.0
  0
DIMENSION
  5
209B
330
18
100
AcDbEntity
  8
sunpo
100
AcDbDimension
  2
*D3
 10
1175.447787210583
 20
1073.712406305858
 30
0.0
 11
1173.197787210583
 21
1094.462406305858
 31
0.0
 70
    32
 71
     5
 42
41.5
  3
MSP明朝寸法1
100
AcDbAlignedDimension
 13
1190.042173386406
 23
1115.212406305858
 33
0.0
 14
1183.447787210583
 24
1073.712406305858
 34
0.0
 50
90.0
100
AcDbRotatedDimension
1001
ACAD
1000
DSTYLE
1002
{
1070
   141
1040
0.0
1002
}
  0
DIMENSION
  5
209C
330
18
100
AcDbEntity
  8
sunpo
100
AcDbDimension
  2
*D4
 10
1188.447787210583
 20
1065.712406305858
 30
0.0
 11
1185.947787210583
 21
1067.962406305858
 31
0.0
 70
    32
 71
     5
 42
5.0
  3
MSP明朝寸法1
100
AcDbAlignedDimension
 13
1183.447787210583
 23
1073.712406305858
 33
0.0
 14
1188.447787210583
 24
1073.712406305858
 34
0.0
100
AcDbRotatedDimension
1001
ACAD
1000
DSTYLE
1002
{
1070
   141
1040
0.0
1002
}
  0
DIMENSION
  5
209D
330
18
100
AcDbEntity
  8
sunpo
100
AcDbDimension
  2
*D5
 10
1214.122424543659
 20
1109.712406305858
 30
0.0
 11
1214.122424543658
 21
1122.340215294622
 31
0.0
 70
   160
 71
     5
 42
5.500000000000227
  3
MSP明朝寸法1
100
AcDbAlignedDimension
 13
1214.122424543658
 23
1115.212406305858
 33
0.0
 14
1214.122424543658
 24
1109.712406305858
 34
0.0
 50
90.0
100
AcDbRotatedDimension
1001
ACAD
1000
DSTYLE
1002
{
1070
   141
1040
0.0
1002
}
  0
DIMENSION
  5
209E
330
18
100
AcDbEntity
  8
sunpo
100
AcDbDimension
  2
*D6
 10
1214.122424543658
 20
1073.712406305858
 30
0.0
 11
1211.521300948152
 21
1091.712406305858
 31
0.0
 70
    32
  1
(36)
 71
     5
 42
35.99999999999977
  3
MSP明朝寸法1
100
AcDbAlignedDimension
 13
1214.122424543658
 23
1109.712406305858
 33
0.0
 14
1188.447787210583
 24
1073.712406305858
 34
0.0
 50
90.0
100
AcDbRotatedDimension
1001
ACAD
1000
DSTYLE
1002
{
1070
   141
1040
0.0
1002
}
  0
LINE
  5
209F
330
18
100
AcDbEntity
  8
0
 62
     3
100
AcDbLine
 10
1214.122424543658
 20
1115.212406305858
 30
0.0
 11
1214.122424543658
 21
1109.712406305858
 31
0.0
  0
DIMENSION
  5
20A0
330
18
100
AcDbEntity
  8
sunpo
100
AcDbDimension
  2
*D7
 10
1328.447787210583
 20
1065.712406305858
 30
0.0
 11
1330.947787210583
 21
1067.962406305858
 31
0.0
 70
    32
 71
     5
 42
5.0
  3
MSP明朝寸法1
100
AcDbAlignedDimension
 13
1333.447787210583
 23
1073.712406305858
 33
0.0
 14
1328.447787210583
 24
1073.712406305858
 34
0.0
100
AcDbRotatedDimension
1001
ACAD
1000
DSTYLE
1002
{
1070
   141
1040
0.0
1002
}
  0
DIMENSION
  5
20A1
330
18
100
AcDbEntity
  8
sunpo
100
AcDbDimension
  2
*D8
 10
1333.447787210583
 20
1059.712406305858
 30
0.0
 11
1258.447787210583
 21
1061.962406305858
 31
0.0
 70
    32
  1
485
 71
     5
 42
150.0
  3
MSP明朝寸法1
100
AcDbAlignedDimension
 13
1183.447787210583
 23
1065.712406305858
 33
0.0
 14
1333.447787210583
 24
1065.712406305858
 34
0.0
100
AcDbRotatedDimension
1001
ACAD
1000
DSTYLE
1002
{
1070
   141
1040
0.0
1002
}
  0
LINE
  5
20A7
330
18
100
AcDbEntity
  8
0
100
AcDbLine
 10
1468.161101355786
 20
1073.712406305858
 30
0.0
 11
1466.348918753656
 21
1108.290910240222
 31
0.0
  0
DIMENSION
  5
20A8
330
18
100
AcDbEntity
  8
sunpo
100
AcDbDimension
  2
*D9
 10
1468.161101355786
 20
1065.712406305858
 30
0.0
 11
1470.661101355786
 21
1067.962406305858
 31
0.0
 70
    32
 71
     5
 42
5.0
  3
MSP明朝寸法1
100
AcDbAlignedDimension
 13
1473.161101355786
 23
1073.712406305858
 33
0.0
 14
1468.161101355786
 24
1073.712406305858
 34
0.0
100
AcDbRotatedDimension
1001
ACAD
1000
DSTYLE
1002
{
1070
   288
1070
     1
1070
   141
1040
0.0
1002
}
  0
LINE
  5
20A9
330
18
100
AcDbEntity
  8
0
100
AcDbLine
 10
1473.213482510024
 20
1073.712406305858
 30
0.0
 11
1468.161101355786
 21
1073.712406305858
 31
0.0
  0
LINE
  5
20AA
330
18
100
AcDbEntity
  8
0
100
AcDbLine
 10
1383.53065513541
 20
1109.712406305858
 30
0.0
 11
1464.850974451525
 21
1109.712406305858
 31
0.0
  0
LINE
  5
20AB
330
18
100
AcDbEntity
  8
0
100
AcDbLine
 10
1382.416185242757
 20
1115.212406305858
 30
0.0
 11
1465.970137927274
 21
1115.212406305858
 31
0.0
  0
LINE
  5
20AC
330
18
100
AcDbEntity
  8
0
 62
     3
100
AcDbLine
 10
1382.443196565833
 20
1105.653955673068
 30
0.0
 11
1384.416122290578
 21
1113.017014717377
 31
0.0
  0
LINE
  5
20AD
330
18
100
AcDbEntity
  8
0
 62
     3
100
AcDbLine
 10
1381.827931839553
 20
1113.017014717377
 30
0.0
 11
1383.539307510736
 21
1119.403955673068
 31
0.0
  0
ARC
  5
20B3
330
18
100
AcDbEntity
  8
0
100
AcDbCircle
 10
1464.850974451525
 20
1108.212406305858
 30
0.0
 40
1.5
100
AcDbArc
 50
2.999999999999999
 51
90.0
  0
DIMENSION
  5
20B4
330
18
100
AcDbEntity
  8
sunpo
100
AcDbDimension
  2
*D10
 10
1485.086841536665
 20
1073.712406305858
 30
0.0
 11
1482.836841536664
 21
1094.462406305858
 31
0.0
 70
    32
 71
     5
 42
41.5
  3
MSP明朝寸法1
100
AcDbAlignedDimension
 13
1466.566715179963
 23
1115.212406305858
 33
0.0
 14
1473.213482510024
 24
1073.712406305858
 34
0.0
 50
90.0
100
AcDbRotatedDimension
1001
ACAD
1000
DSTYLE
1002
{
1070
   288
1070
     1
1070
   172
1070
     0
1070
   141
1040
0.0
1002
}
  0
DIMENSION
  5
20B5
330
18
100
AcDbEntity
  8
sunpo
100
AcDbDimension
  2
*D11
 10
1430.738191490201
 20
1115.212406305858
 30
0.0
 11
1430.7381914902
 21
1122.340215294622
 31
0.0
 70
   160
 71
     5
 42
5.5
  3
MSP明朝寸法1
100
AcDbAlignedDimension
 13
1430.7381914902
 23
1109.712406305858
 33
0.0
 14
1430.7381914902
 24
1115.212406305858
 34
0.0
 50
90.0
100
AcDbRotatedDimension
1001
ACAD
1000
DSTYLE
1002
{
1070
   288
1070
     1
1070
   172
1070
     0
1070
   141
1040
0.0
1002
}
  0
LINE
  5
20B6
330
18
100
AcDbEntity
  8
sunpo
100
AcDbLine
 10
1430.7381914902
 20
1115.212406305858
 30
0.0
 11
1430.7381914902
 21
1109.712406305858
 31
0.0
  0
LINE
  5
20B7
330
18
100
AcDbEntity
  8
0
 62
     3
100
AcDbLine
 10
1381.827931839553
 20
1113.017014717377
 30
0.0
 11
1384.416122290578
 21
1113.017014717377
 31
0.0
  0
LINE
  5
20B8
330
18
100
AcDbEntity
  8
0
100
AcDbLine
 10
1183.395406056346
 20
1073.712406305858
 30
0.0
 11
1184.642405676981
 21
1109.421803286073
 31
0.0
  0
ARC
  5
20B9
330
18
100
AcDbEntity
  8
0
100
AcDbCircle
 10
1190.638750639095
 20
1109.212406305859
 30
0.0
 40
6.0
100
AcDbArc
 50
90.0
 51
178.0
  0
LINE
  5
20BB
330
18
100
AcDbEntity
  8
0
100
AcDbLine
 10
1333.500168364821
 20
1073.712406305858
 30
0.0
 11
1332.253168744185
 21
1109.421803286073
 31
0.0
  0
ARC
  5
20BC
330
18
100
AcDbEntity
  8
0
100
AcDbCircle
 10
1326.256823782071
 20
1109.212406305858
 30
0.0
 40
6.0
100
AcDbArc
 50
1.999999999999977
 51
90.0
  0
LINE
  5
20BE
330
18
100
AcDbEntity
  8
0
100
AcDbLine
 10
1473.213482510024
 20
1073.712406305858
 30
0.0
 11
1471.966482889389
 21
1109.421803286073
 31
0.0
  0
ARC
  5
20BF
330
18
100
AcDbEntity
  8
0
100
AcDbCircle
 10
1465.970137927274
 20
1109.212406305858
 30
0.0
 40
6.0
100
AcDbArc
 50
1.999999999999977
 51
90.0
  0
VIEWPORT
  5
47
330
15
100
AcDbEntity
 67
     1
  8
0
100
AcDbViewport
 10
297.7722476312053
 20
141.6862811490867
 30
0.0
 40
731.3200507416627
 41
326.5937833440331
 68
     1
 69
     1
 12
297.7722476312053
 22
141.6862811490867
 13
0.0
 23
0.0
 14
1.0
 24
1.0
 15
5.0
 25
5.0
 16
0.0
 26
0.0
 36
1.0
 17
0.0
 27
0.0
 37
0.0
 42
50.0
 43
0.0
 44
0.0
 45
326.5937833440331
 50
0.0
 51
0.0
 72
   100
 90
    33056
  1

281
     0
 71
     1
 74
     0
110
1000.0
120
1000.0
130
0.0
111
1.0
121
0.0
131
0.0
112
0.0
122
1.0
132
0.0
 79
     0
146
0.0
  0
TEXT
  5
638
330
15
100
AcDbEntity
 67
     1
  8
ﾃｷｽﾄ
  6
Continuous
 62
     3
100
AcDbText
 10
258.35400390625
 20
22.69371541341133
 30
0.0
 40
5.0468565623
  1
   
 41
0.6466754489000001
  7
BIGFONT
100
AcDbText
  0
TEXT
  5
649
330
15
100
AcDbEntity
 67
     1
  8
ﾃｷｽﾄ
 62
     3
100
AcDbText
 10
1047.0
 20
69.0
 30
0.0
 40
9.0
  1
 
100
AcDbText
  0
TEXT
  5
652
330
15
100
AcDbEntity
 67
     1
  8
ﾃｷｽﾄ
 62
     3
100
AcDbText
 10
1141.800048828125
 20
111.0
 30
0.0
 40
15.0
  1
 
 41
1.6
100
AcDbText
  0
TEXT
  5
653
330
15
100
AcDbEntity
 67
     1
  8
ﾃｷｽﾄ
 62
     3
100
AcDbText
 10
1141.800048828125
 20
87.0
 30
0.0
 40
15.0
  1
 
 41
1.6
100
AcDbText
  0
TEXT
  5
654
330
15
100
AcDbEntity
 67
     1
  8
ﾃｷｽﾄ
 62
     3
100
AcDbText
 10
774.0
 20
69.0
 30
0.0
 40
15.0
  1
 
 41
0.8
100
AcDbText
  0
TEXT
  5
655
330
15
100
AcDbEntity
 67
     1
  8
ﾃｷｽﾄ
 62
     3
100
AcDbText
 10
957.0
 20
69.0
 30
0.0
 40
15.0
  1
 
 41
0.8
100
AcDbText
  0
TEXT
  5
656
330
15
100
AcDbEntity
 67
     1
  8
ﾃｷｽﾄ
 62
     3
100
AcDbText
 10
957.0
 20
84.0
 30
0.0
 40
15.0
  1
 
 41
0.8
100
AcDbText
  0
TEXT
  5
657
330
15
100
AcDbEntity
 67
     1
  8
ﾃｷｽﾄ
 62
     3
100
AcDbText
 10
774.0
 20
105.0
 30
0.0
 40
15.0
  1
 
 41
0.8
100
AcDbText
  0
TEXT
  5
775
330
15
100
AcDbEntity
 67
     1
  8
ﾃｷｽﾄ
 62
     5
100
AcDbText
 10
258.0
 20
35.0
 30
0.0
 40
5.0
  1
     
 41
0.7
100
AcDbText
  0
MTEXT
  5
BBD
330
15
100
AcDbEntity
 67
     1
  8
0
 62
     3
100
AcDbMText
 10
63.0
 20
158.0
 30
0.0
 40
3.5
 41
0.0
 71
     1
 72
     5
  1
平面図　Ｓ＝（１／８）
  7
MSP明朝W1
 73
     1
 44
1.0
  0
LINE
  5
BC3
330
15
100
AcDbEntity
 67
     1
  8
0
 62
     3
100
AcDbLine
 10
63.29633889118849
 20
152.4889160861354
 30
0.0
 11
105.2290413528369
 21
152.4889160861354
 31
0.0
  0
LINE
  5
BC4
330
15
100
AcDbEntity
 67
     1
  8
0
 62
     3
100
AcDbLine
 10
63.29633889118849
 20
151.9889160861354
 30
0.0
 11
105.2290413528369
 21
151.9889160861354
 31
0.0
  0
VIEWPORT
  5
1852
330
15
100
AcDbEntity
 67
     1
  8
VEW枠1
100
AcDbViewport
 10
210.7071501560984
 20
216.199975212003
 30
0.0
 40
356.6876991157744
 41
121.9000500738798
 68
     2
 69
     2
 12
2355.358405791175
 22
1662.371308008258
 13
0.0
 23
0.0
 14
10.0
 24
10.0
 15
10.0
 25
10.0
 16
0.0
 26
0.0
 36
1.0
 17
0.0
 27
0.0
 37
0.0
 42
50.0
 43
0.0
 44
0.0
 45
975.2004032261838
 50
0.0
 51
0.0
 72
   100
 90
    32800
  1

281
     0
 71
     1
 74
     0
110
1000.0
120
1000.0
130
0.0
111
1.0
121
0.0
131
0.0
112
0.0
122
1.0
132
0.0
 79
     0
146
0.0
  0
MTEXT
  5
1853
330
15
100
AcDbEntity
 67
     1
  8
VEW枠1
100
AcDbMText
 10
32.36330059821125
 20
155.2499501750632
 30
0.0
 40
5.0
 41
0.0
 71
     1
 72
     5
  1
Vew1
  7
MSP明朝1
 73
     1
 44
1.0
  0
VIEWPORT
  5
1855
330
15
100
AcDbEntity
 67
     1
  8
VEW枠2
100
AcDbViewport
 10
209.0246614537235
 20
95.59883763094672
 30
0.0
 40
360.0526765205243
 41
99.76937384376084
 68
     3
 69
     3
 12
1323.275543166842
 22
1084.73743106039
 13
0.0
 23
0.0
 14
10.0
 24
10.0
 15
10.0
 25
10.0
 16
0.0
 26
0.0
 36
1.0
 17
0.0
 27
0.0
 37
0.0
 42
50.0
 43
0.0
 44
0.0
 45
99.76937459090263
 50
0.0
 51
0.0
 72
   100
 90
    32800
  1

281
     0
 71
     1
 74
     0
110
1000.0
120
1000.0
130
0.0
111
1.0
121
0.0
131
0.0
112
0.0
122
1.0
132
0.0
 79
     0
146
0.0
  0
MTEXT
  5
1856
330
15
100
AcDbEntity
 67
     1
  8
VEW枠2
100
AcDbMText
 10
32.36330059821125
 20
54.11981121950725
 30
0.0
 40
5.0
 41
0.0
 71
     1
 72
     5
  1
Vew2
  7
MSP明朝1
 73
     1
 44
1.0
  0
LINE
  5
19B3
330
15
100
AcDbEntity
 67
     1
  8
0
 62
     3
100
AcDbLine
 10
61.29633889118849
 20
52.48891608613542
 30
0.0
 11
111.3118103115964
 21
52.48891608613542
 31
0.0
  0
LINE
  5
19B4
330
15
100
AcDbEntity
 67
     1
  8
0
 62
     3
100
AcDbLine
 10
61.29633889118849
 20
51.98891608613542
 30
0.0
 11
111.3118103115964
 21
51.98891608613542
 31
0.0
  0
MTEXT
  5
19B5
330
15
100
AcDbEntity
 67
     1
  8
0
 62
     3
100
AcDbMText
 10
61.0
 20
58.0
 30
0.0
 40
3.5
 41
0.0
 71
     1
 72
     5
  1
Ａ－Ａ断面　Ｓ＝（１／１）
  7
MSP明朝W1
 73
     1
 44
1.0
  0
LINE
  5
230E
330
15
100
AcDbEntity
 67
     1
  8
0
 62
     3
100
AcDbLine
 10
266.8254221396221
 20
53.70322195964274
 30
0.0
 11
316.84089356003
 21
53.70322195964274
 31
0.0
  0
MTEXT
  5
230F
330
15
100
AcDbEntity
 67
     1
  8
0
 62
     3
100
AcDbMText
 10
266.5290832484336
 20
59.21430587350733
 30
0.0
 40
3.5
 41
0.0
 71
     1
 72
     5
  1
Ｂ－Ｂ断面　Ｓ＝（１／１）
  7
MSP明朝W1
 73
     1
 44
1.0
  0
LINE
  5
2310
330
15
100
AcDbEntity
 67
     1
  8
0
 62
     3
100
AcDbLine
 10
266.8254221396221
 20
53.20322195964275
 30
0.0
 11
316.84089356003
 21
53.20322195964275
 31
0.0
  0
LINE
  5
2482
330
15
100
AcDbEntity
 67
     1
  8
ﾀｲﾄﾙ枠
  6
Continuous
 62
     5
100
AcDbLine
 10
409.0
 20
5.0
 30
0.0
 11
23.0
 21
5.0
 31
0.0
  0
LINE
  5
2483
330
15
100
AcDbEntity
 67
     1
  8
ﾀｲﾄﾙ枠
  6
Continuous
 62
     5
100
AcDbLine
 10
23.0
 20
285.0
 30
0.0
 11
409.0
 21
285.0
 31
0.0
  0
LINE
  5
2484
330
15
100
AcDbEntity
 67
     1
  8
0
 62
     5
100
AcDbLine
 10
23.0
 20
285.0
 30
0.0
 11
23.0
 21
5.0
 31
0.0
  0
LINE
  5
2485
330
15
100
AcDbEntity
 67
     1
  8
ﾀｲﾄﾙ枠
  6
Continuous
 62
     5
100
AcDbLine
 10
409.0
 20
285.0
 30
0.0
 11
409.0
 21
5.0
 31
0.0
  0
TEXT
  5
2799
330
15
100
AcDbEntity
 67
     1
  8
0
100
AcDbText
 10
341.0187001615468
 20
20.30951578498491
 30
0.0
 40
4.0
  1
RC ｶｳﾝﾀｰ
  7
MSP明朝W1
 72
     4
 11
354.2434192626704
 21
22.21962814453547
 31
0.0
100
AcDbText
  0
LINE
  5
279A
330
15
100
AcDbEntity
 67
     1
  8
ﾀｲﾄﾙ枠
  6
Continuous
370
    40
100
AcDbLine
 10
343.5113358866714
 20
8.459647666944647
 30
0.0
 11
338.5513358866713
 21
8.459647666944647
 31
0.0
  0
LINE
  5
279B
330
15
100
AcDbEntity
 67
     1
  8
ﾀｲﾄﾙ枠
  6
Continuous
370
    40
100
AcDbLine
 10
339.4813358866713
 20
8.609647666944624
 30
0.0
 11
342.5813358866713
 21
8.609647666944624
 31
0.0
  0
LINE
  5
279C
330
15
100
AcDbEntity
 67
     1
  8
ﾀｲﾄﾙ枠
  6
Continuous
370
    40
100
AcDbLine
 10
338.5513358866713
 20
10.42964766694467
 30
0.0
 11
343.5113358866714
 21
10.42964766694467
 31
0.0
  0
LINE
  5
279D
330
15
100
AcDbEntity
 67
     1
  8
ﾀｲﾄﾙ枠
  6
Continuous
370
    40
100
AcDbLine
 10
342.5813358866713
 20
10.27964766694464
 30
0.0
 11
339.4813358866713
 21
10.27964766694464
 31
0.0
  0
LINE
  5
279E
330
15
100
AcDbEntity
 67
     1
  8
ﾀｲﾄﾙ枠
  6
Continuous
370
    40
100
AcDbLine
 10
343.5113358866714
 20
11.31964766694466
 30
0.0
 11
338.5513358866713
 21
11.31964766694466
 31
0.0
  0
LINE
  5
279F
330
15
100
AcDbEntity
 67
     1
  8
ﾀｲﾄﾙ枠
  6
Continuous
370
    40
100
AcDbLine
 10
340.5663358866713
 20
13.54964766694467
 30
0.0
 11
341.4963358866713
 21
13.54964766694467
 31
0.0
  0
LINE
  5
27A0
330
15
100
AcDbEntity
 67
     1
  8
ﾀｲﾄﾙ枠
100
AcDbLine
 10
324.0
 20
17.0
 30
0.0
 11
409.0
 21
17.0
 31
0.0
  0
LINE
  5
27A1
330
15
100
AcDbEntity
 67
     1
  8
ﾀｲﾄﾙ枠
100
AcDbLine
 10
324.0
 20
29.0
 30
0.0
 11
409.0
 21
29.0
 31
0.0
  0
LINE
  5
27A2
330
15
100
AcDbEntity
 67
     1
  8
ﾀｲﾄﾙ枠
100
AcDbLine
 10
324.0
 20
5.0
 30
0.0
 11
324.0
 21
29.0
 31
0.0
  0
LINE
  5
27A3
330
15
100
AcDbEntity
 67
     1
  8
ﾀｲﾄﾙ枠
  6
Continuous
370
    40
100
AcDbLine
 10
340.5663358866713
 20
11.46964766694463
 30
0.0
 11
340.5663358866713
 21
12.48964766694467
 31
0.0
  0
LINE
  5
27A4
330
15
100
AcDbEntity
 67
     1
  8
ﾀｲﾄﾙ枠
  6
Continuous
370
    40
100
AcDbLine
 10
340.5663358866713
 20
12.63964766694465
 30
0.0
 11
340.5663358866713
 21
13.54964766694467
 31
0.0
  0
LINE
  5
27A5
330
15
100
AcDbEntity
 67
     1
  8
ﾀｲﾄﾙ枠
  6
Continuous
370
    40
100
AcDbLine
 10
341.0313358866714
 20
11.56964766694466
 30
0.0
 11
341.0313358866714
 21
13.29964766694468
 31
0.0
  0
LINE
  5
27A6
330
15
100
AcDbEntity
 67
     1
  8
ﾀｲﾄﾙ枠
  6
Continuous
370
    40
100
AcDbLine
 10
340.8313358866713
 20
11.56964766694466
 30
0.0
 11
340.8313358866713
 21
13.29964766694468
 31
0.0
  0
LINE
  5
27A7
330
15
100
AcDbEntity
 67
     1
  8
ﾀｲﾄﾙ枠
  6
Continuous
370
    40
100
AcDbLine
 10
338.5513358866713
 20
11.31964766694466
 30
0.0
 11
338.5513358866713
 21
11.46964766694463
 31
0.0
  0
LINE
  5
27A8
330
15
100
AcDbEntity
 67
     1
  8
ﾀｲﾄﾙ枠
  6
Continuous
370
    40
100
AcDbLine
 10
338.0313358866714
 20
12.48964766694467
 30
0.0
 11
338.0313358866714
 21
12.63964766694465
 31
0.0
  0
LINE
  5
27A9
330
15
100
AcDbEntity
 67
     1
  8
ﾀｲﾄﾙ枠
  6
Continuous
370
    40
100
AcDbLine
 10
338.5513358866713
 20
8.459647666944647
 30
0.0
 11
338.5513358866713
 21
10.42964766694467
 31
0.0
  0
LINE
  5
27AA
330
15
100
AcDbEntity
 67
     1
  8
ﾀｲﾄﾙ枠
  6
Continuous
370
    40
100
AcDbLine
 10
339.4813358866713
 20
10.27964766694464
 30
0.0
 11
339.4813358866713
 21
8.609647666944624
 31
0.0
  0
LINE
  5
27AB
330
15
100
AcDbEntity
 67
     1
  8
ﾀｲﾄﾙ枠
  6
Continuous
370
    40
100
AcDbLine
 10
339.0163358866714
 20
10.27964766694464
 30
0.0
 11
339.0163358866714
 21
8.609647666944624
 31
0.0
  0
LINE
  5
27AC
330
15
100
AcDbEntity
 67
     1
  8
ﾀｲﾄﾙ枠
  6
Continuous
370
    40
100
AcDbLine
 10
339.2163358866714
 20
10.27964766694464
 30
0.0
 11
339.2163358866714
 21
8.609647666944624
 31
0.0
  0
LINE
  5
27AD
330
15
100
AcDbEntity
 67
     1
  8
ﾀｲﾄﾙ枠
  6
Continuous
370
    40
100
AcDbLine
 10
338.8163358866713
 20
10.27964766694464
 30
0.0
 11
338.8163358866713
 21
8.609647666944624
 31
0.0
  0
LINE
  5
27AE
330
15
100
AcDbEntity
 67
     1
  8
ﾀｲﾄﾙ枠
  6
Continuous
370
    40
100
AcDbLine
 10
338.5513358866713
 20
11.46964766694463
 30
0.0
 11
340.5663358866713
 21
11.46964766694463
 31
0.0
  0
LINE
  5
27AF
330
15
100
AcDbEntity
 67
     1
  8
ﾀｲﾄﾙ枠
  6
Continuous
370
    40
100
AcDbLine
 10
340.5663358866713
 20
12.48964766694467
 30
0.0
 11
338.0313358866714
 21
12.48964766694467
 31
0.0
  0
LINE
  5
27B0
330
15
100
AcDbEntity
 67
     1
  8
ﾀｲﾄﾙ枠
  6
Continuous
370
    40
100
AcDbLine
 10
338.0313358866714
 20
12.63964766694465
 30
0.0
 11
340.5663358866713
 21
12.63964766694465
 31
0.0
  0
MTEXT
  5
27B1
330
15
100
AcDbEntity
 67
     1
  8
ﾀｲﾄﾙ枠
370
    30
100
AcDbMText
 10
325.6956708772145
 20
27.85932062720474
 30
0.0
 40
2.5
 41
11.5
 71
     1
 72
     5
  1
{\fＭＳ Ｐ明朝|b0|i0|c128|p18;製品名}
 73
     1
 44
1.0
1001
ACAD
1000
MTEXTBEGIN
1070
    73
1070
     1
1070
    44
1040
1.0
1070
    74
1070
     0
1000
MTEXTEND
1000
MTEXTBEGIN
1070
    73
1070
     1
1070
    44
1040
1.0
1070
    74
1070
     0
1000
MTEXTEND
  0
TEXT
  5
27B2
330
15
100
AcDbEntity
 67
     1
  8
0
100
AcDbText
 10
388.5532143387935
 20
21.00691206911992
 30
0.0
 40
3.5
  1
1/8, 1/1
  7
MSP明朝W1
 72
     4
 11
397.6374840017149
 21
22.64876600170418
 31
0.0
100
AcDbText
  0
LINE
  5
27B3
330
15
100
AcDbEntity
 67
     1
  8
ﾀｲﾄﾙ枠
  6
Continuous
370
    40
100
AcDbLine
 10
373.9205857696303
 20
8.459647666944647
 30
0.0
 11
373.4827055776827
 21
8.459647666944647
 31
0.0
  0
LINE
  5
27B4
330
15
100
AcDbEntity
 67
     1
  8
ﾀｲﾄﾙ枠
  6
Continuous
370
    40
100
AcDbLine
 10
373.3280857696303
 20
10.03964766694463
 30
0.0
 11
373.9205857696303
 21
8.459647666944647
 31
0.0
  0
LINE
  5
27B5
330
15
100
AcDbEntity
 67
     1
  8
ﾀｲﾄﾙ枠
  6
Continuous
370
    40
100
AcDbLine
 10
359.0313358866714
 20
10.55964766694467
 30
0.0
 11
357.2113358866713
 21
10.55964766694467
 31
0.0
  0
LINE
  5
27B6
330
15
100
AcDbEntity
 67
     1
  8
ﾀｲﾄﾙ枠
  6
Continuous
370
    40
100
AcDbLine
 10
357.2113358866713
 20
10.53964766694463
 30
0.0
 11
359.0313358866714
 21
10.53964766694463
 31
0.0
  0
LINE
  5
27B7
330
15
100
AcDbEntity
 67
     1
  8
ﾀｲﾄﾙ枠
  6
Continuous
370
    40
100
AcDbLine
 10
359.0313358866714
 20
12.89964766694464
 30
0.0
 11
356.8213358866713
 21
12.89964766694464
 31
0.0
  0
LINE
  5
27B8
330
15
100
AcDbEntity
 67
     1
  8
ﾀｲﾄﾙ枠
  6
Continuous
370
    40
100
AcDbLine
 10
359.0313358866714
 20
8.479647666944629
 30
0.0
 11
357.2113358866713
 21
8.479647666944629
 31
0.0
  0
LINE
  5
27B9
330
15
100
AcDbEntity
 67
     1
  8
ﾀｲﾄﾙ枠
  6
Continuous
370
    40
100
AcDbLine
 10
357.2113358866713
 20
9.499647666944667
 30
0.0
 11
358.7713358866714
 21
9.499647666944667
 31
0.0
  0
LINE
  5
27BA
330
15
100
AcDbEntity
 67
     1
  8
ﾀｲﾄﾙ枠
  6
Continuous
370
    40
100
AcDbLine
 10
358.7713358866714
 20
9.519647666944649
 30
0.0
 11
357.2113358866713
 21
9.519647666944649
 31
0.0
  0
LINE
  5
27BB
330
15
100
AcDbEntity
 67
     1
  8
ﾀｲﾄﾙ枠
  6
Continuous
370
    40
100
AcDbLine
 10
354.5913358866713
 20
8.459647666944647
 30
0.0
 11
359.0313358866714
 21
8.459647666944647
 31
0.0
  0
LINE
  5
27BC
330
15
100
AcDbEntity
 67
     1
  8
ﾀｲﾄﾙ枠
  6
Continuous
370
    40
100
AcDbLine
 10
354.0782187864843
 20
11.70964766694464
 30
0.0
 11
359.0313358866714
 21
11.70964766694464
 31
0.0
  0
LINE
  5
27BD
330
15
100
AcDbEntity
 67
     1
  8
ﾀｲﾄﾙ枠
  6
Continuous
370
    40
100
AcDbLine
 10
357.4208443838587
 20
11.72964766694462
 30
0.0
 11
357.9958443838587
 21
12.87964766694466
 31
0.0
  0
LINE
  5
27BE
330
15
100
AcDbEntity
 67
     1
  8
ﾀｲﾄﾙ枠
  6
Continuous
370
    40
100
AcDbLine
 10
357.9958443838587
 20
12.87964766694466
 30
0.0
 11
354.846827389484
 21
12.87964766694466
 31
0.0
  0
LINE
  5
27BF
330
15
100
AcDbEntity
 67
     1
  8
ﾀｲﾄﾙ枠
  6
Continuous
370
    40
100
AcDbLine
 10
348.9963358866713
 20
12.35964766694462
 30
0.0
 11
351.5313358866714
 21
12.35964766694462
 31
0.0
  0
LINE
  5
27C0
330
15
100
AcDbEntity
 67
     1
  8
ﾀｲﾄﾙ枠
  6
Continuous
370
    40
100
AcDbLine
 10
351.5313358866714
 20
12.50964766694465
 30
0.0
 11
348.9963358866713
 21
12.50964766694465
 31
0.0
  0
LINE
  5
27C1
330
15
100
AcDbEntity
 67
     1
  8
ﾀｲﾄﾙ枠
  6
Continuous
370
    40
100
AcDbLine
 10
351.5313358866714
 20
9.515534340039664
 30
0.0
 11
348.9963358866713
 21
11.85553434003963
 31
0.0
  0
LINE
  5
27C2
330
15
100
AcDbEntity
 67
     1
  8
ﾀｲﾄﾙ枠
  6
Continuous
370
    40
100
AcDbLine
 10
348.9963358866713
 20
11.12064393642464
 30
0.0
 11
351.5313358866714
 21
8.780643936424667
 31
0.0
  0
LINE
  5
27C3
330
15
100
AcDbEntity
 67
     1
  8
ﾀｲﾄﾙ枠
  6
Continuous
370
    40
100
AcDbLine
 10
351.2813358866714
 20
9.378858369001306
 30
0.0
 11
348.9963358866713
 21
11.48808913823199
 31
0.0
  0
LINE
  5
27C4
330
15
100
AcDbEntity
 67
     1
  8
ﾀｲﾄﾙ枠
  6
Continuous
370
    40
100
AcDbLine
 10
348.9963358866713
 20
9.109647666944624
 30
0.0
 11
349.9713358866713
 21
9.109647666944624
 31
0.0
  0
LINE
  5
27C5
330
15
100
AcDbEntity
 67
     1
  8
ﾀｲﾄﾙ枠
  6
Continuous
370
    40
100
AcDbLine
 10
349.9713358866713
 20
9.259647666944658
 30
0.0
 11
348.9963358866713
 21
9.259647666944658
 31
0.0
  0
LINE
  5
27C6
330
15
100
AcDbEntity
 67
     1
  8
ﾀｲﾄﾙ枠
  6
Continuous
370
    40
100
AcDbLine
 10
348.9963358866713
 20
11.85553434003963
 30
0.0
 11
348.9963358866713
 21
12.35964766694462
 31
0.0
  0
LINE
  5
27C7
330
15
100
AcDbEntity
 67
     1
  8
ﾀｲﾄﾙ枠
  6
Continuous
370
    40
100
AcDbLine
 10
348.9963358866713
 20
12.50964766694465
 30
0.0
 11
348.9963358866713
 21
13.54964766694467
 31
0.0
  0
LINE
  5
27C8
330
15
100
AcDbEntity
 67
     1
  8
ﾀｲﾄﾙ枠
  6
Continuous
370
    40
100
AcDbLine
 10
348.9963358866713
 20
8.459647666944647
 30
0.0
 11
348.9963358866713
 21
9.109647666944624
 31
0.0
  0
LINE
  5
27C9
330
15
100
AcDbEntity
 67
     1
  8
ﾀｲﾄﾙ枠
  6
Continuous
370
    40
100
AcDbLine
 10
348.9963358866713
 20
9.259647666944658
 30
0.0
 11
348.9963358866713
 21
11.12064393642464
 31
0.0
  0
LINE
  5
27CA
330
15
100
AcDbEntity
 67
     1
  8
ﾀｲﾄﾙ枠
  6
Continuous
370
    40
100
AcDbLine
 10
348.5313358866714
 20
8.709647666944647
 30
0.0
 11
348.5313358866714
 21
13.29964766694468
 31
0.0
  0
LINE
  5
27CB
330
15
100
AcDbEntity
 67
     1
  8
ﾀｲﾄﾙ枠
  6
Continuous
370
    40
100
AcDbLine
 10
348.7313358866714
 20
8.709647666944647
 30
0.0
 11
348.7313358866714
 21
13.29964766694468
 31
0.0
  0
LINE
  5
27CC
330
15
100
AcDbEntity
 67
     1
  8
ﾀｲﾄﾙ枠
  6
Continuous
370
    40
100
AcDbLine
 10
348.3313358866713
 20
8.709647666944647
 30
0.0
 11
348.3313358866713
 21
13.29964766694468
 31
0.0
  0
LINE
  5
27CD
330
15
100
AcDbEntity
 67
     1
  8
ﾀｲﾄﾙ枠
  6
Continuous
370
    40
100
AcDbLine
 10
348.0663358866713
 20
13.54964766694467
 30
0.0
 11
348.0663358866713
 21
12.50964766694465
 31
0.0
  0
LINE
  5
27CE
330
15
100
AcDbEntity
 67
     1
  8
ﾀｲﾄﾙ枠
  6
Continuous
370
    40
100
AcDbLine
 10
348.0663358866713
 20
12.50964766694465
 30
0.0
 11
345.5313358866713
 21
12.50964766694465
 31
0.0
  0
LINE
  5
27CF
330
15
100
AcDbEntity
 67
     1
  8
ﾀｲﾄﾙ枠
  6
Continuous
370
    40
100
AcDbLine
 10
345.5313358866713
 20
12.50964766694465
 30
0.0
 11
345.5313358866713
 21
12.35964766694462
 31
0.0
  0
LINE
  5
27D0
330
15
100
AcDbEntity
 67
     1
  8
ﾀｲﾄﾙ枠
  6
Continuous
370
    40
100
AcDbLine
 10
345.5313358866713
 20
12.35964766694462
 30
0.0
 11
348.0663358866713
 21
12.35964766694462
 31
0.0
  0
LINE
  5
27D1
330
15
100
AcDbEntity
 67
     1
  8
ﾀｲﾄﾙ枠
  6
Continuous
370
    40
100
AcDbLine
 10
348.0663358866713
 20
12.35964766694462
 30
0.0
 11
348.0663358866713
 21
11.85553434003963
 31
0.0
  0
LINE
  5
27D2
330
15
100
AcDbEntity
 67
     1
  8
ﾀｲﾄﾙ枠
  6
Continuous
370
    40
100
AcDbLine
 10
345.5313358866713
 20
9.515534340039664
 30
0.0
 11
345.5313358866713
 21
8.780643936424667
 31
0.0
  0
LINE
  5
27D3
330
15
100
AcDbEntity
 67
     1
  8
ﾀｲﾄﾙ枠
  6
Continuous
370
    40
100
AcDbLine
 10
348.0663358866713
 20
9.259647666944658
 30
0.0
 11
347.0913358866713
 21
9.259647666944658
 31
0.0
  0
LINE
  5
27D4
330
15
100
AcDbEntity
 67
     1
  8
ﾀｲﾄﾙ枠
  6
Continuous
370
    40
100
AcDbLine
 10
347.0913358866713
 20
9.259647666944658
 30
0.0
 11
347.0913358866713
 21
9.109647666944624
 31
0.0
  0
LINE
  5
27D5
330
15
100
AcDbEntity
 67
     1
  8
ﾀｲﾄﾙ枠
  6
Continuous
370
    40
100
AcDbLine
 10
347.0913358866713
 20
9.109647666944624
 30
0.0
 11
348.0663358866713
 21
9.109647666944624
 31
0.0
  0
LINE
  5
27D6
330
15
100
AcDbEntity
 67
     1
  8
ﾀｲﾄﾙ枠
  6
Continuous
370
    40
100
AcDbLine
 10
348.0663358866713
 20
9.109647666944624
 30
0.0
 11
348.0663358866713
 21
8.459647666944647
 31
0.0
  0
LINE
  5
27D7
330
15
100
AcDbEntity
 67
     1
  8
ﾀｲﾄﾙ枠
  6
Continuous
370
    40
100
AcDbLine
 10
348.0663358866713
 20
11.85553434003963
 30
0.0
 11
345.5313358866713
 21
9.515534340039664
 31
0.0
  0
LINE
  5
27D8
330
15
100
AcDbEntity
 67
     1
  8
ﾀｲﾄﾙ枠
  6
Continuous
370
    40
100
AcDbLine
 10
345.5313358866713
 20
8.780643936424667
 30
0.0
 11
348.0663358866713
 21
11.12064393642464
 31
0.0
  0
LINE
  5
27D9
330
15
100
AcDbEntity
 67
     1
  8
ﾀｲﾄﾙ枠
  6
Continuous
370
    40
100
AcDbLine
 10
348.0663358866713
 20
11.12064393642464
 30
0.0
 11
348.0663358866713
 21
9.259647666944658
 31
0.0
  0
LINE
  5
27DA
330
15
100
AcDbEntity
 67
     1
  8
ﾀｲﾄﾙ枠
  6
Continuous
370
    40
100
AcDbLine
 10
348.0663358866713
 20
11.48808913823199
 30
0.0
 11
345.7813358866713
 21
9.378858369001306
 31
0.0
  0
LINE
  5
27DB
330
15
100
AcDbEntity
 67
     1
  8
ﾀｲﾄﾙ枠
  6
Continuous
370
    40
100
AcDbLine
 10
348.0663358866713
 20
8.459647666944647
 30
0.0
 11
348.9963358866713
 21
8.459647666944647
 31
0.0
  0
LINE
  5
27DC
330
15
100
AcDbEntity
 67
     1
  8
ﾀｲﾄﾙ枠
  6
Continuous
370
    40
100
AcDbLine
 10
348.9963358866713
 20
13.54964766694467
 30
0.0
 11
348.0663358866713
 21
13.54964766694467
 31
0.0
  0
LINE
  5
27DD
330
15
100
AcDbEntity
 67
     1
  8
ﾀｲﾄﾙ枠
  6
Continuous
370
    40
100
AcDbLine
 10
344.0313358866713
 20
12.63964766694465
 30
0.0
 11
344.0313358866713
 21
12.48964766694467
 31
0.0
  0
LINE
  5
27DE
330
15
100
AcDbEntity
 67
     1
  8
ﾀｲﾄﾙ枠
  6
Continuous
370
    40
100
AcDbLine
 10
341.4963358866713
 20
11.46964766694463
 30
0.0
 11
343.5113358866714
 21
11.46964766694463
 31
0.0
  0
LINE
  5
27DF
330
15
100
AcDbEntity
 67
     1
  8
ﾀｲﾄﾙ枠
  6
Continuous
370
    40
100
AcDbLine
 10
341.4963358866713
 20
13.54964766694467
 30
0.0
 11
341.4963358866713
 21
12.63964766694465
 31
0.0
  0
LINE
  5
27E0
330
15
100
AcDbEntity
 67
     1
  8
ﾀｲﾄﾙ枠
  6
Continuous
370
    40
100
AcDbLine
 10
341.4963358866713
 20
12.48964766694467
 30
0.0
 11
341.4963358866713
 21
11.46964766694463
 31
0.0
  0
LINE
  5
27E1
330
15
100
AcDbEntity
 67
     1
  8
ﾀｲﾄﾙ枠
  6
Continuous
370
    40
100
AcDbLine
 10
341.2313358866713
 20
11.56964766694466
 30
0.0
 11
341.2313358866713
 21
13.29964766694468
 31
0.0
  0
LINE
  5
27E2
330
15
100
AcDbEntity
 67
     1
  8
ﾀｲﾄﾙ枠
  6
Continuous
370
    40
100
AcDbLine
 10
343.5113358866714
 20
11.46964766694463
 30
0.0
 11
343.5113358866714
 21
11.31964766694466
 31
0.0
  0
LINE
  5
27E3
330
15
100
AcDbEntity
 67
     1
  8
ﾀｲﾄﾙ枠
  6
Continuous
370
    40
100
AcDbLine
 10
343.5113358866714
 20
10.42964766694467
 30
0.0
 11
343.5113358866714
 21
8.459647666944647
 31
0.0
  0
LINE
  5
27E4
330
15
100
AcDbEntity
 67
     1
  8
ﾀｲﾄﾙ枠
  6
Continuous
370
    40
100
AcDbLine
 10
343.0463358866713
 20
8.609647666944624
 30
0.0
 11
343.0463358866713
 21
10.27964766694464
 31
0.0
  0
LINE
  5
27E5
330
15
100
AcDbEntity
 67
     1
  8
ﾀｲﾄﾙ枠
  6
Continuous
370
    40
100
AcDbLine
 10
342.5813358866713
 20
8.609647666944624
 30
0.0
 11
342.5813358866713
 21
10.27964766694464
 31
0.0
  0
LINE
  5
27E6
330
15
100
AcDbEntity
 67
     1
  8
ﾀｲﾄﾙ枠
  6
Continuous
370
    40
100
AcDbLine
 10
343.2463358866713
 20
8.609647666944624
 30
0.0
 11
343.2463358866713
 21
10.27964766694464
 31
0.0
  0
LINE
  5
27E7
330
15
100
AcDbEntity
 67
     1
  8
ﾀｲﾄﾙ枠
  6
Continuous
370
    40
100
AcDbLine
 10
342.8463358866713
 20
8.609647666944624
 30
0.0
 11
342.8463358866713
 21
10.27964766694464
 31
0.0
  0
LINE
  5
27E8
330
15
100
AcDbEntity
 67
     1
  8
ﾀｲﾄﾙ枠
  6
Continuous
370
    40
100
AcDbLine
 10
341.4963358866713
 20
12.63964766694465
 30
0.0
 11
344.0313358866713
 21
12.63964766694465
 31
0.0
  0
LINE
  5
27E9
330
15
100
AcDbEntity
 67
     1
  8
ﾀｲﾄﾙ枠
  6
Continuous
370
    40
100
AcDbLine
 10
344.0313358866713
 20
12.48964766694467
 30
0.0
 11
341.4963358866713
 21
12.48964766694467
 31
0.0
  0
LINE
  5
27EA
330
15
100
AcDbEntity
 67
     1
  8
ﾀｲﾄﾙ枠
  6
Continuous
370
    40
100
AcDbLine
 10
356.6213358866713
 20
13.12964766694466
 30
0.0
 11
356.6213358866713
 21
13.29964766694468
 31
0.0
  0
LINE
  5
27EB
330
15
100
AcDbEntity
 67
     1
  8
ﾀｲﾄﾙ枠
  6
Continuous
370
    40
100
AcDbLine
 10
357.2113358866713
 20
10.55964766694467
 30
0.0
 11
357.2113358866713
 21
10.94964766694465
 31
0.0
  0
LINE
  5
27EC
330
15
100
AcDbEntity
 67
     1
  8
ﾀｲﾄﾙ枠
  6
Continuous
370
    40
100
AcDbLine
 10
356.8213358866713
 20
12.89964766694464
 30
0.0
 11
356.8213358866713
 21
13.54964766694467
 31
0.0
  0
LINE
  5
27ED
330
15
100
AcDbEntity
 67
     1
  8
ﾀｲﾄﾙ枠
  6
Continuous
370
    40
100
AcDbLine
 10
357.2113358866713
 20
8.479647666944629
 30
0.0
 11
357.2113358866713
 21
9.499647666944667
 31
0.0
  0
LINE
  5
27EE
330
15
100
AcDbEntity
 67
     1
  8
ﾀｲﾄﾙ枠
  6
Continuous
370
    40
100
AcDbLine
 10
357.2113358866713
 20
9.519647666944649
 30
0.0
 11
357.2113358866713
 21
10.53964766694463
 31
0.0
  0
LINE
  5
27EF
330
15
100
AcDbEntity
 67
     1
  8
ﾀｲﾄﾙ枠
  6
Continuous
370
    40
100
AcDbLine
 10
356.8113358866713
 20
10.69964766694465
 30
0.0
 11
356.8113358866713
 21
8.709647666944647
 31
0.0
  0
LINE
  5
27F0
330
15
100
AcDbEntity
 67
     1
  8
ﾀｲﾄﾙ枠
  6
Continuous
370
    40
100
AcDbLine
 10
357.0113358866714
 20
10.69964766694465
 30
0.0
 11
357.0113358866714
 21
8.709647666944647
 31
0.0
  0
LINE
  5
27F1
330
15
100
AcDbEntity
 67
     1
  8
ﾀｲﾄﾙ枠
  6
Continuous
370
    40
100
AcDbLine
 10
356.6113358866713
 20
10.69964766694465
 30
0.0
 11
356.6113358866713
 21
8.709647666944647
 31
0.0
  0
LINE
  5
27F2
330
15
100
AcDbEntity
 67
     1
  8
ﾀｲﾄﾙ枠
  6
Continuous
370
    40
100
AcDbLine
 10
356.4113358866713
 20
10.94964766694465
 30
0.0
 11
356.4113358866713
 21
10.55964766694467
 31
0.0
  0
LINE
  5
27F3
330
15
100
AcDbEntity
 67
     1
  8
ﾀｲﾄﾙ枠
  6
Continuous
370
    40
100
AcDbLine
 10
356.4113358866713
 20
10.55964766694467
 30
0.0
 11
355.2613358866714
 21
10.55964766694467
 31
0.0
  0
LINE
  5
27F4
330
15
100
AcDbEntity
 67
     1
  8
ﾀｲﾄﾙ枠
  6
Continuous
370
    40
100
AcDbLine
 10
355.2613358866714
 20
10.55964766694467
 30
0.0
 11
355.2613358866714
 21
10.94964766694465
 31
0.0
  0
LINE
  5
27F5
330
15
100
AcDbEntity
 67
     1
  8
ﾀｲﾄﾙ枠
  6
Continuous
370
    40
100
AcDbLine
 10
355.2613358866714
 20
10.94964766694465
 30
0.0
 11
354.9813358866714
 21
10.94964766694465
 31
0.0
  0
LINE
  5
27F6
330
15
100
AcDbEntity
 67
     1
  8
ﾀｲﾄﾙ枠
  6
Continuous
370
    40
100
AcDbLine
 10
354.9813358866714
 20
10.94964766694465
 30
0.0
 11
354.9813358866714
 21
10.53964766694463
 31
0.0
  0
LINE
  5
27F7
330
15
100
AcDbEntity
 67
     1
  8
ﾀｲﾄﾙ枠
  6
Continuous
370
    40
100
AcDbLine
 10
354.9813358866714
 20
10.53964766694463
 30
0.0
 11
356.4113358866713
 21
10.53964766694463
 31
0.0
  0
LINE
  5
27F8
330
15
100
AcDbEntity
 67
     1
  8
ﾀｲﾄﾙ枠
  6
Continuous
370
    40
100
AcDbLine
 10
356.0213358866714
 20
13.54964766694467
 30
0.0
 11
356.0213358866714
 21
12.89964766694464
 31
0.0
  0
LINE
  5
27F9
330
15
100
AcDbEntity
 67
     1
  8
ﾀｲﾄﾙ枠
  6
Continuous
370
    40
100
AcDbLine
 10
356.0213358866714
 20
12.89964766694464
 30
0.0
 11
353.5513358866714
 21
12.89964766694464
 31
0.0
  0
LINE
  5
27FA
330
15
100
AcDbEntity
 67
     1
  8
ﾀｲﾄﾙ枠
  6
Continuous
370
    40
100
AcDbLine
 10
353.5513358866714
 20
12.89964766694464
 30
0.0
 11
353.5513358866714
 21
12.87964766694466
 31
0.0
  0
LINE
  5
27FB
330
15
100
AcDbEntity
 67
     1
  8
ﾀｲﾄﾙ枠
  6
Continuous
370
    40
100
AcDbLine
 10
353.5513358866714
 20
12.87964766694466
 30
0.0
 11
354.0928834814137
 21
12.87964766694466
 31
0.0
  0
LINE
  5
27FC
330
15
100
AcDbEntity
 67
     1
  8
ﾀｲﾄﾙ枠
  6
Continuous
370
    40
100
AcDbLine
 10
354.0928834814137
 20
12.87964766694466
 30
0.0
 11
354.7828834814136
 21
11.72964766694462
 31
0.0
  0
LINE
  5
27FD
330
15
100
AcDbEntity
 67
     1
  8
ﾀｲﾄﾙ枠
  6
Continuous
370
    40
100
AcDbLine
 10
354.7828834814136
 20
11.72964766694462
 30
0.0
 11
353.5385240128613
 21
11.72964766694462
 31
0.0
  0
LINE
  5
27FE
330
15
100
AcDbEntity
 67
     1
  8
ﾀｲﾄﾙ枠
  6
Continuous
370
    40
100
AcDbLine
 10
354.846827389484
 20
12.87964766694466
 30
0.0
 11
355.421827389484
 21
11.72964766694462
 31
0.0
  0
LINE
  5
27FF
330
15
100
AcDbEntity
 67
     1
  8
ﾀｲﾄﾙ枠
  6
Continuous
370
    40
100
AcDbLine
 10
356.4213358866713
 20
13.12964766694466
 30
0.0
 11
356.4213358866713
 21
13.29964766694468
 31
0.0
  0
LINE
  5
2800
330
15
100
AcDbEntity
 67
     1
  8
ﾀｲﾄﾙ枠
  6
Continuous
370
    40
100
AcDbLine
 10
354.5963554354486
 20
12.64964766694464
 30
0.0
 11
354.9758554354486
 21
11.95964766694464
 31
0.0
  0
LINE
  5
2801
330
15
100
AcDbEntity
 67
     1
  8
ﾀｲﾄﾙ枠
  6
Continuous
370
    40
100
AcDbLine
 10
356.2213358866713
 20
13.12964766694466
 30
0.0
 11
356.2213358866713
 21
13.29964766694468
 31
0.0
  0
ARC
  5
2802
330
15
100
AcDbEntity
 67
     1
  8
ﾀｲﾄﾙ枠
  6
Continuous
370
    40
100
AcDbCircle
 10
348.003771068788
 20
10.26266359745398
 30
0.0
 40
5.719999999999999
100
AcDbArc
 50
344.2460809455041
 51
356.9872124958171
  0
ARC
  5
2803
330
15
100
AcDbEntity
 67
     1
  8
ﾀｲﾄﾙ枠
  6
Continuous
370
    40
100
AcDbCircle
 10
348.003771068788
 20
10.26266359745398
 30
0.0
 40
5.989999999999999
100
AcDbArc
 50
342.4820645709959
 51
356.9872124958171
  0
ARC
  5
2804
330
15
100
AcDbEntity
 67
     1
  8
ﾀｲﾄﾙ枠
  6
Continuous
370
    40
100
AcDbCircle
 10
348.003771068788
 20
10.26266359745398
 30
0.0
 40
5.45
100
AcDbArc
 50
340.6809234802237
 51
356.9872124958171
  0
LINE
  5
2805
330
15
100
AcDbEntity
 67
     1
  8
ﾀｲﾄﾙ枠
  6
Continuous
370
    40
100
AcDbLine
 10
356.4113358866713
 20
9.519647666944649
 30
0.0
 11
354.9813358866714
 21
9.519647666944649
 31
0.0
  0
LINE
  5
2806
330
15
100
AcDbEntity
 67
     1
  8
ﾀｲﾄﾙ枠
  6
Continuous
370
    40
100
AcDbLine
 10
354.9813358866714
 20
9.519647666944649
 30
0.0
 11
354.9813358866714
 21
9.499647666944667
 31
0.0
  0
LINE
  5
2807
330
15
100
AcDbEntity
 67
     1
  8
ﾀｲﾄﾙ枠
  6
Continuous
370
    40
100
AcDbLine
 10
354.9813358866714
 20
9.499647666944667
 30
0.0
 11
356.4113358866713
 21
9.499647666944667
 31
0.0
  0
LINE
  5
2808
330
15
100
AcDbEntity
 67
     1
  8
ﾀｲﾄﾙ枠
  6
Continuous
370
    40
100
AcDbLine
 10
356.4113358866713
 20
9.499647666944667
 30
0.0
 11
356.4113358866713
 21
8.479647666944629
 31
0.0
  0
LINE
  5
2809
330
15
100
AcDbEntity
 67
     1
  8
ﾀｲﾄﾙ枠
  6
Continuous
370
    40
100
AcDbLine
 10
356.4113358866713
 20
8.479647666944629
 30
0.0
 11
354.5913358866713
 21
8.479647666944629
 31
0.0
  0
LINE
  5
280A
330
15
100
AcDbEntity
 67
     1
  8
ﾀｲﾄﾙ枠
  6
Continuous
370
    40
100
AcDbLine
 10
354.5913358866713
 20
8.479647666944629
 30
0.0
 11
354.5913358866713
 21
8.459647666944647
 31
0.0
  0
LINE
  5
280B
330
15
100
AcDbEntity
 67
     1
  8
ﾀｲﾄﾙ枠
  6
Continuous
370
    40
100
AcDbLine
 10
353.7159714814427
 20
8.459647666944647
 30
0.0
 11
353.1468862293044
 21
8.459647666944647
 31
0.0
  0
LINE
  5
280C
330
15
100
AcDbEntity
 67
     1
  8
ﾀｲﾄﾙ枠
  6
Continuous
370
    40
100
AcDbLine
 10
356.4113358866713
 20
10.53964766694463
 30
0.0
 11
356.4113358866713
 21
9.519647666944649
 31
0.0
  0
LINE
  5
280D
330
15
100
AcDbEntity
 67
     1
  8
ﾀｲﾄﾙ枠
  6
Continuous
370
    40
100
AcDbLine
 10
353.5385240128613
 20
11.72964766694462
 30
0.0
 11
353.4462382386503
 21
9.976217956934988
 31
0.0
  0
LINE
  5
280E
330
15
100
AcDbEntity
 67
     1
  8
ﾀｲﾄﾙ枠
  6
Continuous
370
    40
100
AcDbLine
 10
353.71586505257
 20
9.962027071991656
 30
0.0
 11
353.7957398207253
 21
11.47964766694463
 31
0.0
  0
LINE
  5
280F
330
15
100
AcDbEntity
 67
     1
  8
ﾀｲﾄﾙ枠
  6
Continuous
370
    40
100
AcDbLine
 10
354.0782187864843
 20
11.70964766694464
 30
0.0
 11
353.9854918664897
 21
9.947836187048665
 31
0.0
  0
LINE
  5
2810
330
15
100
AcDbEntity
 67
     1
  8
ﾀｲﾄﾙ枠
  6
Continuous
370
    40
100
AcDbLine
 10
357.2113358866713
 20
10.94964766694465
 30
0.0
 11
356.4113358866713
 21
10.94964766694465
 31
0.0
  0
LINE
  5
2811
330
15
100
AcDbEntity
 67
     1
  8
ﾀｲﾄﾙ枠
  6
Continuous
370
    40
100
AcDbLine
 10
356.8213358866713
 20
13.54964766694467
 30
0.0
 11
356.0213358866714
 21
13.54964766694467
 31
0.0
  0
LINE
  5
2812
330
15
100
AcDbEntity
 67
     1
  8
ﾀｲﾄﾙ枠
  6
Continuous
370
    40
100
AcDbLine
 10
355.421827389484
 20
11.72964766694462
 30
0.0
 11
357.4208443838587
 21
11.72964766694462
 31
0.0
  0
LINE
  5
2813
330
15
100
AcDbEntity
 67
     1
  8
ﾀｲﾄﾙ枠
  6
Continuous
370
    40
100
AcDbLine
 10
349.9713358866713
 20
9.109647666944624
 30
0.0
 11
349.9713358866713
 21
9.259647666944658
 31
0.0
  0
LINE
  5
2814
330
15
100
AcDbEntity
 67
     1
  8
ﾀｲﾄﾙ枠
  6
Continuous
370
    40
100
AcDbLine
 10
351.5313358866714
 20
12.35964766694462
 30
0.0
 11
351.5313358866714
 21
12.50964766694465
 31
0.0
  0
LINE
  5
2815
330
15
100
AcDbEntity
 67
     1
  8
ﾀｲﾄﾙ枠
  6
Continuous
370
    40
100
AcDbLine
 10
351.5313358866714
 20
8.780643936424667
 30
0.0
 11
351.5313358866714
 21
9.515534340039664
 31
0.0
  0
LINE
  5
2816
330
15
100
AcDbEntity
 67
     1
  8
ﾀｲﾄﾙ枠
  6
Continuous
370
    40
100
AcDbLine
 10
366.5313358866713
 20
12.56464766694466
 30
0.0
 11
365.6288907641881
 21
12.56464766694466
 31
0.0
  0
LINE
  5
2817
330
15
100
AcDbEntity
 67
     1
  8
ﾀｲﾄﾙ枠
  6
Continuous
370
    40
100
AcDbLine
 10
366.3060782641877
 20
13.54964766694467
 30
0.0
 11
364.9138907641877
 21
11.52464766694464
 31
0.0
  0
LINE
  5
2818
330
15
100
AcDbEntity
 67
     1
  8
ﾀｲﾄﾙ枠
  6
Continuous
370
    40
100
AcDbLine
 10
364.768610663
 20
11.77464766694464
 30
0.0
 11
365.793220038
 21
13.29964766694468
 31
0.0
  0
LINE
  5
2819
330
15
100
AcDbEntity
 67
     1
  8
ﾀｲﾄﾙ枠
  6
Continuous
370
    40
100
AcDbLine
 10
365.6162993118121
 20
13.54964766694467
 30
0.0
 11
366.3060782641877
 21
13.54964766694467
 31
0.0
  0
LINE
  5
281A
330
15
100
AcDbEntity
 67
     1
  8
ﾀｲﾄﾙ枠
  6
Continuous
370
    40
100
AcDbLine
 10
366.2713358866714
 20
9.104567033076989
 30
0.0
 11
364.7661947774027
 21
9.964647666944642
 31
0.0
  0
LINE
  5
281B
330
15
100
AcDbEntity
 67
     1
  8
ﾀｲﾄﾙ枠
  6
Continuous
370
    40
100
AcDbLine
 10
363.9963358866713
 20
9.940442586526671
 30
0.0
 11
366.2713358866714
 21
8.64044258652666
 31
0.0
  0
LINE
  5
281C
330
15
100
AcDbEntity
 67
     1
  8
ﾀｲﾄﾙ枠
  6
Continuous
370
    40
100
AcDbLine
 10
366.0113358866714
 20
11.52464766694464
 30
0.0
 11
361.0513358866713
 21
11.52464766694464
 31
0.0
  0
LINE
  5
281D
330
15
100
AcDbEntity
 67
     1
  8
ﾀｲﾄﾙ枠
  6
Continuous
370
    40
100
AcDbLine
 10
366.2713358866714
 20
9.964647666944642
 30
0.0
 11
363.9963358866713
 21
9.964647666944642
 31
0.0
  0
LINE
  5
281E
330
15
100
AcDbEntity
 67
     1
  8
ﾀｲﾄﾙ枠
  6
Continuous
370
    40
100
AcDbLine
 10
364.4513358866713
 20
12.56464766694466
 30
0.0
 11
364.4513358866713
 21
13.54964766694467
 31
0.0
  0
LINE
  5
281F
330
15
100
AcDbEntity
 67
     1
  8
ﾀｲﾄﾙ枠
  6
Continuous
370
    40
100
AcDbLine
 10
364.4513358866713
 20
13.54964766694467
 30
0.0
 11
363.9763358866713
 21
13.54964766694467
 31
0.0
  0
LINE
  5
2820
330
15
100
AcDbEntity
 67
     1
  8
ﾀｲﾄﾙ枠
  6
Continuous
370
    40
100
AcDbLine
 10
363.9763358866713
 20
13.54964766694467
 30
0.0
 11
363.9763358866713
 21
12.56464766694466
 31
0.0
  0
LINE
  5
2821
330
15
100
AcDbEntity
 67
     1
  8
ﾀｲﾄﾙ枠
  6
Continuous
370
    40
100
AcDbLine
 10
363.9763358866713
 20
12.56464766694466
 30
0.0
 11
363.0863358866713
 21
12.56464766694466
 31
0.0
  0
LINE
  5
2822
330
15
100
AcDbEntity
 67
     1
  8
ﾀｲﾄﾙ枠
  6
Continuous
370
    40
100
AcDbLine
 10
363.0863358866713
 20
12.56464766694466
 30
0.0
 11
363.0863358866713
 21
13.54964766694467
 31
0.0
  0
LINE
  5
2823
330
15
100
AcDbEntity
 67
     1
  8
ﾀｲﾄﾙ枠
  6
Continuous
370
    40
100
AcDbLine
 10
363.0863358866713
 20
13.54964766694467
 30
0.0
 11
362.6113358866713
 21
13.54964766694467
 31
0.0
  0
LINE
  5
2824
330
15
100
AcDbEntity
 67
     1
  8
ﾀｲﾄﾙ枠
  6
Continuous
370
    40
100
AcDbLine
 10
362.6113358866713
 20
13.54964766694467
 30
0.0
 11
362.6113358866713
 21
12.56464766694466
 31
0.0
  0
LINE
  5
2825
330
15
100
AcDbEntity
 67
     1
  8
ﾀｲﾄﾙ枠
  6
Continuous
370
    40
100
AcDbLine
 10
362.6113358866713
 20
12.56464766694466
 30
0.0
 11
362.0927787115306
 21
12.56464766694466
 31
0.0
  0
LINE
  5
2826
330
15
100
AcDbEntity
 67
     1
  8
ﾀｲﾄﾙ枠
  6
Continuous
370
    40
100
AcDbLine
 10
361.4463724615307
 20
13.54964766694467
 30
0.0
 11
362.7752787115306
 21
11.52464766694464
 31
0.0
  0
LINE
  5
2827
330
15
100
AcDbEntity
 67
     1
  8
ﾀｲﾄﾙ枠
  6
Continuous
370
    40
100
AcDbLine
 10
361.4413358866713
 20
10.74464766694467
 30
0.0
 11
363.0663358866713
 21
10.74464766694467
 31
0.0
  0
LINE
  5
2828
330
15
100
AcDbEntity
 67
     1
  8
ﾀｲﾄﾙ枠
  6
Continuous
370
    40
100
AcDbLine
 10
361.269451735343
 20
13.29964766694468
 30
0.0
 11
362.2940611103426
 21
11.77464766694464
 31
0.0
  0
LINE
  5
2829
330
15
100
AcDbEntity
 67
     1
  8
ﾀｲﾄﾙ枠
  6
Continuous
370
    40
100
AcDbLine
 10
363.0663358866713
 20
8.459647666944647
 30
0.0
 11
363.9963358866713
 21
8.459647666944647
 31
0.0
  0
LINE
  5
282A
330
15
100
AcDbEntity
 67
     1
  8
ﾀｲﾄﾙ枠
  6
Continuous
370
    40
100
AcDbLine
 10
363.0663358866713
 20
11.52464766694464
 30
0.0
 11
363.0663358866713
 21
8.459647666944647
 31
0.0
  0
LINE
  5
282B
330
15
100
AcDbEntity
 67
     1
  8
ﾀｲﾄﾙ枠
  6
Continuous
370
    40
100
AcDbLine
 10
363.9963358866713
 20
8.459647666944647
 30
0.0
 11
363.9963358866713
 21
11.52464766694464
 31
0.0
  0
LINE
  5
282C
330
15
100
AcDbEntity
 67
     1
  8
ﾀｲﾄﾙ枠
  6
Continuous
370
    40
100
AcDbLine
 10
363.5313358866714
 20
11.27464766694464
 30
0.0
 11
363.5313358866714
 21
8.709647666944647
 31
0.0
  0
LINE
  5
282D
330
15
100
AcDbEntity
 67
     1
  8
ﾀｲﾄﾙ枠
  6
Continuous
370
    40
100
AcDbLine
 10
363.7313358866713
 20
11.27464766694464
 30
0.0
 11
363.7313358866713
 21
8.709647666944647
 31
0.0
  0
LINE
  5
282E
330
15
100
AcDbEntity
 67
     1
  8
ﾀｲﾄﾙ枠
  6
Continuous
370
    40
100
AcDbLine
 10
363.3313358866713
 20
11.27464766694464
 30
0.0
 11
363.3313358866713
 21
8.709647666944647
 31
0.0
  0
LINE
  5
282F
330
15
100
AcDbEntity
 67
     1
  8
ﾀｲﾄﾙ枠
  6
Continuous
370
    40
100
AcDbLine
 10
364.969893061812
 20
12.56464766694466
 30
0.0
 11
364.4513358866713
 21
12.56464766694466
 31
0.0
  0
LINE
  5
2830
330
15
100
AcDbEntity
 67
     1
  8
ﾀｲﾄﾙ枠
  6
Continuous
370
    40
100
AcDbLine
 10
364.287393061812
 20
11.52464766694464
 30
0.0
 11
365.6162993118121
 21
13.54964766694467
 31
0.0
  0
LINE
  5
2831
330
15
100
AcDbEntity
 67
     1
  8
ﾀｲﾄﾙ枠
  6
Continuous
370
    40
100
AcDbLine
 10
363.9963358866713
 20
10.74464766694467
 30
0.0
 11
365.6213358866713
 21
10.74464766694467
 31
0.0
  0
LINE
  5
2832
330
15
100
AcDbEntity
 67
     1
  8
ﾀｲﾄﾙ枠
  6
Continuous
370
    40
100
AcDbLine
 10
360.7913358866714
 20
8.64044258652666
 30
0.0
 11
360.7913358866714
 21
9.104567033076989
 31
0.0
  0
LINE
  5
2833
330
15
100
AcDbEntity
 67
     1
  8
ﾀｲﾄﾙ枠
  6
Continuous
370
    40
100
AcDbLine
 10
359.0313358866714
 20
11.72964766694462
 30
0.0
 11
358.059788291929
 21
11.72964766694462
 31
0.0
  0
LINE
  5
2834
330
15
100
AcDbEntity
 67
     1
  8
ﾀｲﾄﾙ枠
  6
Continuous
370
    40
100
AcDbLine
 10
358.059788291929
 20
11.72964766694462
 30
0.0
 11
358.749788291929
 21
12.87964766694466
 31
0.0
  0
LINE
  5
2835
330
15
100
AcDbEntity
 67
     1
  8
ﾀｲﾄﾙ枠
  6
Continuous
370
    40
100
AcDbLine
 10
357.8668163378941
 20
11.95964766694464
 30
0.0
 11
358.246316337894
 21
12.64964766694464
 31
0.0
  0
LINE
  5
2836
330
15
100
AcDbEntity
 67
     1
  8
ﾀｲﾄﾙ枠
  6
Continuous
370
    40
100
AcDbLine
 10
359.0313358866714
 20
10.53964766694463
 30
0.0
 11
359.0313358866714
 21
10.55964766694467
 31
0.0
  0
LINE
  5
2837
330
15
100
AcDbEntity
 67
     1
  8
ﾀｲﾄﾙ枠
  6
Continuous
370
    40
100
AcDbLine
 10
359.0313358866714
 20
11.70964766694464
 30
0.0
 11
359.0313358866714
 21
11.72964766694462
 31
0.0
  0
LINE
  5
2838
330
15
100
AcDbEntity
 67
     1
  8
ﾀｲﾄﾙ枠
  6
Continuous
370
    40
100
AcDbLine
 10
358.749788291929
 20
12.87964766694466
 30
0.0
 11
359.0313358866714
 21
12.87964766694466
 31
0.0
  0
LINE
  5
2839
330
15
100
AcDbEntity
 67
     1
  8
ﾀｲﾄﾙ枠
  6
Continuous
370
    40
100
AcDbLine
 10
359.0313358866714
 20
12.87964766694466
 30
0.0
 11
359.0313358866714
 21
12.89964766694464
 31
0.0
  0
LINE
  5
283A
330
15
100
AcDbEntity
 67
     1
  8
ﾀｲﾄﾙ枠
  6
Continuous
370
    40
100
AcDbLine
 10
359.0313358866714
 20
8.459647666944647
 30
0.0
 11
359.0313358866714
 21
8.479647666944629
 31
0.0
  0
LINE
  5
283B
330
15
100
AcDbEntity
 67
     1
  8
ﾀｲﾄﾙ枠
  6
Continuous
370
    40
100
AcDbLine
 10
358.7713358866714
 20
9.499647666944667
 30
0.0
 11
358.7713358866714
 21
9.519647666944649
 31
0.0
  0
LINE
  5
283C
330
15
100
AcDbEntity
 67
     1
  8
ﾀｲﾄﾙ枠
  6
Continuous
370
    40
100
AcDbLine
 10
360.756593509155
 20
13.54964766694467
 30
0.0
 11
361.4463724615307
 21
13.54964766694467
 31
0.0
  0
LINE
  5
283D
330
15
100
AcDbEntity
 67
     1
  8
ﾀｲﾄﾙ枠
  6
Continuous
370
    40
100
AcDbLine
 10
362.148781009155
 20
11.52464766694464
 30
0.0
 11
360.756593509155
 21
13.54964766694467
 31
0.0
  0
LINE
  5
283E
330
15
100
AcDbEntity
 67
     1
  8
ﾀｲﾄﾙ枠
  6
Continuous
370
    40
100
AcDbLine
 10
361.433781009155
 20
12.56464766694466
 30
0.0
 11
360.5313358866713
 21
12.56464766694466
 31
0.0
  0
LINE
  5
283F
330
15
100
AcDbEntity
 67
     1
  8
ﾀｲﾄﾙ枠
  6
Continuous
370
    40
100
AcDbLine
 10
363.0663358866713
 20
9.940442586526671
 30
0.0
 11
360.7913358866714
 21
8.64044258652666
 31
0.0
  0
LINE
  5
2840
330
15
100
AcDbEntity
 67
     1
  8
ﾀｲﾄﾙ枠
  6
Continuous
370
    40
100
AcDbLine
 10
360.7913358866714
 20
9.104567033076989
 30
0.0
 11
362.2964769959399
 21
9.964647666944642
 31
0.0
  0
LINE
  5
2841
330
15
100
AcDbEntity
 67
     1
  8
ﾀｲﾄﾙ枠
  6
Continuous
370
    40
100
AcDbLine
 10
363.0663358866713
 20
9.964647666944642
 30
0.0
 11
360.7913358866714
 21
9.964647666944642
 31
0.0
  0
LINE
  5
2842
330
15
100
AcDbEntity
 67
     1
  8
ﾀｲﾄﾙ枠
  6
Continuous
370
    40
100
AcDbLine
 10
369.4813358866714
 20
11.03964766694463
 30
0.0
 11
369.0913358866713
 21
11.55964766694467
 31
0.0
  0
LINE
  5
2843
330
15
100
AcDbEntity
 67
     1
  8
ﾀｲﾄﾙ枠
  6
Continuous
370
    40
100
AcDbLine
 10
369.0913358866713
 20
13.54964766694467
 30
0.0
 11
369.0913358866713
 21
12.36964766694467
 31
0.0
  0
LINE
  5
2844
330
15
100
AcDbEntity
 67
     1
  8
ﾀｲﾄﾙ枠
  6
Continuous
370
    40
100
AcDbLine
 10
369.0913358866713
 20
11.55964766694467
 30
0.0
 11
369.0913358866713
 21
8.459647666944647
 31
0.0
  0
LINE
  5
2845
330
15
100
AcDbEntity
 67
     1
  8
ﾀｲﾄﾙ枠
  6
Continuous
370
    40
100
AcDbLine
 10
370.3713358866713
 20
12.36964766694467
 30
0.0
 11
370.3713358866713
 21
13.54964766694467
 31
0.0
  0
LINE
  5
2846
330
15
100
AcDbEntity
 67
     1
  8
ﾀｲﾄﾙ枠
  6
Continuous
370
    40
100
AcDbLine
 10
370.3713358866713
 20
13.54964766694467
 30
0.0
 11
370.7813358866713
 21
13.54964766694467
 31
0.0
  0
LINE
  5
2847
330
15
100
AcDbEntity
 67
     1
  8
ﾀｲﾄﾙ枠
  6
Continuous
370
    40
100
AcDbLine
 10
370.7813358866713
 20
13.54964766694467
 30
0.0
 11
370.7813358866713
 21
12.36964766694467
 31
0.0
  0
LINE
  5
2848
330
15
100
AcDbEntity
 67
     1
  8
ﾀｲﾄﾙ枠
  6
Continuous
370
    40
100
AcDbLine
 10
371.8013358866713
 20
10.03964766694463
 30
0.0
 11
370.925844383859
 21
10.03964766694463
 31
0.0
  0
LINE
  5
2849
330
15
100
AcDbEntity
 67
     1
  8
ﾀｲﾄﾙ枠
  6
Continuous
370
    40
100
AcDbLine
 10
371.8013358866713
 20
13.54964766694467
 30
0.0
 11
372.4713358866714
 21
13.54964766694467
 31
0.0
  0
LINE
  5
284A
330
15
100
AcDbEntity
 67
     1
  8
ﾀｲﾄﾙ枠
  6
Continuous
370
    40
100
AcDbLine
 10
369.4813358866714
 20
11.50631433361132
 30
0.0
 11
369.4813358866714
 21
11.03964766694463
 31
0.0
  0
LINE
  5
284B
330
15
100
AcDbEntity
 67
     1
  8
ﾀｲﾄﾙ枠
  6
Continuous
370
    40
100
AcDbLine
 10
370.1358443838587
 20
8.459647666944647
 30
0.0
 11
370.5942383192464
 21
8.459647666944647
 31
0.0
  0
LINE
  5
284C
330
15
100
AcDbEntity
 67
     1
  8
ﾀｲﾄﾙ枠
  6
Continuous
370
    40
100
AcDbLine
 10
372.4713358866714
 20
8.459647666944647
 30
0.0
 11
371.8013358866713
 21
8.459647666944647
 31
0.0
  0
LINE
  5
284D
330
15
100
AcDbEntity
 67
     1
  8
ﾀｲﾄﾙ枠
  6
Continuous
370
    40
100
AcDbLine
 10
370.925844383859
 20
10.03964766694463
 30
0.0
 11
370.1358443838587
 21
8.459647666944647
 31
0.0
  0
LINE
  5
284E
330
15
100
AcDbEntity
 67
     1
  8
ﾀｲﾄﾙ枠
  6
Continuous
370
    40
100
AcDbLine
 10
370.5942383192464
 20
8.459647666944647
 30
0.0
 11
371.3842383192464
 21
10.03964766694463
 31
0.0
  0
LINE
  5
284F
330
15
100
AcDbEntity
 67
     1
  8
ﾀｲﾄﾙ枠
  6
Continuous
370
    40
100
AcDbLine
 10
372.1363358866714
 20
8.709647666944647
 30
0.0
 11
372.1363358866714
 21
13.29964766694468
 31
0.0
  0
LINE
  5
2850
330
15
100
AcDbEntity
 67
     1
  8
ﾀｲﾄﾙ枠
  6
Continuous
370
    40
100
AcDbLine
 10
372.4713358866714
 20
13.54964766694467
 30
0.0
 11
372.4713358866714
 21
8.459647666944647
 31
0.0
  0
LINE
  5
2851
330
15
100
AcDbEntity
 67
     1
  8
ﾀｲﾄﾙ枠
  6
Continuous
370
    40
100
AcDbLine
 10
371.8013358866713
 20
8.459647666944647
 30
0.0
 11
371.8013358866713
 21
13.54964766694467
 31
0.0
  0
LINE
  5
2852
330
15
100
AcDbEntity
 67
     1
  8
ﾀｲﾄﾙ枠
  6
Continuous
370
    40
100
AcDbLine
 10
373.4827055776827
 20
8.459647666944647
 30
0.0
 11
372.8902055776827
 21
10.03964766694463
 31
0.0
  0
LINE
  5
2853
330
15
100
AcDbEntity
 67
     1
  8
ﾀｲﾄﾙ枠
  6
Continuous
370
    40
100
AcDbLine
 10
373.6413358866714
 20
12.36964766694467
 30
0.0
 11
370.3713358866713
 21
12.36964766694467
 31
0.0
  0
LINE
  5
2854
330
15
100
AcDbEntity
 67
     1
  8
ﾀｲﾄﾙ枠
  6
Continuous
370
    40
100
AcDbLine
 10
370.3713358866713
 20
11.19964766694465
 30
0.0
 11
373.5113358866714
 21
11.19964766694465
 31
0.0
  0
LINE
  5
2855
330
15
100
AcDbEntity
 67
     1
  8
ﾀｲﾄﾙ枠
  6
Continuous
370
    40
100
AcDbLine
 10
372.4713358866714
 20
10.03964766694463
 30
0.0
 11
373.3280857696303
 21
10.03964766694463
 31
0.0
  0
LINE
  5
2856
330
15
100
AcDbEntity
 67
     1
  8
ﾀｲﾄﾙ枠
  6
Continuous
370
    40
100
AcDbLine
 10
368.5513358866713
 20
12.36964766694467
 30
0.0
 11
368.5513358866713
 21
13.54964766694467
 31
0.0
  0
LINE
  5
2857
330
15
100
AcDbEntity
 67
     1
  8
ﾀｲﾄﾙ枠
  6
Continuous
370
    40
100
AcDbLine
 10
368.5513358866713
 20
8.459647666944647
 30
0.0
 11
368.5513358866713
 21
10.45103877621301
 31
0.0
  0
LINE
  5
2858
330
15
100
AcDbEntity
 67
     1
  8
ﾀｲﾄﾙ枠
  6
Continuous
370
    40
100
AcDbLine
 10
368.8213358866713
 20
13.29964766694468
 30
0.0
 11
368.8213358866713
 21
8.709647666944647
 31
0.0
  0
LINE
  5
2859
330
15
100
AcDbEntity
 67
     1
  8
ﾀｲﾄﾙ枠
  6
Continuous
370
    40
100
AcDbLine
 10
366.2713358866714
 20
8.64044258652666
 30
0.0
 11
366.2713358866714
 21
9.104567033076989
 31
0.0
  0
LINE
  5
285A
330
15
100
AcDbEntity
 67
     1
  8
ﾀｲﾄﾙ枠
  6
Continuous
370
    40
100
AcDbLine
 10
368.0313358866714
 20
9.541038776213326
 30
0.0
 11
368.0313358866714
 21
10.76150206605297
 31
0.0
  0
LINE
  5
285B
330
15
100
AcDbEntity
 67
     1
  8
ﾀｲﾄﾙ枠
  6
Continuous
370
    40
100
AcDbLine
 10
368.0313358866714
 20
10.76150206605297
 30
0.0
 11
368.674594127028
 21
12.36964766694467
 31
0.0
  0
LINE
  5
285C
330
15
100
AcDbEntity
 67
     1
  8
ﾀｲﾄﾙ枠
  6
Continuous
370
    40
100
AcDbLine
 10
368.2813358866714
 20
10.49245412255265
 30
0.0
 11
368.6129650068497
 21
11.21034322157896
 31
0.0
  0
LINE
  5
285D
330
15
100
AcDbEntity
 67
     1
  8
ﾀｲﾄﾙ枠
  6
Continuous
370
    40
100
AcDbLine
 10
368.5513358866713
 20
10.45103877621301
 30
0.0
 11
368.0313358866714
 21
9.541038776213326
 31
0.0
  0
LINE
  5
285E
330
15
100
AcDbEntity
 67
     1
  8
ﾀｲﾄﾙ枠
  6
Continuous
370
    40
100
AcDbLine
 10
368.8338358866714
 20
12.36964766694467
 30
0.0
 11
369.4813358866714
 21
11.50631433361132
 31
0.0
  0
LINE
  5
285F
330
15
100
AcDbEntity
 67
     1
  8
ﾀｲﾄﾙ枠
  6
Continuous
370
    40
100
AcDbLine
 10
369.4813358866714
 20
12.36964766694467
 30
0.0
 11
368.0313358866714
 21
12.36964766694467
 31
0.0
  0
LINE
  5
2860
330
15
100
AcDbEntity
 67
     1
  8
ﾀｲﾄﾙ枠
  6
Continuous
370
    40
100
AcDbLine
 10
368.5513358866713
 20
13.54964766694467
 30
0.0
 11
369.0913358866713
 21
13.54964766694467
 31
0.0
  0
LINE
  5
2861
330
15
100
AcDbEntity
 67
     1
  8
ﾀｲﾄﾙ枠
  6
Continuous
370
    40
100
AcDbLine
 10
369.0913358866713
 20
8.459647666944647
 30
0.0
 11
368.5513358866713
 21
8.459647666944647
 31
0.0
  0
LINE
  5
2862
330
15
100
AcDbEntity
 67
     1
  8
ﾀｲﾄﾙ枠
100
AcDbLine
 10
386.0
 20
17.0
 30
0.0
 11
386.0
 21
29.0
 31
0.0
  0
LINE
  5
2863
330
15
100
AcDbEntity
 67
     1
  8
ﾀｲﾄﾙ枠
100
AcDbLine
 10
381.0
 20
17.0
 30
0.0
 11
381.0
 21
29.0
 31
0.0
  0
LINE
  5
2864
330
15
100
AcDbEntity
 67
     1
  8
ﾀｲﾄﾙ枠
  6
Continuous
370
    40
100
AcDbLine
 10
377.3713358866713
 20
9.867454100704321
 30
0.0
 11
377.3713358866713
 21
11.45964766694464
 31
0.0
  0
LINE
  5
2865
330
15
100
AcDbEntity
 67
     1
  8
ﾀｲﾄﾙ枠
  6
Continuous
370
    40
100
AcDbLine
 10
381.1413358866714
 20
13.28964766694463
 30
0.0
 11
381.1413358866714
 21
13.13964766694465
 31
0.0
  0
LINE
  5
2866
330
15
100
AcDbEntity
 67
     1
  8
ﾀｲﾄﾙ枠
  6
Continuous
370
    40
100
AcDbLine
 10
379.6457419628897
 20
13.54964766694467
 30
0.0
 11
379.9994628931224
 21
12.37964766694466
 31
0.0
  0
LINE
  5
2867
330
15
100
AcDbEntity
 67
     1
  8
ﾀｲﾄﾙ枠
  6
Continuous
370
    40
100
AcDbLine
 10
379.0918135313834
 20
12.37964766694466
 30
0.0
 11
378.7380926011507
 21
13.54964766694467
 31
0.0
  0
LINE
  5
2868
330
15
100
AcDbEntity
 67
     1
  8
ﾀｲﾄﾙ枠
  6
Continuous
370
    40
100
AcDbLine
 10
378.7380926011507
 20
13.54964766694467
 30
0.0
 11
379.6457419628897
 21
13.54964766694467
 31
0.0
  0
LINE
  5
2869
330
15
100
AcDbEntity
 67
     1
  8
ﾀｲﾄﾙ枠
  6
Continuous
370
    40
100
AcDbLine
 10
380.6013358866714
 20
13.13964766694465
 30
0.0
 11
380.6013358866714
 21
13.28964766694463
 31
0.0
  0
LINE
  5
286A
330
15
100
AcDbEntity
 67
     1
  8
ﾀｲﾄﾙ枠
  6
Continuous
370
    40
100
AcDbLine
 10
378.5413358866713
 20
10.00785410070432
 30
0.0
 11
378.5413358866713
 21
9.064598642624332
 31
0.0
  0
LINE
  5
286B
330
15
100
AcDbEntity
 67
     1
  8
ﾀｲﾄﾙ枠
  6
Continuous
370
    40
100
AcDbLine
 10
380.276929810453
 20
8.459647666944647
 30
0.0
 11
379.097860043011
 21
12.35964766694462
 31
0.0
  0
LINE
  5
286C
330
15
100
AcDbEntity
 67
     1
  8
ﾀｲﾄﾙ枠
  6
Continuous
370
    40
100
AcDbLine
 10
379.2586997097745
 20
13.32875194437275
 30
0.0
 11
380.6639720635682
 21
8.680543389516572
 31
0.0
  0
LINE
  5
286D
330
15
100
AcDbEntity
 67
     1
  8
ﾀｲﾄﾙ枠
  6
Continuous
370
    40
100
AcDbLine
 10
379.4894697531235
 20
13.32875194437275
 30
0.0
 11
380.8947421069173
 21
8.680543389516572
 31
0.0
  0
LINE
  5
286E
330
15
100
AcDbEntity
 67
     1
  8
ﾀｲﾄﾙ枠
  6
Continuous
370
    40
100
AcDbLine
 10
379.0279296664254
 20
13.32875194437275
 30
0.0
 11
380.4332020202191
 21
8.680543389516572
 31
0.0
  0
LINE
  5
286F
330
15
100
AcDbEntity
 67
     1
  8
ﾀｲﾄﾙ枠
  6
Continuous
370
    40
100
AcDbLine
 10
380.0055094047504
 20
12.35964766694462
 30
0.0
 11
381.184579172192
 21
8.459647666944647
 31
0.0
  0
LINE
  5
2870
330
15
100
AcDbEntity
 67
     1
  8
ﾀｲﾄﾙ枠
  6
Continuous
370
    40
100
AcDbLine
 10
381.184579172192
 20
8.459647666944647
 30
0.0
 11
380.276929810453
 21
8.459647666944647
 31
0.0
  0
LINE
  5
2871
330
15
100
AcDbEntity
 67
     1
  8
ﾀｲﾄﾙ枠
  6
Continuous
370
    40
100
AcDbLine
 10
381.1413358866714
 20
13.13964766694465
 30
0.0
 11
380.6013358866714
 21
13.13964766694465
 31
0.0
  0
LINE
  5
2872
330
15
100
AcDbEntity
 67
     1
  8
ﾀｲﾄﾙ枠
  6
Continuous
370
    40
100
AcDbLine
 10
380.6013358866714
 20
13.28964766694463
 30
0.0
 11
381.1413358866714
 21
13.28964766694463
 31
0.0
  0
LINE
  5
2873
330
15
100
AcDbEntity
 67
     1
  8
ﾀｲﾄﾙ枠
  6
Continuous
370
    40
100
AcDbLine
 10
376.9713358866713
 20
11.20964766694464
 30
0.0
 11
376.9713358866713
 21
9.819454100704319
 31
0.0
  0
LINE
  5
2874
330
15
100
AcDbEntity
 67
     1
  8
ﾀｲﾄﾙ枠
  6
Continuous
370
    40
100
AcDbLine
 10
375.7913358866713
 20
8.514598642624321
 30
0.0
 11
375.7913358866713
 21
9.677854100704337
 31
0.0
  0
LINE
  5
2875
330
15
100
AcDbEntity
 67
     1
  8
ﾀｲﾄﾙ枠
  6
Continuous
370
    40
100
AcDbLine
 10
376.5713358866713
 20
9.771454100704318
 30
0.0
 11
376.5713358866713
 21
11.45964766694464
 31
0.0
  0
LINE
  5
2876
330
15
100
AcDbEntity
 67
     1
  8
ﾀｲﾄﾙ枠
  6
Continuous
370
    40
100
AcDbLine
 10
378.5413358866713
 20
11.45964766694464
 30
0.0
 11
375.7913358866713
 21
11.45964766694464
 31
0.0
  0
LINE
  5
2877
330
15
100
AcDbEntity
 67
     1
  8
ﾀｲﾄﾙ枠
  6
Continuous
370
    40
100
AcDbLine
 10
378.5413358866713
 20
9.064598642624332
 30
0.0
 11
375.7913358866713
 21
8.514598642624321
 31
0.0
  0
LINE
  5
2878
330
15
100
AcDbEntity
 67
     1
  8
ﾀｲﾄﾙ枠
  6
Continuous
370
    40
100
AcDbLine
 10
375.7913358866713
 20
9.677854100704337
 30
0.0
 11
378.5413358866713
 21
10.00785410070432
 31
0.0
  0
LINE
  5
2879
330
15
100
AcDbEntity
 67
     1
  8
ﾀｲﾄﾙ枠
  6
Continuous
370
    40
100
AcDbLine
 10
378.2913358866713
 20
9.496226371664306
 30
0.0
 11
376.0413358866713
 21
9.136226371664292
 31
0.0
  0
LINE
  5
287A
330
15
100
AcDbEntity
 67
     1
  8
ﾀｲﾄﾙ枠
  6
Continuous
370
    40
100
AcDbLine
 10
378.2564364607699
 20
9.714347783548419
 30
0.0
 11
376.0064364607699
 21
9.354347783548405
 31
0.0
  0
LINE
  5
287B
330
15
100
AcDbEntity
 67
     1
  8
ﾀｲﾄﾙ枠
  6
Continuous
370
    40
100
AcDbLine
 10
378.3262353125728
 20
9.278104959780193
 30
0.0
 11
376.0762353125728
 21
8.918104959780237
 31
0.0
  0
LINE
  5
287C
330
15
100
AcDbEntity
 67
     1
  8
ﾀｲﾄﾙ枠
  6
Continuous
370
    40
100
AcDbLine
 10
375.7913358866713
 20
12.36964766694467
 30
0.0
 11
381.1413358866714
 21
12.36964766694467
 31
0.0
  0
LINE
  5
287D
330
15
100
AcDbEntity
 67
     1
  8
ﾀｲﾄﾙ枠
  6
Continuous
370
    40
100
AcDbLine
 10
386.7462216210357
 20
13.54964766694467
 30
0.0
 11
388.7713358866714
 21
12.41796616555996
 31
0.0
  0
LINE
  5
287E
330
15
100
AcDbEntity
 67
     1
  8
ﾀｲﾄﾙ枠
  6
Continuous
370
    40
100
AcDbLine
 10
388.7713358866714
 20
12.41796616555996
 30
0.0
 11
388.7713358866714
 21
11.669156164132
 31
0.0
  0
LINE
  5
287F
330
15
100
AcDbEntity
 67
     1
  8
ﾀｲﾄﾙ枠
  6
Continuous
370
    40
100
AcDbLine
 10
388.7713358866714
 20
11.669156164132
 30
0.0
 11
386.0313358866714
 21
13.03915616413201
 31
0.0
  0
LINE
  5
2880
330
15
100
AcDbEntity
 67
     1
  8
ﾀｲﾄﾙ枠
  6
Continuous
370
    40
100
AcDbLine
 10
385.8035088908683
 20
13.29964766694468
 30
0.0
 11
386.2591628824744
 21
13.29964766694468
 31
0.0
  0
LINE
  5
2881
330
15
100
AcDbEntity
 67
     1
  8
ﾀｲﾄﾙ枠
  6
Continuous
370
    40
100
AcDbLine
 10
386.2591628824744
 20
13.29964766694468
 30
0.0
 11
388.5213358866714
 21
12.16856116484598
 31
0.0
  0
LINE
  5
2882
330
15
100
AcDbEntity
 67
     1
  8
ﾀｲﾄﾙ枠
  6
Continuous
370
    40
100
AcDbLine
 10
387.7313358866714
 20
11.40464766694464
 30
0.0
 11
387.7313358866714
 21
11.51464766694465
 31
0.0
  0
LINE
  5
2883
330
15
100
AcDbEntity
 67
     1
  8
ﾀｲﾄﾙ枠
  6
Continuous
370
    40
100
AcDbLine
 10
386.8578936394833
 20
10.53964766694463
 30
0.0
 11
388.4966436394833
 21
8.469647666944638
 31
0.0
  0
LINE
  5
2884
330
15
100
AcDbEntity
 67
     1
  8
ﾀｲﾄﾙ枠
  6
Continuous
370
    40
100
AcDbLine
 10
386.1443614671923
 20
10.54964766694467
 30
0.0
 11
387.7910281338594
 21
8.469647666944638
 31
0.0
  0
LINE
  5
2885
330
15
100
AcDbEntity
 67
     1
  8
ﾀｲﾄﾙ枠
  6
Continuous
370
    40
100
AcDbLine
 10
387.938002553338
 20
8.729647666944629
 30
0.0
 11
386.6410128864207
 21
10.36795040410334
 31
0.0
  0
LINE
  5
2886
330
15
100
AcDbEntity
 67
     1
  8
ﾀｲﾄﾙ枠
  6
Continuous
370
    40
100
AcDbLine
 10
383.2913358866714
 20
11.669156164132
 30
0.0
 11
383.2913358866714
 21
12.41796616555996
 31
0.0
  0
LINE
  5
2887
330
15
100
AcDbEntity
 67
     1
  8
ﾀｲﾄﾙ枠
  6
Continuous
370
    40
100
AcDbLine
 10
384.3313358866713
 20
11.51464766694465
 30
0.0
 11
384.3313358866713
 21
11.40464766694464
 31
0.0
  0
LINE
  5
2888
330
15
100
AcDbEntity
 67
     1
  8
ﾀｲﾄﾙ枠
  6
Continuous
370
    40
100
AcDbLine
 10
383.2913358866714
 20
12.41796616555996
 30
0.0
 11
385.3164501523071
 21
13.54964766694467
 31
0.0
  0
LINE
  5
2889
330
15
100
AcDbEntity
 67
     1
  8
ﾀｲﾄﾙ枠
  6
Continuous
370
    40
100
AcDbLine
 10
383.566028133859
 20
8.469647666944638
 30
0.0
 11
385.2047781338594
 21
10.53964766694463
 31
0.0
  0
LINE
  5
288A
330
15
100
AcDbEntity
 67
     1
  8
ﾀｲﾄﾙ枠
  6
Continuous
370
    40
100
AcDbLine
 10
385.421658886922
 20
10.36795040410334
 30
0.0
 11
384.1246692200046
 21
8.729647666944629
 31
0.0
  0
LINE
  5
288B
330
15
100
AcDbEntity
 67
     1
  8
ﾀｲﾄﾙ枠
  6
Continuous
370
    40
100
AcDbLine
 10
385.3164501523071
 20
13.54964766694467
 30
0.0
 11
386.7462216210357
 21
13.54964766694467
 31
0.0
  0
LINE
  5
288C
330
15
100
AcDbEntity
 67
     1
  8
ﾀｲﾄﾙ枠
  6
Continuous
370
    40
100
AcDbLine
 10
388.7713358866714
 20
10.54964766694467
 30
0.0
 11
383.2913358866714
 21
10.54964766694467
 31
0.0
  0
LINE
  5
288D
330
15
100
AcDbEntity
 67
     1
  8
ﾀｲﾄﾙ枠
  6
Continuous
370
    40
100
AcDbLine
 10
386.0313358866714
 20
13.03915616413201
 30
0.0
 11
383.2913358866714
 21
11.669156164132
 31
0.0
  0
LINE
  5
288E
330
15
100
AcDbEntity
 67
     1
  8
ﾀｲﾄﾙ枠
  6
Continuous
370
    40
100
AcDbLine
 10
383.5413358866714
 20
12.16856116484598
 30
0.0
 11
385.8035088908683
 21
13.29964766694468
 31
0.0
  0
LINE
  5
288F
330
15
100
AcDbEntity
 67
     1
  8
ﾀｲﾄﾙ枠
  6
Continuous
370
    40
100
AcDbLine
 10
387.7313358866714
 20
11.51464766694465
 30
0.0
 11
384.3313358866713
 21
11.51464766694465
 31
0.0
  0
LINE
  5
2890
330
15
100
AcDbEntity
 67
     1
  8
ﾀｲﾄﾙ枠
  6
Continuous
370
    40
100
AcDbLine
 10
384.3313358866713
 20
11.40464766694464
 30
0.0
 11
387.7313358866714
 21
11.40464766694464
 31
0.0
  0
LINE
  5
2891
330
15
100
AcDbEntity
 67
     1
  8
ﾀｲﾄﾙ枠
  6
Continuous
370
    40
100
AcDbLine
 10
388.4966436394833
 20
8.469647666944638
 30
0.0
 11
383.566028133859
 21
8.469647666944638
 31
0.0
  0
LINE
  5
2892
330
15
100
AcDbEntity
 67
     1
  8
ﾀｲﾄﾙ枠
  6
Continuous
370
    40
100
AcDbLine
 10
384.2716436394837
 20
8.469647666944638
 30
0.0
 11
385.9183103061504
 21
10.54964766694467
 31
0.0
  0
TEXT
  5
2893
330
15
100
AcDbEntity
 67
     1
  8
ﾀｲﾄﾙ枠
100
AcDbText
 10
382.2219101123595
 20
27.14325842696629
 30
0.0
 40
2.5
  1
尺 度
 50
270.0
  7
明朝TATE
 72
     4
 11
383.4999999999999
 21
23.0
 31
0.0
100
AcDbText
  0
LINE
  5
2894
330
15
100
AcDbEntity
 67
     1
  8
ﾀｲﾄﾙ枠
  6
Continuous
370
    40
100
AcDbLine
 10
394.5613358866713
 20
13.54964766694467
 30
0.0
 11
395.4913358866713
 21
13.54964766694467
 31
0.0
  0
LINE
  5
2895
330
15
100
AcDbEntity
 67
     1
  8
ﾀｲﾄﾙ枠
  6
Continuous
370
    40
100
AcDbLine
 10
394.0413358866713
 20
11.84964766694463
 30
0.0
 11
396.4013358866714
 21
11.84964766694463
 31
0.0
  0
LINE
  5
2896
330
15
100
AcDbEntity
 67
     1
  8
ﾀｲﾄﾙ枠
  6
Continuous
370
    40
100
AcDbLine
 10
396.5313358866714
 20
8.40464766694464
 30
0.0
 11
393.9113358866713
 21
8.40464766694464
 31
0.0
  0
LINE
  5
2897
330
15
100
AcDbEntity
 67
     1
  8
ﾀｲﾄﾙ枠
  6
Continuous
370
    40
100
AcDbLine
 10
394.5613358866713
 20
8.40464766694464
 30
0.0
 11
394.5613358866713
 21
13.54964766694467
 31
0.0
  0
LINE
  5
2898
330
15
100
AcDbEntity
 67
     1
  8
ﾀｲﾄﾙ枠
  6
Continuous
370
    40
100
AcDbLine
 10
395.4913358866713
 20
13.54964766694467
 30
0.0
 11
395.4913358866713
 21
8.40464766694464
 31
0.0
  0
LINE
  5
2899
330
15
100
AcDbEntity
 67
     1
  8
ﾀｲﾄﾙ枠
  6
Continuous
370
    40
100
AcDbLine
 10
395.0263358866714
 20
8.65464766694464
 30
0.0
 11
395.0263358866714
 21
13.29964766694468
 31
0.0
  0
LINE
  5
289A
330
15
100
AcDbEntity
 67
     1
  8
ﾀｲﾄﾙ枠
  6
Continuous
370
    40
100
AcDbLine
 10
395.2263358866714
 20
8.65464766694464
 30
0.0
 11
395.2263358866714
 21
13.29964766694468
 31
0.0
  0
LINE
  5
289B
330
15
100
AcDbEntity
 67
     1
  8
ﾀｲﾄﾙ枠
  6
Continuous
370
    40
100
AcDbLine
 10
394.8263358866713
 20
8.65464766694464
 30
0.0
 11
394.8263358866713
 21
13.29964766694468
 31
0.0
  0
LINE
  5
289C
330
15
100
AcDbEntity
 67
     1
  8
ﾀｲﾄﾙ枠
  6
Continuous
370
    40
100
AcDbLine
 10
393.465932975067
 20
9.239647666944676
 30
0.0
 11
393.3106912281047
 21
9.239647666944676
 31
0.0
  0
LINE
  5
289D
330
15
100
AcDbEntity
 67
     1
  8
ﾀｲﾄﾙ枠
  6
Continuous
370
    40
100
AcDbLine
 10
390.888192358352
 20
9.239647666944676
 30
0.0
 11
391.0463062413603
 21
9.239647666944676
 31
0.0
  0
LINE
  5
289E
330
15
100
AcDbEntity
 67
     1
  8
ﾀｲﾄﾙ枠
  6
Continuous
370
    40
100
AcDbLine
 10
391.3715256916853
 20
10.68964766694466
 30
0.0
 11
390.888192358352
 21
9.239647666944676
 31
0.0
  0
LINE
  5
289F
330
15
100
AcDbEntity
 67
     1
  8
ﾀｲﾄﾙ枠
  6
Continuous
370
    40
100
AcDbLine
 10
393.1513358866713
 20
11.84964766694463
 30
0.0
 11
391.0513358866714
 21
11.84964766694463
 31
0.0
  0
LINE
  5
28A0
330
15
100
AcDbEntity
 67
     1
  8
ﾀｲﾄﾙ枠
  6
Continuous
370
    40
100
AcDbLine
 10
393.0792663084003
 20
10.68964766694466
 30
0.0
 11
392.6313358866713
 21
10.68964766694466
 31
0.0
  0
LINE
  5
28A1
330
15
100
AcDbEntity
 67
     1
  8
ﾀｲﾄﾙ枠
  6
Continuous
370
    40
100
AcDbLine
 10
391.8313358866713
 20
10.68964766694466
 30
0.0
 11
391.3715256916853
 21
10.68964766694466
 31
0.0
  0
LINE
  5
28A2
330
15
100
AcDbEntity
 67
     1
  8
ﾀｲﾄﾙ枠
  6
Continuous
370
    40
100
AcDbLine
 10
391.3113358866713
 20
13.53964766694463
 30
0.0
 11
393.0213358866714
 21
13.53964766694463
 31
0.0
  0
LINE
  5
28A3
330
15
100
AcDbEntity
 67
     1
  8
ﾀｲﾄﾙ枠
  6
Continuous
370
    40
100
AcDbLine
 10
391.8313358866713
 20
8.459647666944647
 30
0.0
 11
392.6313358866713
 21
8.459647666944647
 31
0.0
  0
LINE
  5
28A4
330
15
100
AcDbEntity
 67
     1
  8
ﾀｲﾄﾙ枠
  6
Continuous
370
    40
100
AcDbLine
 10
391.8313358866713
 20
11.84964766694463
 30
0.0
 11
391.8313358866713
 21
8.459647666944647
 31
0.0
  0
LINE
  5
28A5
330
15
100
AcDbEntity
 67
     1
  8
ﾀｲﾄﾙ枠
  6
Continuous
370
    40
100
AcDbLine
 10
392.6313358866713
 20
8.459647666944647
 30
0.0
 11
392.6313358866713
 21
11.84964766694463
 31
0.0
  0
LINE
  5
28A6
330
15
100
AcDbEntity
 67
     1
  8
ﾀｲﾄﾙ枠
  6
Continuous
370
    40
100
AcDbLine
 10
392.2313358866714
 20
11.59964766694463
 30
0.0
 11
392.2313358866714
 21
8.709647666944647
 31
0.0
  0
LINE
  5
28A7
330
15
100
AcDbEntity
 67
     1
  8
ﾀｲﾄﾙ枠
  6
Continuous
370
    40
100
AcDbLine
 10
391.0463062413603
 20
9.239647666944676
 30
0.0
 11
391.5296395746937
 21
10.68964766694466
 31
0.0
  0
LINE
  5
28A8
330
15
100
AcDbEntity
 67
     1
  8
ﾀｲﾄﾙ枠
  6
Continuous
370
    40
100
AcDbLine
 10
392.4313358866713
 20
11.59964766694463
 30
0.0
 11
392.4313358866713
 21
8.709647666944647
 31
0.0
  0
LINE
  5
28A9
330
15
100
AcDbEntity
 67
     1
  8
ﾀｲﾄﾙ枠
  6
Continuous
370
    40
100
AcDbLine
 10
392.0313358866714
 20
11.59964766694463
 30
0.0
 11
392.0313358866714
 21
8.709647666944647
 31
0.0
  0
LINE
  5
28AA
330
15
100
AcDbEntity
 67
     1
  8
ﾀｲﾄﾙ枠
  6
Continuous
370
    40
100
AcDbLine
 10
393.3106912281047
 20
9.239647666944676
 30
0.0
 11
392.9240245614377
 21
10.68964766694466
 31
0.0
  0
LINE
  5
28AB
330
15
100
AcDbEntity
 67
     1
  8
ﾀｲﾄﾙ枠
  6
Continuous
370
    40
100
AcDbLine
 10
393.0792663084003
 20
10.68964766694466
 30
0.0
 11
393.465932975067
 21
9.239647666944676
 31
0.0
  0
ENDSEC
  0
SECTION
  2
OBJECTS
  0
DICTIONARY
  5
C
330
0
100
AcDbDictionary
281
     1
  3
ACAD_GROUP
350
D
  3
ACAD_LAYOUT
350
2320
  3
ACAD_MLINESTYLE
350
1B
  3
ACAD_PLOTSETTINGS
350
2321
  3
ACAD_PLOTSTYLENAME
350
231E
  3
ACDBVARIABLEDICTIONARY
350
2CE
  3
CONTENTDICTIONARY
350
23
  0
DICTIONARY
  5
25EB
330
2
100
AcDbDictionary
280
     1
281
     1
  3
ACAD_LAYERFILTERS
360
25EC
  0
DICTIONARY
  5
D
102
{ACAD_REACTORS
330
C
102
}
330
C
100
AcDbDictionary
281
     1
  0
DICTIONARY
  5
2320
102
{ACAD_REACTORS
330
C
102
}
330
C
100
AcDbDictionary
281
     1
  3
Model
350
2322
  3
ﾚｲｱｳﾄ1
350
2323
  0
DICTIONARY
  5
1B
102
{ACAD_REACTORS
330
C
102
}
330
C
100
AcDbDictionary
281
     1
  3
STANDARD
350
1C
  0
DICTIONARY
  5
2321
102
{ACAD_REACTORS
330
C
102
}
330
C
100
AcDbDictionary
281
     1
  0
ACDBDICTIONARYWDFLT
  5
231E
102
{ACAD_REACTORS
330
C
102
}
330
C
100
AcDbDictionary
281
     1
  3
Normal
350
231F
100
AcDbDictionaryWithDefault
340
231F
  0
DICTIONARY
  5
2CE
102
{ACAD_REACTORS
330
C
102
}
330
C
100
AcDbDictionary
281
     1
  3
DIMADEC
350
2CF
  3
SORTENTS
350
1857
  0
DICTIONARY
  5
23
102
{ACAD_REACTORS
330
C
102
}
330
C
100
AcDbDictionary
281
     1
  0
DICTIONARY
  5
25EC
102
{ACAD_REACTORS
330
25EB
102
}
330
25EB
100
AcDbDictionary
280
     1
281
     1
  3
\U+663E示所有\U+56FE\U+5C42
360
25ED
  3
\U+9EC3色
360
25EE
  3
1
360
25EF
  3
1-L
360
25F0
  3
1stFloor
360
25F1
  3
2
360
25F2
  3
200
360
25F3
  3
2ndFloor
360
25F4
  3
3
360
25F5
  3
400
360
25F6
  3
A
360
25F7
  3
A-
360
25F8
  3
A-ELEV
360
25F9
  3
ac
360
25FA
  3
ALL-TXT
360
25FB
  3
ap平面圖
360
25FC
  3
AR-TXT
360
25FD
  3
ARCHITECTS
360
25FE
  3
area
360
25FF
  3
asd
360
2600
  3
B
360
2601
  3
Basci
360
2602
  3
base_map
360
2603
  3
BB
360
2604
  3
BLUE
360
2605
  3
boun地籍資料
360
2606
  3
BROWNLINES
360
2607
  3
BW-TXT
360
2608
  3
C-
360
2609
  3
CEILING
360
260A
  3
cloud
360
260B
  3
co
360
260C
  3
co-
360
260D
  3
color-7
360
260E
  3
columns-propose
360
260F
  3
columns-proposed
360
2610
  3
Combo
360
2611
  3
complete-services
360
2612
  3
CONSTRUCTION-DOC
360
2613
  3
cont整地
360
2614
  3
Core
360
2615
  3
CSD
360
2616
  3
CSD-TXT
360
2617
  3
CYAN
360
2618
  3
ｄ
360
28C0
  3
D
360
261A
  3
dim尺寸
360
261B
  3
dnf
360
261C
  3
drain
360
261D
  3
DT
360
261E
  3
DW-GRID
360
261F
  3
electrical
360
2620
  3
ELEV
360
2621
  3
es立剖面
360
2622
  3
extg
360
2623
  3
EXTG-~
360
2624
  3
F.S.
360
2625
  3
fire
360
2626
  3
fireline
360
2627
  3
floor layout
360
2628
  3
Freeze
360
2629
  3
Frez
360
262A
  3
FROOZEN
360
262B
  3
FROZEN
360
262C
  3
FS
360
262D
  3
FUR
360
262E
  3
furn\U+50A2\U+4FF1
360
262F
  3
furniture
360
2630
  3
GREEN
360
2631
  3
Grid
360
2632
  3
Grid and Fireline
360
2633
  3
hatches
360
2634
  3
hat鋪面質感
360
2635
  3
hd
360
2636
  3
ian1
360
2637
  3
ian2
360
2638
  3
ian3
360
2639
  3
idx索引圖
360
263A
  3
ims
360
263B
  3
Karsten
360
263C
  3
L-TEMP
360
263D
  3
LANDSCAP
360
263E
  3
LANDSCAPE
360
263F
  3
law法規檢討
360
2640
  3
lea
360
2641
  3
list表格
360
2642
  3
MAGENTA
360
2643
  3
move
360
2644
  3
N
360
2645
  3
Off
360
2646
  3
P
360
2647
  3
Pen weight
360
2648
  3
PHA
360
2649
  3
poche
360
264A
  3
PORT
360
264B
  3
R
360
264C
  3
RAIL
360
264D
  3
RED
360
264E
  3
S
360
264F
  3
search
360
2650
  3
sec
360
2651
  3
section
360
2652
  3
Show all thawed Layers
360
2653
  3
show all thawed no xref
360
2654
  3
Show No xref layers
360
2655
  3
ｓｉｔｅ
360
2656
  3
Site
360
28C1
  3
ST-UG-OL
360
2658
  3
stair
360
2659
  3
sta樓梯
360
265A
  3
sym符號
360
265B
  3
t
360
265C
  3
test
360
265D
  3
TEXT
360
265E
  3
TEXT-0NLY
360
265F
  3
TEXT-ONLY
360
2660
  3
text文字
360
2661
  3
TL
360
2662
  3
toil衛浴
360
2663
  3
txt
360
2664
  3
TXT-BW
360
2665
  3
unlock all layers
360
2666
  3
VP THAW
360
2667
  3
vsit景觀環境
360
2668
  3
W
360
2669
  3
WA
360
266A
  3
walk-distance
360
266B
  3
WALL
360
266C
  3
WALL-90
360
266D
  3
wd門窗
360
266E
  3
WHITE
360
266F
  3
WIN
360
2670
  3
YELLOW
360
2671
  3
ｚｚｚ
360
2672
  3
ZZZ
360
28C2
  3
紅色
360
2674
  3
青色
360
2675
  3
白色
360
2676
  0
LAYOUT
  5
2322
102
{ACAD_REACTORS
330
2320
102
}
330
2320
100
AcDbPlotSettings
  1

  2
Acrobat Distiller
  4
A3
  6

 40
3.174999952316284
 41
3.174999952316284
 42
3.17498779296875
 43
3.17498779296875
 44
297.0318298339843
 45
420.1583251953125
 46
0.0
 47
0.0
 48
0.0
 49
0.0
140
0.0
141
0.0
142
1.0
143
1.0
 70
 11952
 72
     1
 73
     1
 74
     0
  7

 75
    16
147
1.0
148
-1033.01792288078
149
-868.4799358742408
100
AcDbLayout
  1
Model
 70
     1
 71
     0
 10
0.0
 20
0.0
 11
12.0
 21
9.0
 12
0.0
 22
0.0
 32
0.0
 14
0.0
 24
0.0
 34
0.0
 15
0.0
 25
0.0
 35
0.0
146
0.0
 13
0.0
 23
0.0
 33
0.0
 16
1.0
 26
0.0
 36
0.0
 17
0.0
 27
1.0
 37
0.0
 76
     0
330
18
  0
LAYOUT
  5
2323
102
{ACAD_REACTORS
330
2320
102
}
330
2320
100
AcDbPlotSettings
  1

  2
Acrobat Distiller
  4
A3
  6

 40
3.174999952316284
 41
3.174999952316284
 42
3.17498779296875
 43
3.17498779296875
 44
297.0318298339843
 45
420.1583251953125
 46
0.0
 47
0.0
 48
0.0
 49
0.0
140
0.0
141
0.0
142
1.0
143
1.0
 70
   688
 72
     1
 73
     1
 74
     5
  7
monochrome.ctb
 75
    16
147
1.0
148
0.0
149
0.0
100
AcDbLayout
  1
ﾚｲｱｳﾄ1
 70
     1
 71
     1
 10
-3.17498779296875
 20
-3.174999952316284
 11
416.9833374023437
 21
293.856829881668
 12
0.0
 22
0.0
 32
0.0
 14
23.0
 24
5.0
 34
0.0
 15
409.0
 25
285.0
 35
0.0
146
0.0
 13
0.0
 23
0.0
 33
0.0
 16
1.0
 26
0.0
 36
0.0
 17
0.0
 27
1.0
 37
0.0
 76
     0
330
15
331
47
  0
MLINESTYLE
  5
1C
102
{ACAD_REACTORS
330
1B
102
}
330
1B
100
AcDbMlineStyle
  2
STANDARD
 70
     0
  3

 62
   256
 51
90.0
 52
90.0
 71
     2
 49
0.5
 62
   256
  6
BYLAYER
 49
-0.5
 62
   256
  6
BYLAYER
  0
ACDBPLACEHOLDER
  5
231F
102
{ACAD_REACTORS
330
231E
102
}
330
231E
  0
DICTIONARYVAR
  5
2CF
102
{ACAD_REACTORS
330
2CE
102
}
330
2CE
100
DictionaryVariables
280
     0
  1
0
  0
DICTIONARYVAR
  5
1857
102
{ACAD_REACTORS
330
2CE
102
}
330
2CE
100
DictionaryVariables
280
     0
  1
96
  0
XRECORD
  5
25ED
102
{ACAD_REACTORS
330
25EC
102
}
330
25EC
100
AcDbXrecord
280
     1
  1
\U+663E示所有\U+56FE\U+5C42
  1
\U+5899
  1
*
  1
*
 70
     0
  1
*
  1
*
  0
XRECORD
  5
25EE
102
{ACAD_REACTORS
330
25EC
102
}
330
25EC
100
AcDbXrecord
280
     1
  1
\U+9EC3色
  1
*
  1
yellow*
  1
*
 70
     0
  1
*
  1
*
  0
XRECORD
  5
25EF
102
{ACAD_REACTORS
330
25EC
102
}
330
25EC
100
AcDbXrecord
280
     1
  1
1
  1
*
  1
*
  1
*
 70
     1
  1
*
  1
*
  0
XRECORD
  5
25F0
102
{ACAD_REACTORS
330
25EC
102
}
330
25EC
100
AcDbXrecord
280
     1
  1
1-L
  1
*
  1
*
  1
*
 70
     0
  1
*
  1
*
  0
XRECORD
  5
25F1
102
{ACAD_REACTORS
330
25EC
102
}
330
25EC
100
AcDbXrecord
280
     1
  1
1stFloor
  1
*F1
  1
*
  1
*
 70
     0
  1
*
  1
*
  0
XRECORD
  5
25F2
102
{ACAD_REACTORS
330
25EC
102
}
330
25EC
100
AcDbXrecord
280
     1
  1
2
  1
*
  1
*
  1
*
 70
   768
  1
*
  1
*
  0
XRECORD
  5
25F3
102
{ACAD_REACTORS
330
25EC
102
}
330
25EC
100
AcDbXrecord
280
     1
  1
200
  1
*200*
  1
*
  1
*
 70
     0
  1
*
  1
*
  0
XRECORD
  5
25F4
102
{ACAD_REACTORS
330
25EC
102
}
330
25EC
100
AcDbXrecord
280
     1
  1
2ndFloor
  1
*F2
  1
*
  1
*
 70
     0
  1
*
  1
*
  0
XRECORD
  5
25F5
102
{ACAD_REACTORS
330
25EC
102
}
330
25EC
100
AcDbXrecord
280
     1
  1
3
  1
*
  1
*
  1
*
 70
     0
  1
*
  1
*
  0
XRECORD
  5
25F6
102
{ACAD_REACTORS
330
25EC
102
}
330
25EC
100
AcDbXrecord
280
     1
  1
400
  1
*400*
  1
*
  1
*
 70
     0
  1
*
  1
*
  0
XRECORD
  5
25F7
102
{ACAD_REACTORS
330
25EC
102
}
330
25EC
100
AcDbXrecord
280
     1
  1
A
  1
*SOLID*
  1
*
  1
*
 70
     0
  1
*
  1
*
  0
XRECORD
  5
25F8
102
{ACAD_REACTORS
330
25EC
102
}
330
25EC
100
AcDbXrecord
280
     1
  1
A-
  1
*
  1
*
  1
*
 70
     0
  1
*
  1
*
  0
XRECORD
  5
25F9
102
{ACAD_REACTORS
330
25EC
102
}
330
25EC
100
AcDbXrecord
280
     1
  1
A-ELEV
  1
A-ELEV*
  1
*
  1
*
 70
     0
  1
*
  1
*
  0
XRECORD
  5
25FA
102
{ACAD_REACTORS
330
25EC
102
}
330
25EC
100
AcDbXrecord
280
     1
  1
ac
  1
*ac*
  1
*
  1
*
 70
     0
  1
*
  1
*
  0
XRECORD
  5
25FB
102
{ACAD_REACTORS
330
25EC
102
}
330
25EC
100
AcDbXrecord
280
     1
  1
ALL-TXT
  1
*TXT*
  1
*
  1
*
 70
     0
  1
*
  1
*
  0
XRECORD
  5
25FC
102
{ACAD_REACTORS
330
25EC
102
}
330
25EC
100
AcDbXrecord
280
     1
  1
ap平面圖
  1
ap*
  1
*
  1
*
 70
     0
  1
*
  1
*
  0
XRECORD
  5
25FD
102
{ACAD_REACTORS
330
25EC
102
}
330
25EC
100
AcDbXrecord
280
     1
  1
AR-TXT
  1
*TXT-CSD
  1
*
  1
*
 70
     0
  1
*
  1
*
  0
XRECORD
  5
25FE
102
{ACAD_REACTORS
330
25EC
102
}
330
25EC
100
AcDbXrecord
280
     1
  1
ARCHITECTS
  1
AR*
  1
*
  1
*
 70
     0
  1
*
  1
*
  0
XRECORD
  5
25FF
102
{ACAD_REACTORS
330
25EC
102
}
330
25EC
100
AcDbXrecord
280
     1
  1
area
  1
area*
  1
*
  1
*
 70
     0
  1
*
  1
*
  0
XRECORD
  5
2600
102
{ACAD_REACTORS
330
25EC
102
}
330
25EC
100
AcDbXrecord
280
     1
  1
asd
  1
1389p00|*
  1
*
  1
*
 70
     0
  1
*
  1
*
  0
XRECORD
  5
2601
102
{ACAD_REACTORS
330
25EC
102
}
330
25EC
100
AcDbXrecord
280
     1
  1
B
  1
KK*
  1
*
  1
*
 70
     3
  1
*
  1
*
  0
XRECORD
  5
2602
102
{ACAD_REACTORS
330
25EC
102
}
330
25EC
100
AcDbXrecord
280
     1
  1
Basci
  1
*
  1
*
  1
*
 70
     0
  1
*
  1
*
  0
XRECORD
  5
2603
102
{ACAD_REACTORS
330
25EC
102
}
330
25EC
100
AcDbXrecord
280
     1
  1
base_map
  1
9*
  1
*
  1
*
 70
     0
  1
*
  1
*
  0
XRECORD
  5
2604
102
{ACAD_REACTORS
330
25EC
102
}
330
25EC
100
AcDbXrecord
280
     1
  1
BB
  1
*
  1
*
  1
*
 70
     0
  1
*
  1
*
  0
XRECORD
  5
2605
102
{ACAD_REACTORS
330
25EC
102
}
330
25EC
100
AcDbXrecord
280
     1
  1
BLUE
  1
*
  1
BLUE
  1
*
 70
     0
  1
*
  1
*
  0
XRECORD
  5
2606
102
{ACAD_REACTORS
330
25EC
102
}
330
25EC
100
AcDbXrecord
280
     1
  1
boun地籍資料
  1
boun*
  1
*
  1
*
 70
     0
  1
*
  1
*
  0
XRECORD
  5
2607
102
{ACAD_REACTORS
330
25EC
102
}
330
25EC
100
AcDbXrecord
280
     1
  1
BROWNLINES
  1
*
  1
*
  1
*
 70
     0
  1
*
  1
*
  0
XRECORD
  5
2608
102
{ACAD_REACTORS
330
25EC
102
}
330
25EC
100
AcDbXrecord
280
     1
  1
BW-TXT
  1
*TXT-BW
  1
*
  1
*
 70
     0
  1
*
  1
*
  0
XRECORD
  5
2609
102
{ACAD_REACTORS
330
25EC
102
}
330
25EC
100
AcDbXrecord
280
     1
  1
C-
  1
*
  1
*
  1
*
 70
     0
  1
*
  1
*
  0
XRECORD
  5
260A
102
{ACAD_REACTORS
330
25EC
102
}
330
25EC
100
AcDbXrecord
280
     1
  1
CEILING
  1
CEILING
  1
*
  1
*
 70
     4
  1
*
  1
*
  0
XRECORD
  5
260B
102
{ACAD_REACTORS
330
25EC
102
}
330
25EC
100
AcDbXrecord
280
     1
  1
cloud
  1
*cloud*
  1
*
  1
*
 70
     0
  1
*
  1
*
  0
XRECORD
  5
260C
102
{ACAD_REACTORS
330
25EC
102
}
330
25EC
100
AcDbXrecord
280
     1
  1
co
  1
*
  1
*
  1
*
 70
     0
  1
*
  1
*
  0
XRECORD
  5
260D
102
{ACAD_REACTORS
330
25EC
102
}
330
25EC
100
AcDbXrecord
280
     1
  1
co-
  1
*
  1
*
  1
*
 70
     0
  1
*
  1
*
  0
XRECORD
  5
260E
102
{ACAD_REACTORS
330
25EC
102
}
330
25EC
100
AcDbXrecord
280
     1
  1
color-7
  1
*
  1
7
  1
*
 70
     0
  1
*
  1
*
  0
XRECORD
  5
260F
102
{ACAD_REACTORS
330
25EC
102
}
330
25EC
100
AcDbXrecord
280
     1
  1
columns-propose
  1
*propose*
  1
*
  1
*
 70
     0
  1
*
  1
*
  0
XRECORD
  5
2610
102
{ACAD_REACTORS
330
25EC
102
}
330
25EC
100
AcDbXrecord
280
     1
  1
columns-proposed
  1
*propose*
  1
*
  1
*
 70
     0
  1
*
  1
*
  0
XRECORD
  5
2611
102
{ACAD_REACTORS
330
25EC
102
}
330
25EC
100
AcDbXrecord
280
     1
  1
Combo
  1
*Fc
  1
*
  1
*
 70
     0
  1
*
  1
*
  0
XRECORD
  5
2612
102
{ACAD_REACTORS
330
25EC
102
}
330
25EC
100
AcDbXrecord
280
     1
  1
complete-services
  1
*
  1
*
  1
*
 70
    13
  1
*
  1
*
  0
XRECORD
  5
2613
102
{ACAD_REACTORS
330
25EC
102
}
330
25EC
100
AcDbXrecord
280
     1
  1
CONSTRUCTION-DOC
  1
*
  1
*
  1
*
 70
     3
  1
*
  1
*
  0
XRECORD
  5
2614
102
{ACAD_REACTORS
330
25EC
102
}
330
25EC
100
AcDbXrecord
280
     1
  1
cont整地
  1
cont*
  1
*
  1
*
 70
     0
  1
*
  1
*
  0
XRECORD
  5
2615
102
{ACAD_REACTORS
330
25EC
102
}
330
25EC
100
AcDbXrecord
280
     1
  1
Core
  1
Core*
  1
*
  1
*
 70
     0
  1
*
  1
*
  0
XRECORD
  5
2616
102
{ACAD_REACTORS
330
25EC
102
}
330
25EC
100
AcDbXrecord
280
     1
  1
CSD
  1
csd*
  1
*
  1
*
 70
     0
  1
*
  1
*
  0
XRECORD
  5
2617
102
{ACAD_REACTORS
330
25EC
102
}
330
25EC
100
AcDbXrecord
280
     1
  1
CSD-TXT
  1
*TXT-CSD
  1
*
  1
*
 70
     0
  1
*
  1
*
  0
XRECORD
  5
2618
102
{ACAD_REACTORS
330
25EC
102
}
330
25EC
100
AcDbXrecord
280
     1
  1
CYAN
  1
*
  1
CYAN
  1
*
 70
     0
  1
*
  1
*
  0
XRECORD
  5
28C0
102
{ACAD_REACTORS
330
25EC
102
}
330
25EC
100
AcDbXrecord
280
     1
  1
ｄ
  1
ｄ*
  1
*
  1
*
 70
     0
  1
*
  1
*
  0
XRECORD
  5
261A
102
{ACAD_REACTORS
330
25EC
102
}
330
25EC
100
AcDbXrecord
280
     1
  1
D
  1
T_*$0$WALL*
  1
*
  1
*
 70
     0
  1
*
  1
*
  0
XRECORD
  5
261B
102
{ACAD_REACTORS
330
25EC
102
}
330
25EC
100
AcDbXrecord
280
     1
  1
dim尺寸
  1
dim*
  1
*
  1
*
 70
     0
  1
*
  1
*
  0
XRECORD
  5
261C
102
{ACAD_REACTORS
330
25EC
102
}
330
25EC
100
AcDbXrecord
280
     1
  1
dnf
  1
dnf*
  1
*
  1
*
 70
     0
  1
*
  1
*
  0
XRECORD
  5
261D
102
{ACAD_REACTORS
330
25EC
102
}
330
25EC
100
AcDbXrecord
280
     1
  1
drain
  1
ar-dr*
  1
*
  1
*
 70
     0
  1
*
  1
*
  0
XRECORD
  5
261E
102
{ACAD_REACTORS
330
25EC
102
}
330
25EC
100
AcDbXrecord
280
     1
  1
DT
  1
*DOOR*,*TEXT*
  1
*
  1
*
 70
     0
  1
*
  1
*
  0
XRECORD
  5
261F
102
{ACAD_REACTORS
330
25EC
102
}
330
25EC
100
AcDbXrecord
280
     1
  1
DW-GRID
  1
*DW-GRID
  1
*
  1
*
 70
     0
  1
*
  1
*
  0
XRECORD
  5
2620
102
{ACAD_REACTORS
330
25EC
102
}
330
25EC
100
AcDbXrecord
280
     1
  1
electrical
  1
elec*
  1
*
  1
*
 70
     0
  1
*
  1
*
  0
XRECORD
  5
2621
102
{ACAD_REACTORS
330
25EC
102
}
330
25EC
100
AcDbXrecord
280
     1
  1
ELEV
  1
EL_*
  1
*
  1
*
 70
    61
  1
*
  1
*
  0
XRECORD
  5
2622
102
{ACAD_REACTORS
330
25EC
102
}
330
25EC
100
AcDbXrecord
280
     1
  1
es立剖面
  1
es*
  1
*
  1
*
 70
     0
  1
*
  1
*
  0
XRECORD
  5
2623
102
{ACAD_REACTORS
330
25EC
102
}
330
25EC
100
AcDbXrecord
280
     1
  1
extg
  1
*extg*
  1
*
  1
*
 70
     0
  1
*
  1
*
  0
XRECORD
  5
2624
102
{ACAD_REACTORS
330
25EC
102
}
330
25EC
100
AcDbXrecord
280
     1
  1
EXTG-~
  1
*
  1
*
  1
*
 70
   256
  1
*
  1
*
  0
XRECORD
  5
2625
102
{ACAD_REACTORS
330
25EC
102
}
330
25EC
100
AcDbXrecord
280
     1
  1
F.S.
  1
3-*
  1
*
  1
*
 70
     0
  1
*
  1
*
  0
XRECORD
  5
2626
102
{ACAD_REACTORS
330
25EC
102
}
330
25EC
100
AcDbXrecord
280
     1
  1
fire
  1
*fire*
  1
*
  1
*
 70
     0
  1
*
  1
*
  0
XRECORD
  5
2627
102
{ACAD_REACTORS
330
25EC
102
}
330
25EC
100
AcDbXrecord
280
     1
  1
fireline
  1
fire*
  1
*
  1
*
 70
     0
  1
*
  1
*
  0
XRECORD
  5
2628
102
{ACAD_REACTORS
330
25EC
102
}
330
25EC
100
AcDbXrecord
280
     1
  1
floor layout
  1
*
  1
*
  1
*
 70
     0
  1
*
  1
*
  0
XRECORD
  5
2629
102
{ACAD_REACTORS
330
25EC
102
}
330
25EC
100
AcDbXrecord
280
     1
  1
Freeze
  1
*
  1
*
  1
*
 70
     4
  1
*
  1
*
  0
XRECORD
  5
262A
102
{ACAD_REACTORS
330
25EC
102
}
330
25EC
100
AcDbXrecord
280
     1
  1
Frez
  1
*Frez
  1
*
  1
*
 70
     0
  1
*
  1
*
  0
XRECORD
  5
262B
102
{ACAD_REACTORS
330
25EC
102
}
330
25EC
100
AcDbXrecord
280
     1
  1
FROOZEN
  1
*
  1
*
  1
*
 70
     4
  1
*
  1
*
  0
XRECORD
  5
262C
102
{ACAD_REACTORS
330
25EC
102
}
330
25EC
100
AcDbXrecord
280
     1
  1
FROZEN
  1
*
  1
*
  1
*
 70
     4
  1
*
  1
*
  0
XRECORD
  5
262D
102
{ACAD_REACTORS
330
25EC
102
}
330
25EC
100
AcDbXrecord
280
     1
  1
FS
  1
3-*
  1
*
  1
*
 70
     0
  1
*
  1
*
  0
XRECORD
  5
262E
102
{ACAD_REACTORS
330
25EC
102
}
330
25EC
100
AcDbXrecord
280
     1
  1
FUR
  1
*FUR*
  1
*
  1
*
 70
     0
  1
*
  1
*
  0
XRECORD
  5
262F
102
{ACAD_REACTORS
330
25EC
102
}
330
25EC
100
AcDbXrecord
280
     1
  1
furn\U+50A2\U+4FF1
  1
furn*
  1
*
  1
*
 70
     0
  1
*
  1
*
  0
XRECORD
  5
2630
102
{ACAD_REACTORS
330
25EC
102
}
330
25EC
100
AcDbXrecord
280
     1
  1
furniture
  1
fur*
  1
*
  1
*
 70
     0
  1
*
  1
*
  0
XRECORD
  5
2631
102
{ACAD_REACTORS
330
25EC
102
}
330
25EC
100
AcDbXrecord
280
     1
  1
GREEN
  1
*
  1
GREEN
  1
*
 70
     0
  1
*
  1
*
  0
XRECORD
  5
2632
102
{ACAD_REACTORS
330
25EC
102
}
330
25EC
100
AcDbXrecord
280
     1
  1
Grid
  1
Grid*
  1
*
  1
*
 70
     0
  1
*
  1
*
  0
XRECORD
  5
2633
102
{ACAD_REACTORS
330
25EC
102
}
330
25EC
100
AcDbXrecord
280
     1
  1
Grid and Fireline
  1
grid*
  1
*
  1
*
 70
     0
  1
*
  1
*
  0
XRECORD
  5
2634
102
{ACAD_REACTORS
330
25EC
102
}
330
25EC
100
AcDbXrecord
280
     1
  1
hatches
  1
*h*
  1
*
  1
*
 70
     0
  1
*
  1
*
  0
XRECORD
  5
2635
102
{ACAD_REACTORS
330
25EC
102
}
330
25EC
100
AcDbXrecord
280
     1
  1
hat鋪面質感
  1
hat*
  1
*
  1
*
 70
     0
  1
*
  1
*
  0
XRECORD
  5
2636
102
{ACAD_REACTORS
330
25EC
102
}
330
25EC
100
AcDbXrecord
280
     1
  1
hd
  1
hd*
  1
*
  1
*
 70
     0
  1
*
  1
*
  0
XRECORD
  5
2637
102
{ACAD_REACTORS
330
25EC
102
}
330
25EC
100
AcDbXrecord
280
     1
  1
ian1
  1
*door
  1
*
  1
*
 70
     0
  1
*
  1
*
  0
XRECORD
  5
2638
102
{ACAD_REACTORS
330
25EC
102
}
330
25EC
100
AcDbXrecord
280
     1
  1
ian2
  1
*w*d*
  1
*
  1
*
 70
     0
  1
*
  1
*
  0
XRECORD
  5
2639
102
{ACAD_REACTORS
330
25EC
102
}
330
25EC
100
AcDbXrecord
280
     1
  1
ian3
  1
*wall*
  1
*
  1
*
 70
     0
  1
*
  1
*
  0
XRECORD
  5
263A
102
{ACAD_REACTORS
330
25EC
102
}
330
25EC
100
AcDbXrecord
280
     1
  1
idx索引圖
  1
idx*
  1
*
  1
*
 70
     0
  1
*
  1
*
  0
XRECORD
  5
263B
102
{ACAD_REACTORS
330
25EC
102
}
330
25EC
100
AcDbXrecord
280
     1
  1
ims
  1
ims*
  1
*
  1
*
 70
     0
  1
*
  1
*
  0
XRECORD
  5
263C
102
{ACAD_REACTORS
330
25EC
102
}
330
25EC
100
AcDbXrecord
280
     1
  1
Karsten
  1
k-*
  1
*
  1
*
 70
     0
  1
*
  1
*
  0
XRECORD
  5
263D
102
{ACAD_REACTORS
330
25EC
102
}
330
25EC
100
AcDbXrecord
280
     1
  1
L-TEMP
  1
*L-TEMP
  1
*
  1
*
 70
     0
  1
*
  1
*
  0
XRECORD
  5
263E
102
{ACAD_REACTORS
330
25EC
102
}
330
25EC
100
AcDbXrecord
280
     1
  1
LANDSCAP
  1
L-*
  1
*
  1
*
 70
     0
  1
*
  1
*
  0
XRECORD
  5
263F
102
{ACAD_REACTORS
330
25EC
102
}
330
25EC
100
AcDbXrecord
280
     1
  1
LANDSCAPE
  1
L-*
  1
*
  1
*
 70
     0
  1
*
  1
*
  0
XRECORD
  5
2640
102
{ACAD_REACTORS
330
25EC
102
}
330
25EC
100
AcDbXrecord
280
     1
  1
law法規檢討
  1
law*
  1
*
  1
*
 70
     0
  1
*
  1
*
  0
XRECORD
  5
2641
102
{ACAD_REACTORS
330
25EC
102
}
330
25EC
100
AcDbXrecord
280
     1
  1
lea
  1
*lea*
  1
*
  1
*
 70
     0
  1
*
  1
*
  0
XRECORD
  5
2642
102
{ACAD_REACTORS
330
25EC
102
}
330
25EC
100
AcDbXrecord
280
     1
  1
list表格
  1
list*
  1
*
  1
*
 70
     0
  1
*
  1
*
  0
XRECORD
  5
2643
102
{ACAD_REACTORS
330
25EC
102
}
330
25EC
100
AcDbXrecord
280
     1
  1
MAGENTA
  1
*
  1
MAGENTA
  1
*
 70
     0
  1
*
  1
*
  0
XRECORD
  5
2644
102
{ACAD_REACTORS
330
25EC
102
}
330
25EC
100
AcDbXrecord
280
     1
  1
move
  1
*
  1
*
  1
*
 70
     0
  1
*
  1
*
  0
XRECORD
  5
2645
102
{ACAD_REACTORS
330
25EC
102
}
330
25EC
100
AcDbXrecord
280
     1
  1
N
  1
*NON-*
  1
*
  1
*
 70
     0
  1
*
  1
*
  0
XRECORD
  5
2646
102
{ACAD_REACTORS
330
25EC
102
}
330
25EC
100
AcDbXrecord
280
     1
  1
Off
  1
*
  1
*
  1
*
 70
     3
  1
*
  1
*
  0
XRECORD
  5
2647
102
{ACAD_REACTORS
330
25EC
102
}
330
25EC
100
AcDbXrecord
280
     1
  1
P
  1
*PAR*,*WIN*,*CURB*
  1
*
  1
*
 70
     0
  1
*
  1
*
  0
XRECORD
  5
2648
102
{ACAD_REACTORS
330
25EC
102
}
330
25EC
100
AcDbXrecord
280
     1
  1
Pen weight
  1
*
  1
*
  1
*
 70
     0
  1
*
  1
*
  0
XRECORD
  5
2649
102
{ACAD_REACTORS
330
25EC
102
}
330
25EC
100
AcDbXrecord
280
     1
  1
PHA
  1
*PHA*
  1
*
  1
*
 70
     0
  1
*
  1
*
  0
XRECORD
  5
264A
102
{ACAD_REACTORS
330
25EC
102
}
330
25EC
100
AcDbXrecord
280
     1
  1
poche
  1
*poch*
  1
*
  1
*
 70
     0
  1
*
  1
*
  0
XRECORD
  5
264B
102
{ACAD_REACTORS
330
25EC
102
}
330
25EC
100
AcDbXrecord
280
     1
  1
PORT
  1
*PORT
  1
*
  1
*
 70
     0
  1
*
  1
*
  0
XRECORD
  5
264C
102
{ACAD_REACTORS
330
25EC
102
}
330
25EC
100
AcDbXrecord
280
     1
  1
R
  1
*RAIL*,*VOID*
  1
*
  1
*
 70
     0
  1
*
  1
*
  0
XRECORD
  5
264D
102
{ACAD_REACTORS
330
25EC
102
}
330
25EC
100
AcDbXrecord
280
     1
  1
RAIL
  1
*RAIL
  1
*
  1
*
 70
     0
  1
*
  1
*
  0
XRECORD
  5
264E
102
{ACAD_REACTORS
330
25EC
102
}
330
25EC
100
AcDbXrecord
280
     1
  1
RED
  1
*
  1
RED
  1
*
 70
     0
  1
*
  1
*
  0
XRECORD
  5
264F
102
{ACAD_REACTORS
330
25EC
102
}
330
25EC
100
AcDbXrecord
280
     1
  1
S
  1
*SOLID*
  1
*
  1
*
 70
     0
  1
*
  1
*
  0
XRECORD
  5
2650
102
{ACAD_REACTORS
330
25EC
102
}
330
25EC
100
AcDbXrecord
280
     1
  1
search
  1
*comments*
  1
red
  1
*
 70
     0
  1
*
  1
*
  0
XRECORD
  5
2651
102
{ACAD_REACTORS
330
25EC
102
}
330
25EC
100
AcDbXrecord
280
     1
  1
sec
  1
*sec*
  1
*
  1
*
 70
     0
  1
*
  1
*
  0
XRECORD
  5
2652
102
{ACAD_REACTORS
330
25EC
102
}
330
25EC
100
AcDbXrecord
280
     1
  1
section
  1
*
  1
*
  1
*
 70
     0
  1
*
  1
*
  0
XRECORD
  5
2653
102
{ACAD_REACTORS
330
25EC
102
}
330
25EC
100
AcDbXrecord
280
     1
  1
Show all thawed Layers
  1
*
  1
*
  1
*
 70
    12
  1
*
  1
*
  0
XRECORD
  5
2654
102
{ACAD_REACTORS
330
25EC
102
}
330
25EC
100
AcDbXrecord
280
     1
  1
show all thawed no xref
  1
~###*
  1
*
  1
*
 70
    12
  1
*
  1
*
  0
XRECORD
  5
2655
102
{ACAD_REACTORS
330
25EC
102
}
330
25EC
100
AcDbXrecord
280
     1
  1
Show No xref layers
  1
~####*
  1
*
  1
*
 70
     0
  1
*
  1
*
  0
XRECORD
  5
2656
102
{ACAD_REACTORS
330
25EC
102
}
330
25EC
100
AcDbXrecord
280
     1
  1
ｓｉｔｅ
  1
*
  1
*
  1
*
 70
     0
  1
*
  1
*
  0
XRECORD
  5
28C1
102
{ACAD_REACTORS
330
25EC
102
}
330
25EC
100
AcDbXrecord
280
     1
  1
Site
  1
*S-*
  1
*
  1
*
 70
     0
  1
*
  1
*
  0
XRECORD
  5
2658
102
{ACAD_REACTORS
330
25EC
102
}
330
25EC
100
AcDbXrecord
280
     1
  1
ST-UG-OL
  1
*ST-UG-OL
  1
*
  1
*
 70
     0
  1
*
  1
*
  0
XRECORD
  5
2659
102
{ACAD_REACTORS
330
25EC
102
}
330
25EC
100
AcDbXrecord
280
     1
  1
stair
  1
*stair*
  1
*
  1
*
 70
     0
  1
*
  1
*
  0
XRECORD
  5
265A
102
{ACAD_REACTORS
330
25EC
102
}
330
25EC
100
AcDbXrecord
280
     1
  1
sta樓梯
  1
sta*
  1
*
  1
*
 70
     0
  1
*
  1
*
  0
XRECORD
  5
265B
102
{ACAD_REACTORS
330
25EC
102
}
330
25EC
100
AcDbXrecord
280
     1
  1
sym符號
  1
sym*
  1
*
  1
*
 70
     0
  1
*
  1
*
  0
XRECORD
  5
265C
102
{ACAD_REACTORS
330
25EC
102
}
330
25EC
100
AcDbXrecord
280
     1
  1
t
  1
*
  1
*
  1
*
 70
     4
  1
*
  1
*
  0
XRECORD
  5
265D
102
{ACAD_REACTORS
330
25EC
102
}
330
25EC
100
AcDbXrecord
280
     1
  1
test
  1
*
  1
*
  1
*
 70
     4
  1
*
  1
*
  0
XRECORD
  5
265E
102
{ACAD_REACTORS
330
25EC
102
}
330
25EC
100
AcDbXrecord
280
     1
  1
TEXT
  1
*text*
  1
*
  1
*
 70
     0
  1
*
  1
*
  0
XRECORD
  5
265F
102
{ACAD_REACTORS
330
25EC
102
}
330
25EC
100
AcDbXrecord
280
     1
  1
TEXT-0NLY
  1
*TXT*
  1
*
  1
*
 70
     0
  1
*
  1
*
  0
XRECORD
  5
2660
102
{ACAD_REACTORS
330
25EC
102
}
330
25EC
100
AcDbXrecord
280
     1
  1
TEXT-ONLY
  1
*TXT*
  1
*
  1
*
 70
     0
  1
*
  1
*
  0
XRECORD
  5
2661
102
{ACAD_REACTORS
330
25EC
102
}
330
25EC
100
AcDbXrecord
280
     1
  1
text文字
  1
text*
  1
*
  1
*
 70
     0
  1
*
  1
*
  0
XRECORD
  5
2662
102
{ACAD_REACTORS
330
25EC
102
}
330
25EC
100
AcDbXrecord
280
     1
  1
TL
  1
*tl*
  1
*
  1
*
 70
     0
  1
*
  1
*
  0
XRECORD
  5
2663
102
{ACAD_REACTORS
330
25EC
102
}
330
25EC
100
AcDbXrecord
280
     1
  1
toil衛浴
  1
toil*
  1
*
  1
*
 70
     0
  1
*
  1
*
  0
XRECORD
  5
2664
102
{ACAD_REACTORS
330
25EC
102
}
330
25EC
100
AcDbXrecord
280
     1
  1
txt
  1
*txt*
  1
*
  1
*
 70
     0
  1
*
  1
*
  0
XRECORD
  5
2665
102
{ACAD_REACTORS
330
25EC
102
}
330
25EC
100
AcDbXrecord
280
     1
  1
TXT-BW
  1
*-TXT-BW
  1
*
  1
*
 70
     0
  1
*
  1
*
  0
XRECORD
  5
2666
102
{ACAD_REACTORS
330
25EC
102
}
330
25EC
100
AcDbXrecord
280
     1
  1
unlock all layers
  1
*
  1
*
  1
*
 70
     0
  1
*
  1
*
  0
XRECORD
  5
2667
102
{ACAD_REACTORS
330
25EC
102
}
330
25EC
100
AcDbXrecord
280
     1
  1
VP THAW
  1
*
  1
*
  1
*
 70
    61
  1
*
  1
*
  0
XRECORD
  5
2668
102
{ACAD_REACTORS
330
25EC
102
}
330
25EC
100
AcDbXrecord
280
     1
  1
vsit景觀環境
  1
vsit*
  1
*
  1
*
 70
     0
  1
*
  1
*
  0
XRECORD
  5
2669
102
{ACAD_REACTORS
330
25EC
102
}
330
25EC
100
AcDbXrecord
280
     1
  1
W
  1
*WALL*
  1
*
  1
*
 70
     0
  1
*
  1
*
  0
XRECORD
  5
266A
102
{ACAD_REACTORS
330
25EC
102
}
330
25EC
100
AcDbXrecord
280
     1
  1
WA
  1
*
  1
*
  1
*
 70
     0
  1
*
  1
*
  0
XRECORD
  5
266B
102
{ACAD_REACTORS
330
25EC
102
}
330
25EC
100
AcDbXrecord
280
     1
  1
walk-distance
  1
*walk-distance*
  1
*
  1
*
 70
     0
  1
*
  1
*
  0
XRECORD
  5
266C
102
{ACAD_REACTORS
330
25EC
102
}
330
25EC
100
AcDbXrecord
280
     1
  1
WALL
  1
*WALL
  1
*
  1
*
 70
     0
  1
*
  1
*
  0
XRECORD
  5
266D
102
{ACAD_REACTORS
330
25EC
102
}
330
25EC
100
AcDbXrecord
280
     1
  1
WALL-90
  1
*WALL*
  1
*
  1
*
 70
     0
  1
*
  1
*
  0
XRECORD
  5
266E
102
{ACAD_REACTORS
330
25EC
102
}
330
25EC
100
AcDbXrecord
280
     1
  1
wd門窗
  1
wd*
  1
*
  1
*
 70
     0
  1
*
  1
*
  0
XRECORD
  5
266F
102
{ACAD_REACTORS
330
25EC
102
}
330
25EC
100
AcDbXrecord
280
     1
  1
WHITE
  1
*
  1
WHITE
  1
*
 70
     0
  1
*
  1
*
  0
XRECORD
  5
2670
102
{ACAD_REACTORS
330
25EC
102
}
330
25EC
100
AcDbXrecord
280
     1
  1
WIN
  1
*WIN*
  1
*
  1
*
 70
     0
  1
*
  1
*
  0
XRECORD
  5
2671
102
{ACAD_REACTORS
330
25EC
102
}
330
25EC
100
AcDbXrecord
280
     1
  1
YELLOW
  1
*
  1
YELLOW
  1
*
 70
     0
  1
*
  1
*
  0
XRECORD
  5
2672
102
{ACAD_REACTORS
330
25EC
102
}
330
25EC
100
AcDbXrecord
280
     1
  1
ｚｚｚ
  1
*
  1
*
  1
*
 70
     1
  1
*
  1
*
  0
XRECORD
  5
28C2
102
{ACAD_REACTORS
330
25EC
102
}
330
25EC
100
AcDbXrecord
280
     1
  1
ZZZ
  1
*
  1
254
  1
*
 70
     0
  1
*
  1
*
  0
XRECORD
  5
2674
102
{ACAD_REACTORS
330
25EC
102
}
330
25EC
100
AcDbXrecord
280
     1
  1
紅色
  1
*
  1
red*
  1
*
 70
     0
  1
*
  1
*
  0
XRECORD
  5
2675
102
{ACAD_REACTORS
330
25EC
102
}
330
25EC
100
AcDbXrecord
280
     1
  1
青色
  1
*
  1
cyan*
  1
*
 70
     0
  1
*
  1
*
  0
XRECORD
  5
2676
102
{ACAD_REACTORS
330
25EC
102
}
330
25EC
100
AcDbXrecord
280
     1
  1
白色
  1
*
  1
white*
  1
*
 70
     0
  1
*
  1
*
  0
ENDSEC
  0
EOF
