  0
SECTION
  2
HEADER
  9
$ACADVER
  1
AC1015
  9
$ACADMAINTVER
 70
     6
  9
$DWGCODEPAGE
  3
ANSI_932
  9
$INSBASE
 10
0.0
 20
0.0
 30
0.0
  9
$EXTMIN
 10
1320.098155341647
 20
2037.865198799706
 30
0.0
  9
$EXTMAX
 10
4456.508800093223
 20
3607.383094469913
 30
0.0
  9
$LIMMIN
 10
0.0
 20
0.0
  9
$LIMMAX
 10
4200.0
 20
2970.0
  9
$ORTHOMODE
 70
     1
  9
$REGENMODE
 70
     1
  9
$FILLMODE
 70
     1
  9
$QTEXTMODE
 70
     0
  9
$MIRRTEXT
 70
     1
  9
$LTSCALE
 40
10.0
  9
$ATTMODE
 70
     2
  9
$TEXTSIZE
 40
5.0
  9
$TRACEWID
 40
1.0
  9
$TEXTSTYLE
  7
MSP明朝1
  9
$CLAYER
  8
0
  9
$CELTYPE
  6
BYLAYER
  9
$CECOLOR
 62
   256
  9
$CELTSCALE
 40
1.0
  9
$DISPSILH
 70
     0
  9
$DIMSCALE
 40
0.0
  9
$DIMASZ
 40
2.0
  9
$DIMEXO
 40
0.0
  9
$DIMDLI
 40
3.0
  9
$DIMRND
 40
0.0
  9
$DIMDLE
 40
0.0
  9
$DIMEXE
 40
0.7
  9
$DIMTP
 40
0.0
  9
$DIMTM
 40
0.0
  9
$DIMTXT
 40
2.5
  9
$DIMCEN
 40
0.0
  9
$DIMTSZ
 40
0.0
  9
$DIMTOL
 70
     0
  9
$DIMLIM
 70
     0
  9
$DIMTIH
 70
     0
  9
$DIMTOH
 70
     0
  9
$DIMSE1
 70
     0
  9
$DIMSE2
 70
     0
  9
$DIMTAD
 70
     1
  9
$DIMZIN
 70
     8
  9
$DIMBLK
  1

  9
$DIMASO
 70
     1
  9
$DIMSHO
 70
     1
  9
$DIMPOST
  1

  9
$DIMAPOST
  1

  9
$DIMALT
 70
     0
  9
$DIMALTD
 70
     4
  9
$DIMALTF
 40
0.0394
  9
$DIMLFAC
 40
1.0
  9
$DIMTOFL
 70
     1
  9
$DIMTVP
 40
0.0
  9
$DIMTIX
 70
     0
  9
$DIMSOXD
 70
     0
  9
$DIMSAH
 70
     1
  9
$DIMBLK1
  1
OPEN30
  9
$DIMBLK2
  1
OPEN30
  9
$DIMSTYLE
  2
MSP明朝寸法1
  9
$DIMCLRD
 70
     3
  9
$DIMCLRE
 70
     3
  9
$DIMCLRT
 70
     3
  9
$DIMTFAC
 40
1.0
  9
$DIMGAP
 40
1.0
  9
$DIMJUST
 70
     0
  9
$DIMSD1
 70
     0
  9
$DIMSD2
 70
     0
  9
$DIMTOLJ
 70
     1
  9
$DIMTZIN
 70
     0
  9
$DIMALTZ
 70
     0
  9
$DIMALTTZ
 70
     0
  9
$DIMUPT
 70
     0
  9
$DIMDEC
 70
     2
  9
$DIMTDEC
 70
     2
  9
$DIMALTU
 70
     8
  9
$DIMALTTD
 70
     4
  9
$DIMTXSTY
  7
MSP明朝W1
  9
$DIMAUNIT
 70
     0
  9
$DIMADEC
 70
     0
  9
$DIMALTRND
 40
0.0
  9
$DIMAZIN
 70
     0
  9
$DIMDSEP
 70
    46
  9
$DIMATFIT
 70
     3
  9
$DIMFRAC
 70
     0
  9
$DIMLDRBLK
  1
OPEN30
  9
$DIMLUNIT
 70
     2
  9
$DIMLWD
 70
    -2
  9
$DIMLWE
 70
    -2
  9
$DIMTMOVE
 70
     0
  9
$LUNITS
 70
     2
  9
$LUPREC
 70
     3
  9
$SKETCHINC
 40
1.0
  9
$FILLETRAD
 40
0.5
  9
$AUNITS
 70
     0
  9
$AUPREC
 70
     3
  9
$MENU
  1
acad
  9
$ELEVATION
 40
0.0
  9
$PELEVATION
 40
0.0
  9
$THICKNESS
 40
0.0
  9
$LIMCHECK
 70
     0
  9
$CHAMFERA
 40
100.0
  9
$CHAMFERB
 40
100.0
  9
$CHAMFERC
 40
200.0
  9
$CHAMFERD
 40
0.0
  9
$SKPOLY
 70
     0
  9
$TDCREATE
 40
2451337.667237268
  9
$TDUCREATE
 40
2451337.292237268
  9
$TDUPDATE
 40
2456127.682489873
  9
$TDUUPDATE
 40
2456127.307489873
  9
$TDINDWG
 40
0.6090973727
  9
$TDUSRTIMER
 40
0.6090973727
  9
$USRTIMER
 70
     1
  9
$ANGBASE
 50
0.0
  9
$ANGDIR
 70
     0
  9
$PDMODE
 70
     0
  9
$PDSIZE
 40
0.0
  9
$PLINEWID
 40
0.0
  9
$SPLFRAME
 70
     0
  9
$SPLINETYPE
 70
     6
  9
$SPLINESEGS
 70
     8
  9
$HANDSEED
  5
27DC
  9
$SURFTAB1
 70
     6
  9
$SURFTAB2
 70
     6
  9
$SURFTYPE
 70
     6
  9
$SURFU
 70
     6
  9
$SURFV
 70
     6
  9
$UCSBASE
  2

  9
$UCSNAME
  2

  9
$UCSORG
 10
1000.0
 20
1000.0
 30
0.0
  9
$UCSXDIR
 10
1.0
 20
0.0
 30
0.0
  9
$UCSYDIR
 10
0.0
 20
1.0
 30
0.0
  9
$UCSORTHOREF
  2

  9
$UCSORTHOVIEW
 70
     0
  9
$UCSORGTOP
 10
0.0
 20
0.0
 30
0.0
  9
$UCSORGBOTTOM
 10
0.0
 20
0.0
 30
0.0
  9
$UCSORGLEFT
 10
0.0
 20
0.0
 30
0.0
  9
$UCSORGRIGHT
 10
0.0
 20
0.0
 30
0.0
  9
$UCSORGFRONT
 10
0.0
 20
0.0
 30
0.0
  9
$UCSORGBACK
 10
0.0
 20
0.0
 30
0.0
  9
$PUCSBASE
  2

  9
$PUCSNAME
  2

  9
$PUCSORG
 10
0.0
 20
0.0
 30
0.0
  9
$PUCSXDIR
 10
1.0
 20
0.0
 30
0.0
  9
$PUCSYDIR
 10
0.0
 20
1.0
 30
0.0
  9
$PUCSORTHOREF
  2

  9
$PUCSORTHOVIEW
 70
     0
  9
$PUCSORGTOP
 10
0.0
 20
0.0
 30
0.0
  9
$PUCSORGBOTTOM
 10
0.0
 20
0.0
 30
0.0
  9
$PUCSORGLEFT
 10
0.0
 20
0.0
 30
0.0
  9
$PUCSORGRIGHT
 10
0.0
 20
0.0
 30
0.0
  9
$PUCSORGFRONT
 10
0.0
 20
0.0
 30
0.0
  9
$PUCSORGBACK
 10
0.0
 20
0.0
 30
0.0
  9
$USERI1
 70
     0
  9
$USERI2
 70
     0
  9
$USERI3
 70
     0
  9
$USERI4
 70
     0
  9
$USERI5
 70
     0
  9
$USERR1
 40
0.0
  9
$USERR2
 40
0.0
  9
$USERR3
 40
0.0
  9
$USERR4
 40
0.0
  9
$USERR5
 40
0.0
  9
$WORLDVIEW
 70
     1
  9
$SHADEDGE
 70
     3
  9
$SHADEDIF
 70
    70
  9
$TILEMODE
 70
     0
  9
$MAXACTVP
 70
    48
  9
$PINSBASE
 10
0.0
 20
0.0
 30
0.0
  9
$PLIMCHECK
 70
     0
  9
$PEXTMIN
 10
23.64208133093075
 20
5.973648938110727
 30
0.0
  9
$PEXTMAX
 10
409.6420813309307
 20
285.9736489381107
 30
0.0
  9
$PLIMMIN
 10
-3.17498779296875
 20
-3.174999952316284
  9
$PLIMMAX
 10
416.9833374023437
 20
293.856829881668
  9
$UNITMODE
 70
     0
  9
$VISRETAIN
 70
     1
  9
$PLINEGEN
 70
     0
  9
$PSLTSCALE
 70
     1
  9
$TREEDEPTH
 70
  3020
  9
$CMLSTYLE
  2
STANDARD
  9
$CMLJUST
 70
     0
  9
$CMLSCALE
 40
20.0
  9
$PROXYGRAPHICS
 70
     1
  9
$MEASUREMENT
 70
     1
  9
$CELWEIGHT
370
    -1
  9
$ENDCAPS
280
     0
  9
$JOINSTYLE
280
     0
  9
$LWDISPLAY
290
     0
  9
$INSUNITS
 70
     0
  9
$HYPERLINKBASE
  1

  9
$STYLESHEET
  1

  9
$XEDIT
290
     1
  9
$CEPSNTYPE
380
     0
  9
$PSTYLEMODE
290
     1
  9
$FINGERPRINTGUID
  2
{D3FEBF14-2C9C-4936-8CDC-E37010A20F79}
  9
$VERSIONGUID
  2
{53FF2643-0321-49E4-B69F-06762C9283DD}
  9
$EXTNAMES
290
     1
  9
$PSVPSCALE
 40
0.0
  9
$OLESTARTUP
290
     0
  0
ENDSEC
  0
SECTION
  2
CLASSES
  0
CLASS
  1
DICTIONARYVAR
  2
AcDbDictionaryVar
  3
AutoCAD 2000
 90
        0
280
     0
281
     0
  0
CLASS
  1
HATCH
  2
AcDbHatch
  3
AutoCAD 2000
 90
    32768
280
     0
281
     1
  0
CLASS
  1
ACDBDICTIONARYWDFLT
  2
AcDbDictionaryWithDefault
  3
AutoCAD 2000
 90
        0
280
     0
281
     0
  0
CLASS
  1
ACDBPLACEHOLDER
  2
AcDbPlaceHolder
  3
AutoCAD 2000
 90
        0
280
     0
281
     0
  0
CLASS
  1
LAYOUT
  2
AcDbLayout
  3
AutoCAD 2000
 90
        0
280
     0
281
     0
  0
ENDSEC
  0
SECTION
  2
TABLES
  0
TABLE
  2
VPORT
  5
8
330
0
100
AcDbSymbolTable
 70
     1
  0
VPORT
  5
27D5
330
8
100
AcDbSymbolTableRecord
100
AcDbViewportTableRecord
  2
*Active
 70
     0
 10
0.0
 20
0.0
 11
1.0
 21
1.0
 12
2765.193062941571
 22
2981.364343226109
 13
0.0
 23
0.0
 14
10.0
 24
10.0
 15
10.0
 25
10.0
 16
0.0
 26
0.0
 36
1.0
 17
0.0
 27
0.0
 37
0.0
 40
2221.939718743714
 41
2.024813895781637
 42
50.0
 43
0.0
 44
0.0
 50
0.0
 51
0.0
 71
     0
 72
   100
 73
     1
 74
     1
 75
     0
 76
     0
 77
     0
 78
     0
281
     0
 65
     1
110
1000.0
120
1000.0
130
0.0
111
1.0
121
0.0
131
0.0
112
0.0
122
1.0
132
0.0
 79
     0
146
0.0
  0
ENDTAB
  0
TABLE
  2
LTYPE
  5
5
330
0
100
AcDbSymbolTable
 70
     2
  0
LTYPE
  5
12
330
5
100
AcDbSymbolTableRecord
100
AcDbLinetypeTableRecord
  2
BYBLOCK
 70
     0
  3

 72
    65
 73
     0
 40
0.0
  0
LTYPE
  5
13
330
5
100
AcDbSymbolTableRecord
100
AcDbLinetypeTableRecord
  2
BYLAYER
 70
     0
  3

 72
    65
 73
     0
 40
0.0
  0
LTYPE
  5
14
330
5
100
AcDbSymbolTableRecord
100
AcDbLinetypeTableRecord
  2
CONTINUOUS
 70
     0
  3
Solid line
 72
    65
 73
     0
 40
0.0
  0
LTYPE
  5
173
330
5
100
AcDbSymbolTableRecord
100
AcDbLinetypeTableRecord
  2
HIDDEN
 70
     0
  3
_ _ _ _ _ _ _ _ _ _ _ _ _ _ _ _ _ _ _ _ _ _ _
 72
    65
 73
     2
 40
0.375
 49
0.25
 74
     0
 49
-0.125
 74
     0
  0
ENDTAB
  0
TABLE
  2
LAYER
  5
2
102
{ACAD_XDICTIONARY
360
24EC
102
}
330
0
100
AcDbSymbolTable
 70
     8
  0
LAYER
  5
E
330
2
100
AcDbSymbolTableRecord
100
AcDbLayerTableRecord
  2
0
 70
     0
 62
     7
  6
CONTINUOUS
370
    -3
390
1F51
  0
LAYER
  5
176
330
2
100
AcDbSymbolTableRecord
100
AcDbLayerTableRecord
  2
ﾃｷｽﾄ
 70
     0
 62
     3
  6
CONTINUOUS
370
    -3
390
1F51
  0
LAYER
  5
177
330
2
100
AcDbSymbolTableRecord
100
AcDbLayerTableRecord
  2
ﾀｲﾄﾙ枠
 70
     0
 62
     5
  6
CONTINUOUS
370
    -3
390
1F51
  0
LAYER
  5
7B2
330
2
100
AcDbSymbolTableRecord
100
AcDbLayerTableRecord
  2
DEFPOINTS
 70
     0
 62
     7
  6
CONTINUOUS
290
     0
370
    -3
390
1F51
  0
LAYER
  5
136E
330
2
100
AcDbSymbolTableRecord
100
AcDbLayerTableRecord
  2
VEW枠1
 70
     0
 62
    -9
  6
CONTINUOUS
370
    -3
390
1F51
  0
LAYER
  5
136F
330
2
100
AcDbSymbolTableRecord
100
AcDbLayerTableRecord
  2
VEW枠2
 70
     0
 62
    -9
  6
CONTINUOUS
370
    -3
390
1F51
  0
LAYER
  5
257B
330
2
100
AcDbSymbolTableRecord
100
AcDbLayerTableRecord
  2
sunpo
 70
     0
 62
     3
  6
CONTINUOUS
370
     9
390
1F51
  0
LAYER
  5
27CD
330
2
100
AcDbSymbolTableRecord
100
AcDbLayerTableRecord
  2
sen-h
 70
     0
 62
     6
  6
HIDDEN
370
    15
390
1F51
  0
ENDTAB
  0
TABLE
  2
STYLE
  5
3
330
0
100
AcDbSymbolTable
 70
     6
  0
STYLE
  5
F
330
3
100
AcDbSymbolTableRecord
100
AcDbTextStyleTableRecord
  2
STANDARD
 70
     0
 40
0.0
 41
1.0
 50
0.0
 71
     0
 42
25.0
  3
txt
  4

  0
STYLE
  5
179
330
3
100
AcDbSymbolTableRecord
100
AcDbTextStyleTableRecord
  2
BIGFONT
 70
     0
 40
1.0
 41
1.0
 50
0.0
 71
     0
 42
1.0
  3
txt.shx
  4
bigfont
  0
STYLE
  5
84E
330
3
100
AcDbSymbolTableRecord
100
AcDbTextStyleTableRecord
  2
TYPE1
 70
     0
 40
0.0
 41
0.7
 50
0.0
 71
     0
 42
25.0
  3
txt.shx
  4

  0
STYLE
  5
105B
330
3
100
AcDbSymbolTableRecord
100
AcDbTextStyleTableRecord
  2
MSP明朝1
 70
     0
 40
0.0
 41
0.7
 50
0.0
 71
     0
 42
5.0
  3
MS PMincho.ttf
  4

1001
ACAD
1000
MS PMincho
1071
    32786
  0
STYLE
  5
105D
330
3
100
AcDbSymbolTableRecord
100
AcDbTextStyleTableRecord
  2
MSP明朝W1
 70
     0
 40
0.0
 41
1.0
 50
0.0
 71
     0
 42
25.0
  3
MS PMincho.ttf
  4

1001
ACAD
1000
MS PMincho
1071
    32786
  0
STYLE
  5
20B2
330
3
100
AcDbSymbolTableRecord
100
AcDbTextStyleTableRecord
  2
明朝TATE
 70
     0
 40
0.0
 41
1.0
 50
0.0
 71
     0
 42
2.5
  3
@MS PMincho.ttf
  4

1001
ACAD
1000
@MS PMincho
1071
    32786
  0
ENDTAB
  0
TABLE
  2
VIEW
  5
6
330
0
100
AcDbSymbolTable
 70
     0
  0
ENDTAB
  0
TABLE
  2
UCS
  5
7
330
0
100
AcDbSymbolTable
 70
     0
  0
ENDTAB
  0
TABLE
  2
APPID
  5
9
330
0
100
AcDbSymbolTable
 70
     5
  0
APPID
  5
10
330
9
100
AcDbSymbolTableRecord
100
AcDbRegAppTableRecord
  2
ACAD
 70
     0
  0
APPID
  5
24
330
9
100
AcDbSymbolTableRecord
100
AcDbRegAppTableRecord
  2
CONTENTTABDATA
 70
     0
  0
APPID
  5
25
330
9
100
AcDbSymbolTableRecord
100
AcDbRegAppTableRecord
  2
CONTENTCURRENTTAB
 70
     0
  0
APPID
  5
17B
330
9
100
AcDbSymbolTableRecord
100
AcDbRegAppTableRecord
  2
CONTENTBLOCKDESCRIPTION
 70
     0
  0
APPID
  5
17C
330
9
100
AcDbSymbolTableRecord
100
AcDbRegAppTableRecord
  2
CONTENTBLOCKICON
 70
     0
  0
ENDTAB
  0
TABLE
  2
DIMSTYLE
  5
A
330
0
100
AcDbSymbolTable
 70
     5
100
AcDbDimStyleTable
 71
     0
  0
DIMSTYLE
105
1D
330
A
100
AcDbSymbolTableRecord
100
AcDbDimStyleTableRecord
  2
STANDARD
 70
     0
340
F
  0
DIMSTYLE
105
2D0
330
A
100
AcDbSymbolTableRecord
100
AcDbDimStyleTableRecord
  2
TEST01
 70
     0
 41
2.0
 42
0.0
 43
3.0
 44
0.7
 73
     0
 74
     0
 77
     1
 78
     8
140
2.5
141
2.5
143
0.0394
147
1.0
171
     4
172
     1
173
     1
176
     3
177
     3
178
     3
271
     2
272
     2
273
     8
274
     4
340
84E
341
33A
343
33A
344
33A
  0
DIMSTYLE
105
10C0
102
{ACAD_REACTORS
330
1B68
330
1B69
330
1B95
330
1B96
330
1B97
330
1B99
330
1B9A
330
1B9B
330
1B9C
330
1B9D
330
1B9E
330
1BA0
330
1BA4
330
1BA5
330
1BAC
330
1BAD
102
}
330
A
100
AcDbSymbolTableRecord
100
AcDbDimStyleTableRecord
  2
MSP明朝寸法1
 70
     0
 41
2.0
 42
0.0
 43
3.0
 44
0.7
 73
     0
 74
     0
 77
     1
 78
     8
140
2.5
141
1.5
143
0.0394
147
1.0
171
     4
172
     1
173
     1
176
     3
177
     3
178
     3
271
     2
272
     2
273
     8
274
     4
340
105D
341
33A
343
33A
344
33A
  0
DIMSTYLE
105
257C
330
A
100
AcDbSymbolTableRecord
100
AcDbDimStyleTableRecord
  2
MSP明朝寸法2_1
 70
     0
 40
0.5
 41
2.0
 42
0.0
 43
3.0
 44
0.7
 73
     0
 74
     0
 77
     1
 78
     8
140
2.5
141
1.5
143
0.0394
147
1.0
171
     4
172
     1
173
     1
176
     3
177
     3
178
     3
271
     2
272
     2
273
     8
274
     4
340
105D
341
33A
343
33A
344
33A
  0
DIMSTYLE
105
27CE
330
A
100
AcDbSymbolTableRecord
100
AcDbDimStyleTableRecord
  2
MSP明朝寸法5
 70
     0
 40
5.0
 41
2.299999999999999
 42
0.625
 43
3.75
 44
0.625
 73
     0
 74
     0
 77
     1
 78
     8
140
2.299999999999999
141
0.0
143
0.03937007874016
147
0.625
171
     3
172
     1
176
   256
177
   256
178
   256
271
     2
272
     2
274
     3
283
     0
284
     8
340
105D
341
33A
342
33A
371
    -1
372
    -1
  0
ENDTAB
  0
TABLE
  2
BLOCK_RECORD
  5
1
330
0
100
AcDbSymbolTable
 70
    18
  0
BLOCK_RECORD
  5
18
330
1
100
AcDbSymbolTableRecord
100
AcDbBlockTableRecord
  2
*MODEL_SPACE
340
1F54
  0
BLOCK_RECORD
  5
15
330
1
100
AcDbSymbolTableRecord
100
AcDbBlockTableRecord
  2
*PAPER_SPACE
340
1F55
  0
BLOCK_RECORD
  5
33A
330
1
100
AcDbSymbolTableRecord
100
AcDbBlockTableRecord
  2
_OPEN30
340
0
102
{BLKREFS
331
1E20
331
1E21
331
1E0A
331
1E0B
331
1E79
331
1E7A
331
1E86
331
1E87
331
1E6E
331
1E6F
331
1E9C
331
1E9D
331
1ED5
331
1ED6
331
1EBD
331
1EBE
331
1EC8
331
1EC9
331
1EFB
331
1EFC
331
1F08
331
1F09
331
1F1E
331
1F1F
331
1E91
331
1E92
331
1EA7
331
1EA8
331
1F36
331
1F37
331
27B4
331
27B5
102
}
  0
BLOCK_RECORD
  5
1BB4
330
1
100
AcDbSymbolTableRecord
100
AcDbBlockTableRecord
  2
*D1
340
0
  0
BLOCK_RECORD
  5
1BC0
330
1
100
AcDbSymbolTableRecord
100
AcDbBlockTableRecord
  2
*D2
340
0
  0
BLOCK_RECORD
  5
1BCC
330
1
100
AcDbSymbolTableRecord
100
AcDbBlockTableRecord
  2
*D3
340
0
  0
BLOCK_RECORD
  5
1BD8
330
1
100
AcDbSymbolTableRecord
100
AcDbBlockTableRecord
  2
*D4
340
0
  0
BLOCK_RECORD
  5
1BE6
330
1
100
AcDbSymbolTableRecord
100
AcDbBlockTableRecord
  2
*D5
340
0
  0
BLOCK_RECORD
  5
1BFE
330
1
100
AcDbSymbolTableRecord
100
AcDbBlockTableRecord
  2
*D6
340
0
  0
BLOCK_RECORD
  5
1C0A
330
1
100
AcDbSymbolTableRecord
100
AcDbBlockTableRecord
  2
*D7
340
0
  0
BLOCK_RECORD
  5
1C18
330
1
100
AcDbSymbolTableRecord
100
AcDbBlockTableRecord
  2
*D8
340
0
  0
BLOCK_RECORD
  5
1C24
330
1
100
AcDbSymbolTableRecord
100
AcDbBlockTableRecord
  2
*D9
340
0
  0
BLOCK_RECORD
  5
1C30
330
1
100
AcDbSymbolTableRecord
100
AcDbBlockTableRecord
  2
*D10
340
0
  0
BLOCK_RECORD
  5
1C3C
330
1
100
AcDbSymbolTableRecord
100
AcDbBlockTableRecord
  2
*D11
340
0
  0
BLOCK_RECORD
  5
1C56
330
1
100
AcDbSymbolTableRecord
100
AcDbBlockTableRecord
  2
*D12
340
0
  0
BLOCK_RECORD
  5
1C7B
330
1
100
AcDbSymbolTableRecord
100
AcDbBlockTableRecord
  2
*D13
340
0
  0
BLOCK_RECORD
  5
1C87
330
1
100
AcDbSymbolTableRecord
100
AcDbBlockTableRecord
  2
*D14
340
0
  0
BLOCK_RECORD
  5
1C9B
330
1
100
AcDbSymbolTableRecord
100
AcDbBlockTableRecord
  2
*D15
340
0
  0
BLOCK_RECORD
  5
1CA9
330
1
100
AcDbSymbolTableRecord
100
AcDbBlockTableRecord
  2
*D16
340
0
  0
BLOCK_RECORD
  5
2210
330
1
100
AcDbSymbolTableRecord
100
AcDbBlockTableRecord
  2
A3
340
0
  0
ENDTAB
  0
ENDSEC
  0
SECTION
  2
BLOCKS
  0
BLOCK
  5
19
330
18
100
AcDbEntity
  8
0
100
AcDbBlockBegin
  2
*MODEL_SPACE
 70
     0
 10
0.0
 20
0.0
 30
0.0
  3
*MODEL_SPACE
  1

  0
ENDBLK
  5
1A
330
18
100
AcDbEntity
  8
0
100
AcDbBlockEnd
  0
BLOCK
  5
16
330
15
100
AcDbEntity
 67
     1
  8
0
100
AcDbBlockBegin
  2
*PAPER_SPACE
 70
     0
 10
0.0
 20
0.0
 30
0.0
  3
*PAPER_SPACE
  1

  0
ENDBLK
  5
17
330
15
100
AcDbEntity
 67
     1
  8
0
100
AcDbBlockEnd
  0
BLOCK
  5
33B
330
33A
100
AcDbEntity
  8
0
100
AcDbBlockBegin
  2
_OPEN30
 70
     0
 10
0.0
 20
0.0
 30
0.0
  3
_OPEN30
  1

  0
LINE
  5
33C
330
33A
100
AcDbEntity
  8
0
  6
ByBlock
 62
     0
100
AcDbLine
 10
-1.0
 20
0.26794919
 30
0.0
 11
0.0
 21
0.0
 31
0.0
  0
LINE
  5
33D
330
33A
100
AcDbEntity
  8
0
  6
ByBlock
 62
     0
100
AcDbLine
 10
0.0
 20
0.0
 30
0.0
 11
-1.0
 21
-0.26794919
 31
0.0
  0
LINE
  5
33E
330
33A
100
AcDbEntity
  8
0
  6
ByBlock
 62
     0
100
AcDbLine
 10
0.0
 20
0.0
 30
0.0
 11
-1.0
 21
0.0
 31
0.0
  0
ENDBLK
  5
33F
330
33A
100
AcDbEntity
  8
0
100
AcDbBlockEnd
  0
BLOCK
  5
1E1C
330
1BB4
100
AcDbEntity
  8
0
100
AcDbBlockBegin
  2
*D1
 70
     1
 10
0.0
 20
0.0
 30
0.0
  3
*D1
  1

  0
LINE
  5
1E1D
330
1BB4
100
AcDbEntity
  8
0
  6
ByBlock
 62
     3
100
AcDbLine
 10
1440.997031746142
 20
3577.383094469913
 30
0.0
 11
1353.997031746142
 21
3577.383094469913
 31
0.0
  0
LINE
  5
1E1E
330
1BB4
100
AcDbEntity
  8
0
  6
ByBlock
 62
     3
100
AcDbLine
 10
1440.997031746142
 20
2927.383094469913
 30
0.0
 11
1353.997031746142
 21
2927.383094469913
 31
0.0
  0
LINE
  5
1E1F
330
1BB4
100
AcDbEntity
  8
0
  6
ByBlock
 62
     3
100
AcDbLine
 10
1360.997031746142
 20
3557.383094469913
 30
0.0
 11
1360.997031746142
 21
2947.383094469913
 31
0.0
  0
INSERT
  5
1E20
330
1BB4
100
AcDbEntity
  8
0
  6
ByBlock
 62
     3
100
AcDbBlockReference
  2
_OPEN30
 10
1360.997031746142
 20
3577.383094469913
 30
0.0
 41
20.0
 42
20.0
 43
20.0
 50
90.0
  0
INSERT
  5
1E21
330
1BB4
100
AcDbEntity
  8
0
  6
ByBlock
 62
     3
100
AcDbBlockReference
  2
_OPEN30
 10
1360.997031746142
 20
2927.383094469913
 30
0.0
 41
20.0
 42
20.0
 43
20.0
 50
270.0
  0
MTEXT
  5
1E22
330
1BB4
100
AcDbEntity
  8
0
  6
ByBlock
 62
     3
100
AcDbMText
 10
1338.497031746142
 20
3252.383094469913
 30
0.0
 40
25.0
 41
0.0
 71
     5
 72
     1
  1
\A1;650
  7
MSP明朝W1
 11
0.0000000000000001
 21
1.0
 31
0.0
 73
     1
 44
1.0
  0
POINT
  5
1E23
330
1BB4
100
AcDbEntity
  8
DEFPOINTS
  6
ByBlock
 62
     0
100
AcDbPoint
 10
1440.997031746142
 20
3577.383094469913
 30
0.0
  0
POINT
  5
1E24
330
1BB4
100
AcDbEntity
  8
DEFPOINTS
  6
ByBlock
 62
     0
100
AcDbPoint
 10
1440.997031746142
 20
2927.383094469913
 30
0.0
  0
POINT
  5
1E25
330
1BB4
100
AcDbEntity
  8
DEFPOINTS
  6
ByBlock
 62
     0
100
AcDbPoint
 10
1360.997031746142
 20
2927.383094469913
 30
0.0
  0
ENDBLK
  5
1E26
330
1BB4
100
AcDbEntity
  8
0
100
AcDbBlockEnd
  0
BLOCK
  5
1E06
330
1BC0
100
AcDbEntity
  8
0
100
AcDbBlockBegin
  2
*D2
 70
     1
 10
0.0
 20
0.0
 30
0.0
  3
*D2
  1

  0
LINE
  5
1E07
330
1BC0
100
AcDbEntity
  8
0
  6
ByBlock
 62
     3
100
AcDbLine
 10
1440.997031746142
 20
2927.383094469913
 30
0.0
 11
1440.997031746142
 21
2770.383094469913
 31
0.0
  0
LINE
  5
1E08
330
1BC0
100
AcDbEntity
  8
0
  6
ByBlock
 62
     3
100
AcDbLine
 10
4240.997031746142
 20
2927.383094469913
 30
0.0
 11
4240.997031746142
 21
2770.383094469913
 31
0.0
  0
LINE
  5
1E09
330
1BC0
100
AcDbEntity
  8
0
  6
ByBlock
 62
     3
100
AcDbLine
 10
1460.997031746142
 20
2777.383094469913
 30
0.0
 11
4220.997031746142
 21
2777.383094469913
 31
0.0
  0
INSERT
  5
1E0A
330
1BC0
100
AcDbEntity
  8
0
  6
ByBlock
 62
     3
100
AcDbBlockReference
  2
_OPEN30
 10
1440.997031746142
 20
2777.383094469913
 30
0.0
 41
20.0
 42
20.0
 43
20.0
 50
180.0
  0
INSERT
  5
1E0B
330
1BC0
100
AcDbEntity
  8
0
  6
ByBlock
 62
     3
100
AcDbBlockReference
  2
_OPEN30
 10
4240.997031746142
 20
2777.383094469913
 30
0.0
 41
20.0
 42
20.0
 43
20.0
  0
MTEXT
  5
1E0C
330
1BC0
100
AcDbEntity
  8
0
  6
ByBlock
 62
     3
100
AcDbMText
 10
2840.997031746142
 20
2799.883094469914
 30
0.0
 40
25.0
 41
0.0
 71
     5
 72
     1
  1
\A1;3600
  7
MSP明朝W1
 73
     1
 44
1.0
  0
POINT
  5
1E0D
330
1BC0
100
AcDbEntity
  8
DEFPOINTS
  6
ByBlock
 62
     0
100
AcDbPoint
 10
1440.997031746142
 20
2927.383094469913
 30
0.0
  0
POINT
  5
1E0E
330
1BC0
100
AcDbEntity
  8
DEFPOINTS
  6
ByBlock
 62
     0
100
AcDbPoint
 10
4240.997031746142
 20
2927.383094469913
 30
0.0
  0
POINT
  5
1E0F
330
1BC0
100
AcDbEntity
  8
DEFPOINTS
  6
ByBlock
 62
     0
100
AcDbPoint
 10
4240.997031746142
 20
2777.383094469913
 30
0.0
  0
ENDBLK
  5
1E10
330
1BC0
100
AcDbEntity
  8
0
100
AcDbBlockEnd
  0
BLOCK
  5
1E75
330
1BCC
100
AcDbEntity
  8
0
100
AcDbBlockBegin
  2
*D3
 70
     1
 10
0.0
 20
0.0
 30
0.0
  3
*D3
  1

  0
LINE
  5
1E76
330
1BCC
100
AcDbEntity
  8
0
  6
ByBlock
 62
     3
100
AcDbLine
 10
2269.444416080748
 20
2096.565198799706
 30
0.0
 11
2251.744416080748
 21
2096.565198799706
 31
0.0
  0
LINE
  5
1E77
330
1BCC
100
AcDbEntity
  8
0
  6
ByBlock
 62
     3
100
AcDbLine
 10
2260.444416080748
 20
2054.565198799706
 30
0.0
 11
2251.744416080748
 21
2054.565198799706
 31
0.0
  0
LINE
  5
1E78
330
1BCC
100
AcDbEntity
  8
0
  6
ByBlock
 62
     3
100
AcDbLine
 10
2252.444416080748
 20
2094.565198799706
 30
0.0
 11
2252.444416080748
 21
2056.565198799706
 31
0.0
  0
INSERT
  5
1E79
330
1BCC
100
AcDbEntity
  8
0
  6
ByBlock
 62
     3
100
AcDbBlockReference
  2
_OPEN30
 10
2252.444416080748
 20
2096.565198799706
 30
0.0
 41
2.0
 42
2.0
 43
2.0
 50
90.0
  0
INSERT
  5
1E7A
330
1BCC
100
AcDbEntity
  8
0
  6
ByBlock
 62
     3
100
AcDbBlockReference
  2
_OPEN30
 10
2252.444416080748
 20
2054.565198799706
 30
0.0
 41
2.0
 42
2.0
 43
2.0
 50
270.0
  0
MTEXT
  5
1E7B
330
1BCC
100
AcDbEntity
  8
0
  6
ByBlock
 62
     3
100
AcDbMText
 10
2250.194416080748
 20
2075.565198799706
 30
0.0
 40
2.5
 41
0.0
 71
     5
 72
     1
  1
\A1;42
  7
MSP明朝W1
 11
0.0000000000000001
 21
1.0
 31
0.0
 73
     1
 44
1.0
  0
POINT
  5
1E7C
330
1BCC
100
AcDbEntity
  8
DEFPOINTS
  6
ByBlock
 62
     0
100
AcDbPoint
 10
2269.444416080748
 20
2096.565198799706
 30
0.0
  0
POINT
  5
1E7D
330
1BCC
100
AcDbEntity
  8
DEFPOINTS
  6
ByBlock
 62
     0
100
AcDbPoint
 10
2260.444416080748
 20
2054.565198799706
 30
0.0
  0
POINT
  5
1E7E
330
1BCC
100
AcDbEntity
  8
DEFPOINTS
  6
ByBlock
 62
     0
100
AcDbPoint
 10
2252.444416080748
 20
2054.565198799706
 30
0.0
  0
ENDBLK
  5
1E7F
330
1BCC
100
AcDbEntity
  8
0
100
AcDbBlockEnd
  0
BLOCK
  5
1E80
330
1BD8
100
AcDbEntity
  8
0
100
AcDbBlockBegin
  2
*D4
 70
     1
 10
0.0
 20
0.0
 30
0.0
  3
*D4
  1

  0
LINE
  5
1E81
330
1BD8
100
AcDbEntity
  8
0
  6
ByBlock
 62
     3
100
AcDbLine
 10
2260.444416080748
 20
2054.565198799706
 30
0.0
 11
2260.444416080748
 21
2045.865198799706
 31
0.0
  0
LINE
  5
1E82
330
1BD8
100
AcDbEntity
  8
0
  6
ByBlock
 62
     3
100
AcDbLine
 10
2266.444416080748
 20
2055.565198799706
 30
0.0
 11
2266.444416080748
 21
2045.865198799706
 31
0.0
  0
LINE
  5
1E83
330
1BD8
100
AcDbEntity
  8
0
  6
ByBlock
 62
     3
100
AcDbLine
 10
2258.444416080748
 20
2046.565198799706
 30
0.0
 11
2256.444416080748
 21
2046.565198799706
 31
0.0
  0
LINE
  5
1E84
330
1BD8
100
AcDbEntity
  8
0
  6
ByBlock
 62
     3
100
AcDbLine
 10
2268.444416080748
 20
2046.565198799706
 30
0.0
 11
2270.444416080748
 21
2046.565198799706
 31
0.0
  0
LINE
  5
1E85
330
1BD8
100
AcDbEntity
  8
0
  6
ByBlock
 62
     3
100
AcDbLine
 10
2260.444416080748
 20
2046.565198799706
 30
0.0
 11
2266.444416080748
 21
2046.565198799706
 31
0.0
  0
INSERT
  5
1E86
330
1BD8
100
AcDbEntity
  8
0
  6
ByBlock
 62
     3
100
AcDbBlockReference
  2
_OPEN30
 10
2260.444416080748
 20
2046.565198799706
 30
0.0
 41
2.0
 42
2.0
 43
2.0
  0
INSERT
  5
1E87
330
1BD8
100
AcDbEntity
  8
0
  6
ByBlock
 62
     3
100
AcDbBlockReference
  2
_OPEN30
 10
2266.444416080748
 20
2046.565198799706
 30
0.0
 41
2.0
 42
2.0
 43
2.0
 50
180.0
  0
MTEXT
  5
1E88
330
1BD8
100
AcDbEntity
  8
0
  6
ByBlock
 62
     3
100
AcDbMText
 10
2263.444416080748
 20
2048.815198799706
 30
0.0
 40
2.5
 41
0.0
 71
     5
 72
     1
  1
\A1;6
  7
MSP明朝W1
 73
     1
 44
1.0
  0
POINT
  5
1E89
330
1BD8
100
AcDbEntity
  8
DEFPOINTS
  6
ByBlock
 62
     0
100
AcDbPoint
 10
2260.444416080748
 20
2054.565198799706
 30
0.0
  0
POINT
  5
1E8A
330
1BD8
100
AcDbEntity
  8
DEFPOINTS
  6
ByBlock
 62
     0
100
AcDbPoint
 10
2266.444416080748
 20
2055.565198799706
 30
0.0
  0
POINT
  5
1E8B
330
1BD8
100
AcDbEntity
  8
DEFPOINTS
  6
ByBlock
 62
     0
100
AcDbPoint
 10
2266.444416080748
 20
2046.565198799706
 30
0.0
  0
ENDBLK
  5
1E8C
330
1BD8
100
AcDbEntity
  8
0
100
AcDbBlockEnd
  0
BLOCK
  5
1E6A
330
1BE6
100
AcDbEntity
  8
0
100
AcDbBlockBegin
  2
*D5
 70
     1
 10
0.0
 20
0.0
 30
0.0
  3
*D5
  1

  0
LINE
  5
1E6B
330
1BE6
100
AcDbEntity
  8
0
  6
ByBlock
 62
     3
100
AcDbLine
 10
2260.444416080748
 20
2087.565198799705
 30
0.0
 11
2260.444416080748
 21
2104.265198799706
 31
0.0
  0
LINE
  5
1E6C
330
1BE6
100
AcDbEntity
  8
0
  6
ByBlock
 62
     3
100
AcDbLine
 10
2276.444416080749
 20
2096.565198799706
 30
0.0
 11
2276.444416080749
 21
2104.265198799706
 31
0.0
  0
LINE
  5
1E6D
330
1BE6
100
AcDbEntity
  8
0
  6
ByBlock
 62
     3
100
AcDbLine
 10
2262.444416080748
 20
2103.565198799706
 30
0.0
 11
2274.444416080748
 21
2103.565198799706
 31
0.0
  0
INSERT
  5
1E6E
330
1BE6
100
AcDbEntity
  8
0
  6
ByBlock
 62
     3
100
AcDbBlockReference
  2
_OPEN30
 10
2260.444416080748
 20
2103.565198799706
 30
0.0
 41
2.0
 42
2.0
 43
2.0
 50
180.0
  0
INSERT
  5
1E6F
330
1BE6
100
AcDbEntity
  8
0
  6
ByBlock
 62
     3
100
AcDbBlockReference
  2
_OPEN30
 10
2276.444416080749
 20
2103.565198799706
 30
0.0
 41
2.0
 42
2.0
 43
2.0
  0
MTEXT
  5
1E70
330
1BE6
100
AcDbEntity
  8
0
  6
ByBlock
 62
     3
100
AcDbMText
 10
2268.444416080748
 20
2105.815198799706
 30
0.0
 40
2.5
 41
0.0
 71
     5
 72
     1
  1
\A1;16
  7
MSP明朝W1
 73
     1
 44
1.0
  0
POINT
  5
1E71
330
1BE6
100
AcDbEntity
  8
DEFPOINTS
  6
ByBlock
 62
     0
100
AcDbPoint
 10
2260.444416080748
 20
2087.565198799705
 30
0.0
  0
POINT
  5
1E72
330
1BE6
100
AcDbEntity
  8
DEFPOINTS
  6
ByBlock
 62
     0
100
AcDbPoint
 10
2276.444416080749
 20
2096.565198799706
 30
0.0
  0
POINT
  5
1E73
330
1BE6
100
AcDbEntity
  8
DEFPOINTS
  6
ByBlock
 62
     0
100
AcDbPoint
 10
2276.444416080749
 20
2103.565198799706
 30
0.0
  0
ENDBLK
  5
1E74
330
1BE6
100
AcDbEntity
  8
0
100
AcDbBlockEnd
  0
BLOCK
  5
1E98
330
1BFE
100
AcDbEntity
  8
0
100
AcDbBlockBegin
  2
*D6
 70
     1
 10
0.0
 20
0.0
 30
0.0
  3
*D6
  1

  0
LINE
  5
1E99
330
1BFE
100
AcDbEntity
  8
0
  6
ByBlock
 62
     3
100
AcDbLine
 10
2260.444416080748
 20
2046.565198799706
 30
0.0
 11
2260.444416080748
 21
2037.865198799706
 31
0.0
  0
LINE
  5
1E9A
330
1BFE
100
AcDbEntity
  8
0
  6
ByBlock
 62
     3
100
AcDbLine
 10
2555.444416080748
 20
2139.565198799706
 30
0.0
 11
2555.444416080748
 21
2037.865198799706
 31
0.0
  0
LINE
  5
1E9B
330
1BFE
100
AcDbEntity
  8
0
  6
ByBlock
 62
     3
100
AcDbLine
 10
2262.444416080748
 20
2038.565198799706
 30
0.0
 11
2553.444416080748
 21
2038.565198799706
 31
0.0
  0
INSERT
  5
1E9C
330
1BFE
100
AcDbEntity
  8
0
  6
ByBlock
 62
     3
100
AcDbBlockReference
  2
_OPEN30
 10
2260.444416080748
 20
2038.565198799706
 30
0.0
 41
2.0
 42
2.0
 43
2.0
 50
180.0
  0
INSERT
  5
1E9D
330
1BFE
100
AcDbEntity
  8
0
  6
ByBlock
 62
     3
100
AcDbBlockReference
  2
_OPEN30
 10
2555.444416080748
 20
2038.565198799706
 30
0.0
 41
2.0
 42
2.0
 43
2.0
  0
MTEXT
  5
1E9E
330
1BFE
100
AcDbEntity
  8
0
  6
ByBlock
 62
     3
100
AcDbMText
 10
2407.944416080748
 20
2040.815198799706
 30
0.0
 40
2.5
 41
0.0
 71
     5
 72
     1
  1
\A1;650
  7
MSP明朝W1
 73
     1
 44
1.0
  0
POINT
  5
1E9F
330
1BFE
100
AcDbEntity
  8
DEFPOINTS
  6
ByBlock
 62
     0
100
AcDbPoint
 10
2260.444416080748
 20
2046.565198799706
 30
0.0
  0
POINT
  5
1EA0
330
1BFE
100
AcDbEntity
  8
DEFPOINTS
  6
ByBlock
 62
     0
100
AcDbPoint
 10
2555.444416080748
 20
2139.565198799706
 30
0.0
  0
POINT
  5
1EA1
330
1BFE
100
AcDbEntity
  8
DEFPOINTS
  6
ByBlock
 62
     0
100
AcDbPoint
 10
2555.444416080748
 20
2038.565198799706
 30
0.0
  0
ENDBLK
  5
1EA2
330
1BFE
100
AcDbEntity
  8
0
100
AcDbBlockEnd
  0
BLOCK
  5
1ECF
330
1C0A
100
AcDbEntity
  8
0
100
AcDbBlockBegin
  2
*D7
 70
     1
 10
0.0
 20
0.0
 30
0.0
  3
*D7
  1

  0
LINE
  5
1ED0
330
1C0A
100
AcDbEntity
  8
0
  6
ByBlock
 62
     3
100
AcDbLine
 10
2555.444416080748
 20
2145.565198799706
 30
0.0
 11
2566.144416080748
 21
2145.565198799706
 31
0.0
  0
LINE
  5
1ED1
330
1C0A
100
AcDbEntity
  8
0
  6
ByBlock
 62
     3
100
AcDbLine
 10
2555.444416080748
 20
2139.565198799706
 30
0.0
 11
2566.144416080748
 21
2139.565198799706
 31
0.0
  0
LINE
  5
1ED2
330
1C0A
100
AcDbEntity
  8
0
  6
ByBlock
 62
     3
100
AcDbLine
 10
2565.444416080748
 20
2147.565198799706
 30
0.0
 11
2565.444416080748
 21
2149.565198799705
 31
0.0
  0
LINE
  5
1ED3
330
1C0A
100
AcDbEntity
  8
0
  6
ByBlock
 62
     3
100
AcDbLine
 10
2565.444416080748
 20
2137.565198799706
 30
0.0
 11
2565.444416080748
 21
2135.565198799706
 31
0.0
  0
LINE
  5
1ED4
330
1C0A
100
AcDbEntity
  8
0
  6
ByBlock
 62
     3
100
AcDbLine
 10
2565.444416080748
 20
2145.565198799706
 30
0.0
 11
2565.444416080748
 21
2139.565198799706
 31
0.0
  0
INSERT
  5
1ED5
330
1C0A
100
AcDbEntity
  8
0
  6
ByBlock
 62
     3
100
AcDbBlockReference
  2
_OPEN30
 10
2565.444416080748
 20
2145.565198799706
 30
0.0
 41
2.0
 42
2.0
 43
2.0
 50
270.0
  0
INSERT
  5
1ED6
330
1C0A
100
AcDbEntity
  8
0
  6
ByBlock
 62
     3
100
AcDbBlockReference
  2
_OPEN30
 10
2565.444416080748
 20
2139.565198799706
 30
0.0
 41
2.0
 42
2.0
 43
2.0
 50
90.0
  0
MTEXT
  5
1ED7
330
1C0A
100
AcDbEntity
  8
0
  6
ByBlock
 62
     3
100
AcDbMText
 10
2563.194416080748
 20
2142.565198799706
 30
0.0
 40
2.5
 41
0.0
 71
     5
 72
     1
  1
\A1;6
  7
MSP明朝W1
 11
0.0000000000000001
 21
1.0
 31
0.0
 73
     1
 44
1.0
  0
POINT
  5
1ED8
330
1C0A
100
AcDbEntity
  8
DEFPOINTS
  6
ByBlock
 62
     0
100
AcDbPoint
 10
2555.444416080748
 20
2145.565198799706
 30
0.0
  0
POINT
  5
1ED9
330
1C0A
100
AcDbEntity
  8
DEFPOINTS
  6
ByBlock
 62
     0
100
AcDbPoint
 10
2555.444416080748
 20
2139.565198799706
 30
0.0
  0
POINT
  5
1EDA
330
1C0A
100
AcDbEntity
  8
DEFPOINTS
  6
ByBlock
 62
     0
100
AcDbPoint
 10
2565.444416080748
 20
2139.565198799706
 30
0.0
  0
ENDBLK
  5
1EDB
330
1C0A
100
AcDbEntity
  8
0
100
AcDbBlockEnd
  0
BLOCK
  5
1EB9
330
1C18
100
AcDbEntity
  8
0
100
AcDbBlockBegin
  2
*D8
 70
     1
 10
0.0
 20
0.0
 30
0.0
  3
*D8
  1

  0
LINE
  5
1EBA
330
1C18
100
AcDbEntity
  8
0
  6
ByBlock
 62
     3
100
AcDbLine
 10
2565.444416080748
 20
2139.565198799706
 30
0.0
 11
2564.744416080748
 21
2139.565198799706
 31
0.0
  0
LINE
  5
1EBB
330
1C18
100
AcDbEntity
  8
0
  6
ByBlock
 62
     3
100
AcDbLine
 10
2531.444416080748
 20
2089.565198799706
 30
0.0
 11
2566.144416080748
 21
2089.565198799706
 31
0.0
  0
LINE
  5
1EBC
330
1C18
100
AcDbEntity
  8
0
  6
ByBlock
 62
     3
100
AcDbLine
 10
2565.444416080748
 20
2137.565198799706
 30
0.0
 11
2565.444416080748
 21
2091.565198799706
 31
0.0
  0
INSERT
  5
1EBD
330
1C18
100
AcDbEntity
  8
0
  6
ByBlock
 62
     3
100
AcDbBlockReference
  2
_OPEN30
 10
2565.444416080748
 20
2139.565198799706
 30
0.0
 41
2.0
 42
2.0
 43
2.0
 50
90.0
  0
INSERT
  5
1EBE
330
1C18
100
AcDbEntity
  8
0
  6
ByBlock
 62
     3
100
AcDbBlockReference
  2
_OPEN30
 10
2565.444416080748
 20
2089.565198799706
 30
0.0
 41
2.0
 42
2.0
 43
2.0
 50
270.0
  0
MTEXT
  5
1EBF
330
1C18
100
AcDbEntity
  8
0
  6
ByBlock
 62
     3
100
AcDbMText
 10
2563.194416080748
 20
2114.565198799706
 30
0.0
 40
2.5
 41
0.0
 71
     5
 72
     1
  1
\A1;50
  7
MSP明朝W1
 11
0.0000000000000001
 21
1.0
 31
0.0
 73
     1
 44
1.0
  0
POINT
  5
1EC0
330
1C18
100
AcDbEntity
  8
DEFPOINTS
  6
ByBlock
 62
     0
100
AcDbPoint
 10
2565.444416080748
 20
2139.565198799706
 30
0.0
  0
POINT
  5
1EC1
330
1C18
100
AcDbEntity
  8
DEFPOINTS
  6
ByBlock
 62
     0
100
AcDbPoint
 10
2531.444416080748
 20
2089.565198799706
 30
0.0
  0
POINT
  5
1EC2
330
1C18
100
AcDbEntity
  8
DEFPOINTS
  6
ByBlock
 62
     0
100
AcDbPoint
 10
2565.444416080748
 20
2089.565198799706
 30
0.0
  0
ENDBLK
  5
1EC3
330
1C18
100
AcDbEntity
  8
0
100
AcDbBlockEnd
  0
BLOCK
  5
1EC4
330
1C24
100
AcDbEntity
  8
0
100
AcDbBlockBegin
  2
*D9
 70
     1
 10
0.0
 20
0.0
 30
0.0
  3
*D9
  1

  0
LINE
  5
1EC5
330
1C24
100
AcDbEntity
  8
0
  6
ByBlock
 62
     3
100
AcDbLine
 10
2565.444416080748
 20
2145.565198799706
 30
0.0
 11
2574.144416080748
 21
2145.565198799706
 31
0.0
  0
LINE
  5
1EC6
330
1C24
100
AcDbEntity
  8
0
  6
ByBlock
 62
     3
100
AcDbLine
 10
2565.444416080748
 20
2089.565198799706
 30
0.0
 11
2574.144416080748
 21
2089.565198799706
 31
0.0
  0
LINE
  5
1EC7
330
1C24
100
AcDbEntity
  8
0
  6
ByBlock
 62
     3
100
AcDbLine
 10
2573.444416080748
 20
2143.565198799706
 30
0.0
 11
2573.444416080748
 21
2091.565198799706
 31
0.0
  0
INSERT
  5
1EC8
330
1C24
100
AcDbEntity
  8
0
  6
ByBlock
 62
     3
100
AcDbBlockReference
  2
_OPEN30
 10
2573.444416080748
 20
2145.565198799706
 30
0.0
 41
2.0
 42
2.0
 43
2.0
 50
90.0
  0
INSERT
  5
1EC9
330
1C24
100
AcDbEntity
  8
0
  6
ByBlock
 62
     3
100
AcDbBlockReference
  2
_OPEN30
 10
2573.444416080748
 20
2089.565198799706
 30
0.0
 41
2.0
 42
2.0
 43
2.0
 50
270.0
  0
MTEXT
  5
1ECA
330
1C24
100
AcDbEntity
  8
0
  6
ByBlock
 62
     3
100
AcDbMText
 10
2571.194416080748
 20
2117.565198799706
 30
0.0
 40
2.5
 41
0.0
 71
     5
 72
     1
  1
\A1;56
  7
MSP明朝W1
 11
0.0000000000000001
 21
1.0
 31
0.0
 73
     1
 44
1.0
  0
POINT
  5
1ECB
330
1C24
100
AcDbEntity
  8
DEFPOINTS
  6
ByBlock
 62
     0
100
AcDbPoint
 10
2565.444416080748
 20
2145.565198799706
 30
0.0
  0
POINT
  5
1ECC
330
1C24
100
AcDbEntity
  8
DEFPOINTS
  6
ByBlock
 62
     0
100
AcDbPoint
 10
2565.444416080748
 20
2089.565198799706
 30
0.0
  0
POINT
  5
1ECD
330
1C24
100
AcDbEntity
  8
DEFPOINTS
  6
ByBlock
 62
     0
100
AcDbPoint
 10
2573.444416080748
 20
2089.565198799706
 30
0.0
  0
ENDBLK
  5
1ECE
330
1C24
100
AcDbEntity
  8
0
100
AcDbBlockEnd
  0
BLOCK
  5
1EF7
330
1C30
100
AcDbEntity
  8
0
100
AcDbBlockBegin
  2
*D10
 70
     1
 10
0.0
 20
0.0
 30
0.0
  3
*D10
  1

  0
LINE
  5
1EF8
330
1C30
100
AcDbEntity
  8
0
  6
ByBlock
 62
     3
100
AcDbLine
 10
2545.73854872959
 20
2145.565198799706
 30
0.0
 11
2509.490896139436
 21
2145.565198799706
 31
0.0
  0
LINE
  5
1EF9
330
1C30
100
AcDbEntity
  8
0
  6
ByBlock
 62
     3
100
AcDbLine
 10
2510.190896139436
 20
2095.565198799706
 30
0.0
 11
2509.490896139436
 21
2095.565198799706
 31
0.0
  0
LINE
  5
1EFA
330
1C30
100
AcDbEntity
  8
0
  6
ByBlock
 62
     3
100
AcDbLine
 10
2510.190896139436
 20
2143.565198799706
 30
0.0
 11
2510.190896139436
 21
2097.565198799706
 31
0.0
  0
INSERT
  5
1EFB
330
1C30
100
AcDbEntity
  8
0
  6
ByBlock
 62
     3
100
AcDbBlockReference
  2
_OPEN30
 10
2510.190896139436
 20
2145.565198799706
 30
0.0
 41
2.0
 42
2.0
 43
2.0
 50
90.0
  0
INSERT
  5
1EFC
330
1C30
100
AcDbEntity
  8
0
  6
ByBlock
 62
     3
100
AcDbBlockReference
  2
_OPEN30
 10
2510.190896139436
 20
2095.565198799706
 30
0.0
 41
2.0
 42
2.0
 43
2.0
 50
270.0
  0
MTEXT
  5
1EFD
330
1C30
100
AcDbEntity
  8
0
  6
ByBlock
 62
     3
100
AcDbMText
 10
2507.940896139436
 20
2120.565198799706
 30
0.0
 40
2.5
 41
0.0
 71
     5
 72
     1
  1
\A1;50
  7
MSP明朝W1
 11
0.0000000000000001
 21
1.0
 31
0.0
 73
     1
 44
1.0
  0
POINT
  5
1EFE
330
1C30
100
AcDbEntity
  8
DEFPOINTS
  6
ByBlock
 62
     0
100
AcDbPoint
 10
2545.73854872959
 20
2145.565198799706
 30
0.0
  0
POINT
  5
1EFF
330
1C30
100
AcDbEntity
  8
DEFPOINTS
  6
ByBlock
 62
     0
100
AcDbPoint
 10
2510.190896139436
 20
2095.565198799706
 30
0.0
  0
POINT
  5
1F00
330
1C30
100
AcDbEntity
  8
DEFPOINTS
  6
ByBlock
 62
     0
100
AcDbPoint
 10
2510.190896139436
 20
2095.565198799706
 30
0.0
  0
ENDBLK
  5
1F01
330
1C30
100
AcDbEntity
  8
0
100
AcDbBlockEnd
  0
BLOCK
  5
1F02
330
1C3C
100
AcDbEntity
  8
0
100
AcDbBlockBegin
  2
*D11
 70
     1
 10
0.0
 20
0.0
 30
0.0
  3
*D11
  1

  0
LINE
  5
1F03
330
1C3C
100
AcDbEntity
  8
0
  6
ByBlock
 62
     3
100
AcDbLine
 10
2510.190896139436
 20
2095.565198799706
 30
0.0
 11
2509.490896139436
 21
2095.565198799706
 31
0.0
  0
LINE
  5
1F04
330
1C3C
100
AcDbEntity
  8
0
  6
ByBlock
 62
     3
100
AcDbLine
 10
2510.190896139436
 20
2089.565198799706
 30
0.0
 11
2509.490896139436
 21
2089.565198799706
 31
0.0
  0
LINE
  5
1F05
330
1C3C
100
AcDbEntity
  8
0
  6
ByBlock
 62
     3
100
AcDbLine
 10
2510.190896139436
 20
2097.565198799706
 30
0.0
 11
2510.190896139436
 21
2099.565198799706
 31
0.0
  0
LINE
  5
1F06
330
1C3C
100
AcDbEntity
  8
0
  6
ByBlock
 62
     3
100
AcDbLine
 10
2510.190896139436
 20
2087.565198799706
 30
0.0
 11
2510.190896139436
 21
2085.565198799706
 31
0.0
  0
LINE
  5
1F07
330
1C3C
100
AcDbEntity
  8
0
  6
ByBlock
 62
     3
100
AcDbLine
 10
2510.190896139436
 20
2095.565198799706
 30
0.0
 11
2510.190896139436
 21
2089.565198799706
 31
0.0
  0
INSERT
  5
1F08
330
1C3C
100
AcDbEntity
  8
0
  6
ByBlock
 62
     3
100
AcDbBlockReference
  2
_OPEN30
 10
2510.190896139436
 20
2095.565198799706
 30
0.0
 41
2.0
 42
2.0
 43
2.0
 50
270.0
  0
INSERT
  5
1F09
330
1C3C
100
AcDbEntity
  8
0
  6
ByBlock
 62
     3
100
AcDbBlockReference
  2
_OPEN30
 10
2510.190896139436
 20
2089.565198799706
 30
0.0
 41
2.0
 42
2.0
 43
2.0
 50
90.0
  0
MTEXT
  5
1F0A
330
1C3C
100
AcDbEntity
  8
0
  6
ByBlock
 62
     3
100
AcDbMText
 10
2507.940896139436
 20
2092.565198799706
 30
0.0
 40
2.5
 41
0.0
 71
     5
 72
     1
  1
\A1;6
  7
MSP明朝W1
 11
0.0000000000000001
 21
1.0
 31
0.0
 73
     1
 44
1.0
  0
POINT
  5
1F0B
330
1C3C
100
AcDbEntity
  8
DEFPOINTS
  6
ByBlock
 62
     0
100
AcDbPoint
 10
2510.190896139436
 20
2095.565198799706
 30
0.0
  0
POINT
  5
1F0C
330
1C3C
100
AcDbEntity
  8
DEFPOINTS
  6
ByBlock
 62
     0
100
AcDbPoint
 10
2510.190896139436
 20
2089.565198799706
 30
0.0
  0
POINT
  5
1F0D
330
1C3C
100
AcDbEntity
  8
DEFPOINTS
  6
ByBlock
 62
     0
100
AcDbPoint
 10
2510.190896139436
 20
2089.565198799706
 30
0.0
  0
ENDBLK
  5
1F0E
330
1C3C
100
AcDbEntity
  8
0
100
AcDbBlockEnd
  0
BLOCK
  5
1F1A
330
1C56
100
AcDbEntity
  8
0
100
AcDbBlockBegin
  2
*D12
 70
     1
 10
0.0
 20
0.0
 30
0.0
  3
*D12
  1

  0
LINE
  5
1F1B
330
1C56
100
AcDbEntity
  8
0
  6
ByBlock
 62
     3
100
AcDbLine
 10
2543.444416080747
 20
2119.08812835689
 30
0.0
 11
2543.444416080747
 21
2119.78812835689
 31
0.0
  0
LINE
  5
1F1C
330
1C56
100
AcDbEntity
  8
0
  6
ByBlock
 62
     3
100
AcDbLine
 10
2555.444416080748
 20
2119.08812835689
 30
0.0
 11
2555.444416080748
 21
2119.78812835689
 31
0.0
  0
LINE
  5
1F1D
330
1C56
100
AcDbEntity
  8
0
  6
ByBlock
 62
     3
100
AcDbLine
 10
2545.444416080747
 20
2119.08812835689
 30
0.0
 11
2553.444416080748
 21
2119.08812835689
 31
0.0
  0
INSERT
  5
1F1E
330
1C56
100
AcDbEntity
  8
0
  6
ByBlock
 62
     3
100
AcDbBlockReference
  2
_OPEN30
 10
2543.444416080747
 20
2119.08812835689
 30
0.0
 41
2.0
 42
2.0
 43
2.0
 50
180.0
  0
INSERT
  5
1F1F
330
1C56
100
AcDbEntity
  8
0
  6
ByBlock
 62
     3
100
AcDbBlockReference
  2
_OPEN30
 10
2555.444416080748
 20
2119.08812835689
 30
0.0
 41
2.0
 42
2.0
 43
2.0
  0
MTEXT
  5
1F20
330
1C56
100
AcDbEntity
  8
0
  6
ByBlock
 62
     3
100
AcDbMText
 10
2549.444416080747
 20
2121.338128356891
 30
0.0
 40
2.5
 41
0.0
 71
     5
 72
     1
  1
\A1;12
  7
MSP明朝W1
 73
     1
 44
1.0
  0
POINT
  5
1F21
330
1C56
100
AcDbEntity
  8
DEFPOINTS
  6
ByBlock
 62
     0
100
AcDbPoint
 10
2543.444416080747
 20
2119.08812835689
 30
0.0
  0
POINT
  5
1F22
330
1C56
100
AcDbEntity
  8
DEFPOINTS
  6
ByBlock
 62
     0
100
AcDbPoint
 10
2555.444416080748
 20
2119.08812835689
 30
0.0
  0
POINT
  5
1F23
330
1C56
100
AcDbEntity
  8
DEFPOINTS
  6
ByBlock
 62
     0
100
AcDbPoint
 10
2555.444416080748
 20
2119.08812835689
 30
0.0
  0
ENDBLK
  5
1F24
330
1C56
100
AcDbEntity
  8
0
100
AcDbBlockEnd
  0
BLOCK
  5
1E8D
330
1C7B
100
AcDbEntity
  8
0
100
AcDbBlockBegin
  2
*D13
 70
     1
 10
0.0
 20
0.0
 30
0.0
  3
*D13
  1

  0
LINE
  5
1E8E
330
1C7B
100
AcDbEntity
  8
0
  6
ByBlock
 62
     3
100
AcDbLine
 10
2573.444416080748
 20
2089.565198799706
 30
0.0
 11
2572.744416080748
 21
2089.565198799706
 31
0.0
  0
LINE
  5
1E8F
330
1C7B
100
AcDbEntity
  8
0
  6
ByBlock
 62
     3
100
AcDbLine
 10
2265.444416080748
 20
2054.565198799706
 30
0.0
 11
2574.144416080748
 21
2054.565198799706
 31
0.0
  0
LINE
  5
1E90
330
1C7B
100
AcDbEntity
  8
0
  6
ByBlock
 62
     3
100
AcDbLine
 10
2573.444416080748
 20
2087.565198799706
 30
0.0
 11
2573.444416080748
 21
2056.565198799706
 31
0.0
  0
INSERT
  5
1E91
330
1C7B
100
AcDbEntity
  8
0
  6
ByBlock
 62
     3
100
AcDbBlockReference
  2
_OPEN30
 10
2573.444416080748
 20
2089.565198799706
 30
0.0
 41
2.0
 42
2.0
 43
2.0
 50
90.0
  0
INSERT
  5
1E92
330
1C7B
100
AcDbEntity
  8
0
  6
ByBlock
 62
     3
100
AcDbBlockReference
  2
_OPEN30
 10
2573.444416080748
 20
2054.565198799706
 30
0.0
 41
2.0
 42
2.0
 43
2.0
 50
270.0
  0
MTEXT
  5
1E93
330
1C7B
100
AcDbEntity
  8
0
  6
ByBlock
 62
     3
100
AcDbMText
 10
2571.194416080748
 20
2072.065198799706
 30
0.0
 40
2.5
 41
0.0
 71
     5
 72
     1
  1
\A1;35
  7
MSP明朝W1
 11
0.0000000000000001
 21
1.0
 31
0.0
 73
     1
 44
1.0
  0
POINT
  5
1E94
330
1C7B
100
AcDbEntity
  8
DEFPOINTS
  6
ByBlock
 62
     0
100
AcDbPoint
 10
2573.444416080748
 20
2089.565198799706
 30
0.0
  0
POINT
  5
1E95
330
1C7B
100
AcDbEntity
  8
DEFPOINTS
  6
ByBlock
 62
     0
100
AcDbPoint
 10
2265.444416080748
 20
2054.565198799706
 30
0.0
  0
POINT
  5
1E96
330
1C7B
100
AcDbEntity
  8
DEFPOINTS
  6
ByBlock
 62
     0
100
AcDbPoint
 10
2573.444416080748
 20
2054.565198799706
 30
0.0
  0
ENDBLK
  5
1E97
330
1C7B
100
AcDbEntity
  8
0
100
AcDbBlockEnd
  0
BLOCK
  5
1EA3
330
1C87
100
AcDbEntity
  8
0
100
AcDbBlockBegin
  2
*D14
 70
     1
 10
0.0
 20
0.0
 30
0.0
  3
*D14
  1

  0
LINE
  5
1EA4
330
1C87
100
AcDbEntity
  8
0
  6
ByBlock
 62
     3
100
AcDbLine
 10
2573.444416080748
 20
2145.565198799706
 30
0.0
 11
2582.144416080748
 21
2145.565198799706
 31
0.0
  0
LINE
  5
1EA5
330
1C87
100
AcDbEntity
  8
0
  6
ByBlock
 62
     3
100
AcDbLine
 10
2573.444416080748
 20
2054.565198799706
 30
0.0
 11
2582.144416080748
 21
2054.565198799706
 31
0.0
  0
LINE
  5
1EA6
330
1C87
100
AcDbEntity
  8
0
  6
ByBlock
 62
     3
100
AcDbLine
 10
2581.444416080748
 20
2143.565198799706
 30
0.0
 11
2581.444416080748
 21
2056.565198799706
 31
0.0
  0
INSERT
  5
1EA7
330
1C87
100
AcDbEntity
  8
0
  6
ByBlock
 62
     3
100
AcDbBlockReference
  2
_OPEN30
 10
2581.444416080748
 20
2145.565198799706
 30
0.0
 41
2.0
 42
2.0
 43
2.0
 50
90.0
  0
INSERT
  5
1EA8
330
1C87
100
AcDbEntity
  8
0
  6
ByBlock
 62
     3
100
AcDbBlockReference
  2
_OPEN30
 10
2581.444416080748
 20
2054.565198799706
 30
0.0
 41
2.0
 42
2.0
 43
2.0
 50
270.0
  0
MTEXT
  5
1EA9
330
1C87
100
AcDbEntity
  8
0
  6
ByBlock
 62
     3
100
AcDbMText
 10
2579.194416080748
 20
2100.065198799706
 30
0.0
 40
2.5
 41
0.0
 71
     5
 72
     1
  1
\A1;91
  7
MSP明朝W1
 11
0.0000000000000001
 21
1.0
 31
0.0
 73
     1
 44
1.0
  0
POINT
  5
1EAA
330
1C87
100
AcDbEntity
  8
DEFPOINTS
  6
ByBlock
 62
     0
100
AcDbPoint
 10
2573.444416080748
 20
2145.565198799706
 30
0.0
  0
POINT
  5
1EAB
330
1C87
100
AcDbEntity
  8
DEFPOINTS
  6
ByBlock
 62
     0
100
AcDbPoint
 10
2573.444416080748
 20
2054.565198799706
 30
0.0
  0
POINT
  5
1EAC
330
1C87
100
AcDbEntity
  8
DEFPOINTS
  6
ByBlock
 62
     0
100
AcDbPoint
 10
2581.444416080748
 20
2054.565198799706
 30
0.0
  0
ENDBLK
  5
1EAD
330
1C87
100
AcDbEntity
  8
0
100
AcDbBlockEnd
  0
BLOCK
  5
1F30
330
1C9B
100
AcDbEntity
  8
0
100
AcDbBlockBegin
  2
*D15
 70
     1
 10
0.0
 20
0.0
 30
0.0
  3
*D15
  1

  0
LINE
  5
1F31
330
1C9B
100
AcDbEntity
  8
0
  6
ByBlock
 62
     3
100
AcDbLine
 10
2280.317399426958
 20
2095.565198799706
 30
0.0
 11
2298.758514515162
 21
2095.565198799706
 31
0.0
  0
LINE
  5
1F32
330
1C9B
100
AcDbEntity
  8
0
  6
ByBlock
 62
     3
100
AcDbLine
 10
2276.444416080749
 20
2096.565198799706
 30
0.0
 11
2298.758514515162
 21
2096.565198799706
 31
0.0
  0
LINE
  5
1F33
330
1C9B
100
AcDbEntity
  8
0
  6
ByBlock
 62
     3
100
AcDbLine
 10
2298.058514515162
 20
2093.565198799706
 30
0.0
 11
2298.058514515162
 21
2091.565198799706
 31
0.0
  0
LINE
  5
1F34
330
1C9B
100
AcDbEntity
  8
0
  6
ByBlock
 62
     3
100
AcDbLine
 10
2298.058514515162
 20
2098.565198799706
 30
0.0
 11
2298.058514515162
 21
2103.584751872332
 31
0.0
  0
LINE
  5
1F35
330
1C9B
100
AcDbEntity
  8
0
  6
ByBlock
 62
     3
100
AcDbLine
 10
2298.058514515162
 20
2095.565198799706
 30
0.0
 11
2298.058514515162
 21
2096.565198799706
 31
0.0
  0
INSERT
  5
1F36
330
1C9B
100
AcDbEntity
  8
0
  6
ByBlock
 62
     3
100
AcDbBlockReference
  2
_OPEN30
 10
2298.058514515162
 20
2095.565198799706
 30
0.0
 41
2.0
 42
2.0
 43
2.0
 50
90.0
  0
INSERT
  5
1F37
330
1C9B
100
AcDbEntity
  8
0
  6
ByBlock
 62
     3
100
AcDbBlockReference
  2
_OPEN30
 10
2298.058514515162
 20
2096.565198799706
 30
0.0
 41
2.0
 42
2.0
 43
2.0
 50
270.0
  0
MTEXT
  5
1F38
330
1C9B
100
AcDbEntity
  8
0
  6
ByBlock
 62
     3
100
AcDbMText
 10
2295.808514515162
 20
2102.074975336019
 30
0.0
 40
2.5
 41
0.0
 71
     5
 72
     1
  1
\A1;1
  7
MSP明朝W1
 11
0.0000000000000001
 21
1.0
 31
0.0
 73
     1
 44
1.0
  0
POINT
  5
1F39
330
1C9B
100
AcDbEntity
  8
DEFPOINTS
  6
ByBlock
 62
     0
100
AcDbPoint
 10
2280.317399426958
 20
2095.565198799706
 30
0.0
  0
POINT
  5
1F3A
330
1C9B
100
AcDbEntity
  8
DEFPOINTS
  6
ByBlock
 62
     0
100
AcDbPoint
 10
2276.444416080749
 20
2096.565198799706
 30
0.0
  0
POINT
  5
1F3B
330
1C9B
100
AcDbEntity
  8
DEFPOINTS
  6
ByBlock
 62
     0
100
AcDbPoint
 10
2298.058514515162
 20
2096.565198799706
 30
0.0
  0
ENDBLK
  5
1F3C
330
1C9B
100
AcDbEntity
  8
0
100
AcDbBlockEnd
  0
BLOCK
  5
1F25
330
1CA9
100
AcDbEntity
  8
0
100
AcDbBlockBegin
  2
*D16
 70
     1
 10
0.0
 20
0.0
 30
0.0
  3
*D16
  1

  0
LINE
  5
27B1
330
1CA9
100
AcDbEntity
  8
0
 62
     3
370
    -2
100
AcDbLine
 10
2539.944416080747
 20
2143.702727010093
 30
0.0
 11
2539.944416080747
 21
2154.265198799706
 31
0.0
  0
LINE
  5
27B2
330
1CA9
100
AcDbEntity
  8
0
 62
     3
370
    -2
100
AcDbLine
 10
2555.444416080748
 20
2145.565198799706
 30
0.0
 11
2555.444416080748
 21
2154.265198799706
 31
0.0
  0
LINE
  5
27B3
330
1CA9
100
AcDbEntity
  8
0
 62
     3
370
    -2
100
AcDbLine
 10
2541.944416080747
 20
2153.565198799706
 30
0.0
 11
2553.444416080748
 21
2153.565198799706
 31
0.0
  0
INSERT
  5
27B4
330
1CA9
100
AcDbEntity
  8
0
 62
     3
370
    -2
100
AcDbBlockReference
  2
_OPEN30
 10
2539.944416080747
 20
2153.565198799706
 30
0.0
 41
2.0
 42
2.0
 43
2.0
 50
180.0
  0
INSERT
  5
27B5
330
1CA9
100
AcDbEntity
  8
0
 62
     3
370
    -2
100
AcDbBlockReference
  2
_OPEN30
 10
2555.444416080748
 20
2153.565198799706
 30
0.0
 41
2.0
 42
2.0
 43
2.0
  0
MTEXT
  5
27B6
330
1CA9
100
AcDbEntity
  8
0
 62
     3
100
AcDbMText
 10
2547.694416080748
 20
2155.815198799706
 30
0.0
 40
2.5
 41
0.0
 71
     5
 72
     1
  1
\A1;15.5
  7
MSP明朝W1
 73
     1
 44
1.0
  0
POINT
  5
27B7
330
1CA9
100
AcDbEntity
  8
DEFPOINTS
 62
     0
100
AcDbPoint
 10
2539.944416080747
 20
2143.702727010093
 30
0.0
  0
POINT
  5
27B8
330
1CA9
100
AcDbEntity
  8
DEFPOINTS
 62
     0
100
AcDbPoint
 10
2555.444416080748
 20
2145.565198799706
 30
0.0
  0
POINT
  5
27B9
330
1CA9
100
AcDbEntity
  8
DEFPOINTS
 62
     0
100
AcDbPoint
 10
2555.444416080748
 20
2153.565198799706
 30
0.0
  0
ENDBLK
  5
1F2F
330
1CA9
100
AcDbEntity
  8
0
100
AcDbBlockEnd
  0
BLOCK
  5
2365
330
2210
100
AcDbEntity
  8
0
100
AcDbBlockBegin
  2
A3
 70
     0
 10
0.0
 20
0.0
 30
0.0
  3
A3
  1

  0
LINE
  5
2211
330
2210
100
AcDbEntity
  8
ﾀｲﾄﾙ枠
  6
Continuous
 62
     5
100
AcDbLine
 10
438.0
 20
10.0
 30
0.0
 11
52.0
 21
10.0
 31
0.0
  0
LINE
  5
2212
330
2210
100
AcDbEntity
  8
ﾀｲﾄﾙ枠
  6
Continuous
 62
     5
100
AcDbLine
 10
52.0
 20
290.0
 30
0.0
 11
438.0
 21
290.0
 31
0.0
  0
LINE
  5
2213
330
2210
100
AcDbEntity
  8
0
 62
     5
100
AcDbLine
 10
52.0
 20
290.0
 30
0.0
 11
52.0
 21
10.0
 31
0.0
  0
LINE
  5
2214
330
2210
100
AcDbEntity
  8
ﾀｲﾄﾙ枠
  6
Continuous
 62
     5
100
AcDbLine
 10
438.0
 20
290.0
 30
0.0
 11
438.0
 21
10.0
 31
0.0
  0
TEXT
  5
2215
330
2210
100
AcDbEntity
  8
0
370
    30
100
AcDbText
 10
365.5140449438202
 20
27.85509299812699
 30
0.0
 40
4.5
  1
.
  7
MSP明朝W1
 72
     4
 11
366.5
 21
28.23430648127306
 31
0.0
100
AcDbText
  0
LINE
  5
2216
330
2210
100
AcDbEntity
  8
ﾀｲﾄﾙ枠
100
AcDbLine
 10
293.0
 20
50.23430648127305
 30
0.0
 11
438.0
 21
50.23430648127305
 31
0.0
  0
LINE
  5
2217
330
2210
100
AcDbEntity
  8
ﾀｲﾄﾙ枠
100
AcDbLine
 10
293.0
 20
22.23430648127306
 30
0.0
 11
438.0
 21
22.23430648127306
 31
0.0
  0
LINE
  5
2218
330
2210
100
AcDbEntity
  8
ﾀｲﾄﾙ枠
100
AcDbLine
 10
293.0
 20
34.23430648127306
 30
0.0
 11
378.0
 21
34.23430648127306
 31
0.0
  0
MTEXT
  5
2219
330
2210
100
AcDbEntity
  8
ﾀｲﾄﾙ枠
370
    30
100
AcDbMText
 10
294.7260722277714
 20
49.129015812067
 30
0.0
 40
2.5
 41
11.5
 71
     1
 72
     5
  1
{\fＭＳ Ｐ明朝|b0|i0|c128|p18;工事名}
 73
     1
 44
1.0
1001
ACAD
1000
MTEXTBEGIN
1070
    73
1070
     1
1070
    44
1040
1.0
1070
    74
1070
     0
1000
MTEXTEND
  0
MTEXT
  5
221A
330
2210
100
AcDbEntity
  8
ﾀｲﾄﾙ枠
370
    30
100
AcDbMText
 10
294.6956708772145
 20
33.09362710847778
 30
0.0
 40
2.5
 41
11.5
 71
     1
 72
     5
  1
{\fＭＳ Ｐ明朝|b0|i0|c128|p18;製品名}
 73
     1
 44
1.0
1001
ACAD
1000
MTEXTBEGIN
1070
    73
1070
     1
1070
    44
1040
1.0
1070
    74
1070
     0
1000
MTEXTEND
  0
LINE
  5
221B
330
2210
100
AcDbEntity
  8
ﾀｲﾄﾙ枠
100
AcDbLine
 10
293.0
 20
10.23430648127305
 30
0.0
 11
293.0
 21
50.23430648127305
 31
0.0
  0
TEXT
  5
221C
330
2210
100
AcDbEntity
  8
0
100
AcDbText
 10
334.5140449438202
 20
39.85509299812699
 30
0.0
 40
4.5
  1
.
  7
MSP明朝W1
 72
     4
 11
335.4999999999999
 21
40.23430648127305
 31
0.0
100
AcDbText
  0
LINE
  5
221D
330
2210
100
AcDbEntity
  8
ﾀｲﾄﾙ枠
  6
Continuous
370
    40
100
AcDbLine
 10
334.1593430171533
 20
17.6039541482177
 30
0.0
 11
334.8068430171533
 21
16.74062081488437
 31
0.0
  0
LINE
  5
221E
330
2210
100
AcDbEntity
  8
ﾀｲﾄﾙ枠
  6
Continuous
370
    40
100
AcDbLine
 10
334.8068430171533
 20
16.2739541482177
 30
0.0
 11
334.4168430171532
 21
16.7939541482177
 31
0.0
  0
LINE
  5
221F
330
2210
100
AcDbEntity
  8
ﾀｲﾄﾙ枠
  6
Continuous
370
    40
100
AcDbLine
 10
334.8068430171533
 20
17.6039541482177
 30
0.0
 11
333.3568430171533
 21
17.6039541482177
 31
0.0
  0
LINE
  5
2220
330
2210
100
AcDbEntity
  8
ﾀｲﾄﾙ枠
  6
Continuous
370
    40
100
AcDbLine
 10
309.3568430171533
 20
17.8739541482177
 30
0.0
 11
309.3568430171533
 21
17.7239541482177
 31
0.0
  0
LINE
  5
2221
330
2210
100
AcDbEntity
  8
ﾀｲﾄﾙ枠
  6
Continuous
370
    40
100
AcDbLine
 10
306.8218430171532
 20
16.7039541482177
 30
0.0
 11
308.8368430171533
 21
16.7039541482177
 31
0.0
  0
LINE
  5
2222
330
2210
100
AcDbEntity
  8
ﾀｲﾄﾙ枠
  6
Continuous
370
    40
100
AcDbLine
 10
308.8368430171533
 20
13.6939541482177
 30
0.0
 11
303.8768430171533
 21
13.6939541482177
 31
0.0
  0
LINE
  5
2223
330
2210
100
AcDbEntity
  8
ﾀｲﾄﾙ枠
  6
Continuous
370
    40
100
AcDbLine
 10
304.8068430171533
 20
13.8439541482177
 30
0.0
 11
307.9068430171532
 21
13.8439541482177
 31
0.0
  0
LINE
  5
2224
330
2210
100
AcDbEntity
  8
ﾀｲﾄﾙ枠
  6
Continuous
370
    40
100
AcDbLine
 10
303.8768430171533
 20
15.6639541482177
 30
0.0
 11
308.8368430171533
 21
15.6639541482177
 31
0.0
  0
LINE
  5
2225
330
2210
100
AcDbEntity
  8
ﾀｲﾄﾙ枠
  6
Continuous
370
    40
100
AcDbLine
 10
307.9068430171532
 20
15.5139541482177
 30
0.0
 11
304.8068430171533
 21
15.5139541482177
 31
0.0
  0
LINE
  5
2226
330
2210
100
AcDbEntity
  8
ﾀｲﾄﾙ枠
  6
Continuous
370
    40
100
AcDbLine
 10
308.8368430171533
 20
16.5539541482177
 30
0.0
 11
303.8768430171533
 21
16.5539541482177
 31
0.0
  0
LINE
  5
2227
330
2210
100
AcDbEntity
  8
ﾀｲﾄﾙ枠
  6
Continuous
370
    40
100
AcDbLine
 10
305.8918430171532
 20
16.7039541482177
 30
0.0
 11
305.8918430171532
 21
17.7239541482177
 31
0.0
  0
LINE
  5
2228
330
2210
100
AcDbEntity
  8
ﾀｲﾄﾙ枠
  6
Continuous
370
    40
100
AcDbLine
 10
305.8918430171532
 20
17.8739541482177
 30
0.0
 11
305.8918430171532
 21
18.7839541482177
 31
0.0
  0
LINE
  5
2229
330
2210
100
AcDbEntity
  8
ﾀｲﾄﾙ枠
  6
Continuous
370
    40
100
AcDbLine
 10
305.8918430171532
 20
18.7839541482177
 30
0.0
 11
306.8218430171532
 21
18.7839541482177
 31
0.0
  0
LINE
  5
222A
330
2210
100
AcDbEntity
  8
ﾀｲﾄﾙ枠
  6
Continuous
370
    40
100
AcDbLine
 10
306.8218430171532
 20
18.7839541482177
 30
0.0
 11
306.8218430171532
 21
17.8739541482177
 31
0.0
  0
LINE
  5
222B
330
2210
100
AcDbEntity
  8
ﾀｲﾄﾙ枠
  6
Continuous
370
    40
100
AcDbLine
 10
306.8218430171532
 20
17.7239541482177
 30
0.0
 11
306.8218430171532
 21
16.7039541482177
 31
0.0
  0
LINE
  5
222C
330
2210
100
AcDbEntity
  8
ﾀｲﾄﾙ枠
  6
Continuous
370
    40
100
AcDbLine
 10
306.3568430171533
 20
16.8039541482177
 30
0.0
 11
306.3568430171533
 21
18.5339541482177
 31
0.0
  0
LINE
  5
222D
330
2210
100
AcDbEntity
  8
ﾀｲﾄﾙ枠
  6
Continuous
370
    40
100
AcDbLine
 10
306.5568430171533
 20
16.8039541482177
 30
0.0
 11
306.5568430171533
 21
18.5339541482177
 31
0.0
  0
LINE
  5
222E
330
2210
100
AcDbEntity
  8
ﾀｲﾄﾙ枠
  6
Continuous
370
    40
100
AcDbLine
 10
306.1568430171532
 20
16.8039541482177
 30
0.0
 11
306.1568430171532
 21
18.5339541482177
 31
0.0
  0
LINE
  5
222F
330
2210
100
AcDbEntity
  8
ﾀｲﾄﾙ枠
  6
Continuous
370
    40
100
AcDbLine
 10
303.8768430171533
 20
16.5539541482177
 30
0.0
 11
303.8768430171533
 21
16.7039541482177
 31
0.0
  0
LINE
  5
2230
330
2210
100
AcDbEntity
  8
ﾀｲﾄﾙ枠
  6
Continuous
370
    40
100
AcDbLine
 10
303.3568430171533
 20
17.7239541482177
 30
0.0
 11
303.3568430171533
 21
17.8739541482177
 31
0.0
  0
LINE
  5
2231
330
2210
100
AcDbEntity
  8
ﾀｲﾄﾙ枠
  6
Continuous
370
    40
100
AcDbLine
 10
303.8768430171533
 20
13.6939541482177
 30
0.0
 11
303.8768430171533
 21
15.6639541482177
 31
0.0
  0
LINE
  5
2232
330
2210
100
AcDbEntity
  8
ﾀｲﾄﾙ枠
  6
Continuous
370
    40
100
AcDbLine
 10
304.8068430171533
 20
15.5139541482177
 30
0.0
 11
304.8068430171533
 21
13.8439541482177
 31
0.0
  0
LINE
  5
2233
330
2210
100
AcDbEntity
  8
ﾀｲﾄﾙ枠
  6
Continuous
370
    40
100
AcDbLine
 10
304.3418430171533
 20
15.5139541482177
 30
0.0
 11
304.3418430171533
 21
13.8439541482177
 31
0.0
  0
LINE
  5
2234
330
2210
100
AcDbEntity
  8
ﾀｲﾄﾙ枠
  6
Continuous
370
    40
100
AcDbLine
 10
304.5418430171533
 20
15.5139541482177
 30
0.0
 11
304.5418430171533
 21
13.8439541482177
 31
0.0
  0
LINE
  5
2235
330
2210
100
AcDbEntity
  8
ﾀｲﾄﾙ枠
  6
Continuous
370
    40
100
AcDbLine
 10
304.1418430171532
 20
15.5139541482177
 30
0.0
 11
304.1418430171532
 21
13.8439541482177
 31
0.0
  0
LINE
  5
2236
330
2210
100
AcDbEntity
  8
ﾀｲﾄﾙ枠
  6
Continuous
370
    40
100
AcDbLine
 10
303.8768430171533
 20
16.7039541482177
 30
0.0
 11
305.8918430171532
 21
16.7039541482177
 31
0.0
  0
LINE
  5
2237
330
2210
100
AcDbEntity
  8
ﾀｲﾄﾙ枠
  6
Continuous
370
    40
100
AcDbLine
 10
305.8918430171532
 20
17.7239541482177
 30
0.0
 11
303.3568430171533
 21
17.7239541482177
 31
0.0
  0
LINE
  5
2238
330
2210
100
AcDbEntity
  8
ﾀｲﾄﾙ枠
  6
Continuous
370
    40
100
AcDbLine
 10
303.3568430171533
 20
17.8739541482177
 30
0.0
 11
305.8918430171532
 21
17.8739541482177
 31
0.0
  0
LINE
  5
2239
330
2210
100
AcDbEntity
  8
ﾀｲﾄﾙ枠
  6
Continuous
370
    40
100
AcDbLine
 10
308.8368430171533
 20
16.7039541482177
 30
0.0
 11
308.8368430171533
 21
16.5539541482177
 31
0.0
  0
LINE
  5
223A
330
2210
100
AcDbEntity
  8
ﾀｲﾄﾙ枠
  6
Continuous
370
    40
100
AcDbLine
 10
308.8368430171533
 20
15.6639541482177
 30
0.0
 11
308.8368430171533
 21
13.6939541482177
 31
0.0
  0
LINE
  5
223B
330
2210
100
AcDbEntity
  8
ﾀｲﾄﾙ枠
  6
Continuous
370
    40
100
AcDbLine
 10
308.3718430171533
 20
13.8439541482177
 30
0.0
 11
308.3718430171533
 21
15.5139541482177
 31
0.0
  0
LINE
  5
223C
330
2210
100
AcDbEntity
  8
ﾀｲﾄﾙ枠
  6
Continuous
370
    40
100
AcDbLine
 10
307.9068430171532
 20
13.8439541482177
 30
0.0
 11
307.9068430171532
 21
15.5139541482177
 31
0.0
  0
LINE
  5
223D
330
2210
100
AcDbEntity
  8
ﾀｲﾄﾙ枠
  6
Continuous
370
    40
100
AcDbLine
 10
308.5718430171533
 20
13.8439541482177
 30
0.0
 11
308.5718430171533
 21
15.5139541482177
 31
0.0
  0
LINE
  5
223E
330
2210
100
AcDbEntity
  8
ﾀｲﾄﾙ枠
  6
Continuous
370
    40
100
AcDbLine
 10
308.1718430171532
 20
13.8439541482177
 30
0.0
 11
308.1718430171532
 21
15.5139541482177
 31
0.0
  0
LINE
  5
223F
330
2210
100
AcDbEntity
  8
ﾀｲﾄﾙ枠
  6
Continuous
370
    40
100
AcDbLine
 10
306.8218430171532
 20
17.8739541482177
 30
0.0
 11
309.3568430171533
 21
17.8739541482177
 31
0.0
  0
LINE
  5
2240
330
2210
100
AcDbEntity
  8
ﾀｲﾄﾙ枠
  6
Continuous
370
    40
100
AcDbLine
 10
309.3568430171533
 20
17.7239541482177
 30
0.0
 11
306.8218430171532
 21
17.7239541482177
 31
0.0
  0
LINE
  5
2241
330
2210
100
AcDbEntity
  8
ﾀｲﾄﾙ枠
  6
Continuous
370
    40
100
AcDbLine
 10
314.3218430171533
 20
17.5939541482177
 30
0.0
 11
316.8568430171533
 21
17.5939541482177
 31
0.0
  0
LINE
  5
2242
330
2210
100
AcDbEntity
  8
ﾀｲﾄﾙ枠
  6
Continuous
370
    40
100
AcDbLine
 10
316.8568430171533
 20
17.7439541482177
 30
0.0
 11
314.3218430171533
 21
17.7439541482177
 31
0.0
  0
LINE
  5
2243
330
2210
100
AcDbEntity
  8
ﾀｲﾄﾙ枠
  6
Continuous
370
    40
100
AcDbLine
 10
316.8568430171533
 20
14.7498408213127
 30
0.0
 11
314.3218430171533
 21
17.0898408213127
 31
0.0
  0
LINE
  5
2244
330
2210
100
AcDbEntity
  8
ﾀｲﾄﾙ枠
  6
Continuous
370
    40
100
AcDbLine
 10
314.3218430171533
 20
16.3549504176977
 30
0.0
 11
316.8568430171533
 21
14.0149504176977
 31
0.0
  0
LINE
  5
2245
330
2210
100
AcDbEntity
  8
ﾀｲﾄﾙ枠
  6
Continuous
370
    40
100
AcDbLine
 10
316.6068430171533
 20
14.61316485027436
 30
0.0
 11
314.3218430171533
 21
16.72239561950503
 31
0.0
  0
LINE
  5
2246
330
2210
100
AcDbEntity
  8
ﾀｲﾄﾙ枠
  6
Continuous
370
    40
100
AcDbLine
 10
314.3218430171533
 20
17.0898408213127
 30
0.0
 11
314.3218430171533
 21
17.5939541482177
 31
0.0
  0
LINE
  5
2247
330
2210
100
AcDbEntity
  8
ﾀｲﾄﾙ枠
  6
Continuous
370
    40
100
AcDbLine
 10
314.3218430171533
 20
17.7439541482177
 30
0.0
 11
314.3218430171533
 21
18.7839541482177
 31
0.0
  0
LINE
  5
2248
330
2210
100
AcDbEntity
  8
ﾀｲﾄﾙ枠
  6
Continuous
370
    40
100
AcDbLine
 10
314.3218430171533
 20
13.6939541482177
 30
0.0
 11
314.3218430171533
 21
14.3439541482177
 31
0.0
  0
LINE
  5
2249
330
2210
100
AcDbEntity
  8
ﾀｲﾄﾙ枠
  6
Continuous
370
    40
100
AcDbLine
 10
314.3218430171533
 20
14.3439541482177
 30
0.0
 11
315.2968430171533
 21
14.3439541482177
 31
0.0
  0
LINE
  5
224A
330
2210
100
AcDbEntity
  8
ﾀｲﾄﾙ枠
  6
Continuous
370
    40
100
AcDbLine
 10
315.2968430171533
 20
14.3439541482177
 30
0.0
 11
315.2968430171533
 21
14.4939541482177
 31
0.0
  0
LINE
  5
224B
330
2210
100
AcDbEntity
  8
ﾀｲﾄﾙ枠
  6
Continuous
370
    40
100
AcDbLine
 10
315.2968430171533
 20
14.4939541482177
 30
0.0
 11
314.3218430171533
 21
14.4939541482177
 31
0.0
  0
LINE
  5
224C
330
2210
100
AcDbEntity
  8
ﾀｲﾄﾙ枠
  6
Continuous
370
    40
100
AcDbLine
 10
314.3218430171533
 20
14.4939541482177
 30
0.0
 11
314.3218430171533
 21
16.3549504176977
 31
0.0
  0
LINE
  5
224D
330
2210
100
AcDbEntity
  8
ﾀｲﾄﾙ枠
  6
Continuous
370
    40
100
AcDbLine
 10
313.8568430171533
 20
13.9439541482177
 30
0.0
 11
313.8568430171533
 21
18.5339541482177
 31
0.0
  0
LINE
  5
224E
330
2210
100
AcDbEntity
  8
ﾀｲﾄﾙ枠
  6
Continuous
370
    40
100
AcDbLine
 10
314.0568430171533
 20
13.9439541482177
 30
0.0
 11
314.0568430171533
 21
18.5339541482177
 31
0.0
  0
LINE
  5
224F
330
2210
100
AcDbEntity
  8
ﾀｲﾄﾙ枠
  6
Continuous
370
    40
100
AcDbLine
 10
313.6568430171532
 20
13.9439541482177
 30
0.0
 11
313.6568430171532
 21
18.5339541482177
 31
0.0
  0
LINE
  5
2250
330
2210
100
AcDbEntity
  8
ﾀｲﾄﾙ枠
  6
Continuous
370
    40
100
AcDbLine
 10
313.3918430171533
 20
18.7839541482177
 30
0.0
 11
313.3918430171533
 21
17.7439541482177
 31
0.0
  0
LINE
  5
2251
330
2210
100
AcDbEntity
  8
ﾀｲﾄﾙ枠
  6
Continuous
370
    40
100
AcDbLine
 10
313.3918430171533
 20
17.7439541482177
 30
0.0
 11
310.8568430171533
 21
17.7439541482177
 31
0.0
  0
LINE
  5
2252
330
2210
100
AcDbEntity
  8
ﾀｲﾄﾙ枠
  6
Continuous
370
    40
100
AcDbLine
 10
310.8568430171533
 20
17.7439541482177
 30
0.0
 11
310.8568430171533
 21
17.5939541482177
 31
0.0
  0
LINE
  5
2253
330
2210
100
AcDbEntity
  8
ﾀｲﾄﾙ枠
  6
Continuous
370
    40
100
AcDbLine
 10
310.8568430171533
 20
17.5939541482177
 30
0.0
 11
313.3918430171533
 21
17.5939541482177
 31
0.0
  0
LINE
  5
2254
330
2210
100
AcDbEntity
  8
ﾀｲﾄﾙ枠
  6
Continuous
370
    40
100
AcDbLine
 10
313.3918430171533
 20
17.5939541482177
 30
0.0
 11
313.3918430171533
 21
17.0898408213127
 31
0.0
  0
LINE
  5
2255
330
2210
100
AcDbEntity
  8
ﾀｲﾄﾙ枠
  6
Continuous
370
    40
100
AcDbLine
 10
310.8568430171533
 20
14.7498408213127
 30
0.0
 11
310.8568430171533
 21
14.0149504176977
 31
0.0
  0
LINE
  5
2256
330
2210
100
AcDbEntity
  8
ﾀｲﾄﾙ枠
  6
Continuous
370
    40
100
AcDbLine
 10
313.3918430171533
 20
14.4939541482177
 30
0.0
 11
312.4168430171532
 21
14.4939541482177
 31
0.0
  0
LINE
  5
2257
330
2210
100
AcDbEntity
  8
ﾀｲﾄﾙ枠
  6
Continuous
370
    40
100
AcDbLine
 10
312.4168430171532
 20
14.4939541482177
 30
0.0
 11
312.4168430171532
 21
14.3439541482177
 31
0.0
  0
LINE
  5
2258
330
2210
100
AcDbEntity
  8
ﾀｲﾄﾙ枠
  6
Continuous
370
    40
100
AcDbLine
 10
312.4168430171532
 20
14.3439541482177
 30
0.0
 11
313.3918430171533
 21
14.3439541482177
 31
0.0
  0
LINE
  5
2259
330
2210
100
AcDbEntity
  8
ﾀｲﾄﾙ枠
  6
Continuous
370
    40
100
AcDbLine
 10
313.3918430171533
 20
14.3439541482177
 30
0.0
 11
313.3918430171533
 21
13.6939541482177
 31
0.0
  0
LINE
  5
225A
330
2210
100
AcDbEntity
  8
ﾀｲﾄﾙ枠
  6
Continuous
370
    40
100
AcDbLine
 10
313.3918430171533
 20
17.0898408213127
 30
0.0
 11
310.8568430171533
 21
14.7498408213127
 31
0.0
  0
LINE
  5
225B
330
2210
100
AcDbEntity
  8
ﾀｲﾄﾙ枠
  6
Continuous
370
    40
100
AcDbLine
 10
310.8568430171533
 20
14.0149504176977
 30
0.0
 11
313.3918430171533
 21
16.3549504176977
 31
0.0
  0
LINE
  5
225C
330
2210
100
AcDbEntity
  8
ﾀｲﾄﾙ枠
  6
Continuous
370
    40
100
AcDbLine
 10
313.3918430171533
 20
16.3549504176977
 30
0.0
 11
313.3918430171533
 21
14.4939541482177
 31
0.0
  0
LINE
  5
225D
330
2210
100
AcDbEntity
  8
ﾀｲﾄﾙ枠
  6
Continuous
370
    40
100
AcDbLine
 10
313.3918430171533
 20
16.72239561950503
 30
0.0
 11
311.1068430171533
 21
14.61316485027436
 31
0.0
  0
LINE
  5
225E
330
2210
100
AcDbEntity
  8
ﾀｲﾄﾙ枠
  6
Continuous
370
    40
100
AcDbLine
 10
313.3918430171533
 20
13.6939541482177
 30
0.0
 11
314.3218430171533
 21
13.6939541482177
 31
0.0
  0
LINE
  5
225F
330
2210
100
AcDbEntity
  8
ﾀｲﾄﾙ枠
  6
Continuous
370
    40
100
AcDbLine
 10
314.3218430171533
 20
18.7839541482177
 30
0.0
 11
313.3918430171533
 21
18.7839541482177
 31
0.0
  0
LINE
  5
2260
330
2210
100
AcDbEntity
  8
ﾀｲﾄﾙ枠
  6
Continuous
370
    40
100
AcDbLine
 10
316.8568430171533
 20
17.5939541482177
 30
0.0
 11
316.8568430171533
 21
17.7439541482177
 31
0.0
  0
LINE
  5
2261
330
2210
100
AcDbEntity
  8
ﾀｲﾄﾙ枠
  6
Continuous
370
    40
100
AcDbLine
 10
316.8568430171533
 20
14.0149504176977
 30
0.0
 11
316.8568430171533
 21
14.7498408213127
 31
0.0
  0
TEXT
  5
2262
330
2210
100
AcDbEntity
  8
0
100
AcDbText
 10
320.5140449438202
 20
25.85509299812699
 30
0.0
 40
4.5
  1
.
  7
MSP明朝W1
 72
     4
 11
321.4999999999999
 21
26.23430648127305
 31
0.0
100
AcDbText
  0
LINE
  5
2263
330
2210
100
AcDbEntity
  8
ﾀｲﾄﾙ枠
  6
Continuous
370
    40
100
AcDbLine
 10
326.0821006396369
 20
18.7839541482177
 30
0.0
 11
326.7718795920126
 21
18.7839541482177
 31
0.0
  0
LINE
  5
2264
330
2210
100
AcDbEntity
  8
ﾀｲﾄﾙ枠
  6
Continuous
370
    40
100
AcDbLine
 10
327.4742881396369
 20
16.7589541482177
 30
0.0
 11
326.0821006396369
 21
18.7839541482177
 31
0.0
  0
LINE
  5
2265
330
2210
100
AcDbEntity
  8
ﾀｲﾄﾙ枠
  6
Continuous
370
    40
100
AcDbLine
 10
326.7592881396369
 20
17.7989541482177
 30
0.0
 11
325.8568430171533
 21
17.7989541482177
 31
0.0
  0
LINE
  5
2266
330
2210
100
AcDbEntity
  8
ﾀｲﾄﾙ枠
  6
Continuous
370
    40
100
AcDbLine
 10
328.3918430171532
 20
15.1747490677997
 30
0.0
 11
326.1168430171533
 21
13.8747490677997
 31
0.0
  0
LINE
  5
2267
330
2210
100
AcDbEntity
  8
ﾀｲﾄﾙ枠
  6
Continuous
370
    40
100
AcDbLine
 10
326.1168430171533
 20
14.33887351435003
 30
0.0
 11
327.6219841264219
 21
15.1989541482177
 31
0.0
  0
LINE
  5
2268
330
2210
100
AcDbEntity
  8
ﾀｲﾄﾙ枠
  6
Continuous
370
    40
100
AcDbLine
 10
328.3918430171532
 20
15.1989541482177
 30
0.0
 11
326.1168430171533
 21
15.1989541482177
 31
0.0
  0
LINE
  5
2269
330
2210
100
AcDbEntity
  8
ﾀｲﾄﾙ枠
  6
Continuous
370
    40
100
AcDbLine
 10
326.1168430171533
 20
13.8747490677997
 30
0.0
 11
326.1168430171533
 21
14.33887351435003
 31
0.0
  0
LINE
  5
226A
330
2210
100
AcDbEntity
  8
ﾀｲﾄﾙ枠
  6
Continuous
370
    40
100
AcDbLine
 10
324.3568430171533
 20
15.7939541482177
 30
0.0
 11
322.5368430171532
 21
15.7939541482177
 31
0.0
  0
LINE
  5
226B
330
2210
100
AcDbEntity
  8
ﾀｲﾄﾙ枠
  6
Continuous
370
    40
100
AcDbLine
 10
322.5368430171532
 20
15.7739541482177
 30
0.0
 11
324.3568430171533
 21
15.7739541482177
 31
0.0
  0
LINE
  5
226C
330
2210
100
AcDbEntity
  8
ﾀｲﾄﾙ枠
  6
Continuous
370
    40
100
AcDbLine
 10
324.3568430171533
 20
16.9639541482177
 30
0.0
 11
323.385295422411
 21
16.9639541482177
 31
0.0
  0
LINE
  5
226D
330
2210
100
AcDbEntity
  8
ﾀｲﾄﾙ枠
  6
Continuous
370
    40
100
AcDbLine
 10
323.385295422411
 20
16.9639541482177
 30
0.0
 11
324.075295422411
 21
18.1139541482177
 31
0.0
  0
LINE
  5
226E
330
2210
100
AcDbEntity
  8
ﾀｲﾄﾙ枠
  6
Continuous
370
    40
100
AcDbLine
 10
324.3568430171533
 20
18.1339541482177
 30
0.0
 11
322.1468430171532
 21
18.1339541482177
 31
0.0
  0
LINE
  5
226F
330
2210
100
AcDbEntity
  8
ﾀｲﾄﾙ枠
  6
Continuous
370
    40
100
AcDbLine
 10
323.192323468376
 20
17.1939541482177
 30
0.0
 11
323.571823468376
 21
17.8839541482177
 31
0.0
  0
LINE
  5
2270
330
2210
100
AcDbEntity
  8
ﾀｲﾄﾙ枠
  6
Continuous
370
    40
100
AcDbLine
 10
324.3568430171533
 20
13.7139541482177
 30
0.0
 11
322.5368430171532
 21
13.7139541482177
 31
0.0
  0
LINE
  5
2271
330
2210
100
AcDbEntity
  8
ﾀｲﾄﾙ枠
  6
Continuous
370
    40
100
AcDbLine
 10
322.5368430171532
 20
14.7339541482177
 30
0.0
 11
324.0968430171533
 21
14.7339541482177
 31
0.0
  0
LINE
  5
2272
330
2210
100
AcDbEntity
  8
ﾀｲﾄﾙ枠
  6
Continuous
370
    40
100
AcDbLine
 10
324.0968430171533
 20
14.7539541482177
 30
0.0
 11
322.5368430171532
 21
14.7539541482177
 31
0.0
  0
LINE
  5
2273
330
2210
100
AcDbEntity
  8
ﾀｲﾄﾙ枠
  6
Continuous
370
    40
100
AcDbLine
 10
319.9168430171532
 20
13.6939541482177
 30
0.0
 11
324.3568430171533
 21
13.6939541482177
 31
0.0
  0
LINE
  5
2274
330
2210
100
AcDbEntity
  8
ﾀｲﾄﾙ枠
  6
Continuous
370
    40
100
AcDbLine
 10
319.4037259169662
 20
16.9439541482177
 30
0.0
 11
324.3568430171533
 21
16.9439541482177
 31
0.0
  0
LINE
  5
2275
330
2210
100
AcDbEntity
  8
ﾀｲﾄﾙ枠
  6
Continuous
370
    40
100
AcDbLine
 10
321.9468430171533
 20
18.3639541482177
 30
0.0
 11
321.9468430171533
 21
18.5339541482177
 31
0.0
  0
LINE
  5
2276
330
2210
100
AcDbEntity
  8
ﾀｲﾄﾙ枠
  6
Continuous
370
    40
100
AcDbLine
 10
322.5368430171532
 20
15.7939541482177
 30
0.0
 11
322.5368430171532
 21
16.1839541482177
 31
0.0
  0
LINE
  5
2277
330
2210
100
AcDbEntity
  8
ﾀｲﾄﾙ枠
  6
Continuous
370
    40
100
AcDbLine
 10
322.1468430171532
 20
18.1339541482177
 30
0.0
 11
322.1468430171532
 21
18.7839541482177
 31
0.0
  0
LINE
  5
2278
330
2210
100
AcDbEntity
  8
ﾀｲﾄﾙ枠
  6
Continuous
370
    40
100
AcDbLine
 10
322.7463515143406
 20
16.9639541482177
 30
0.0
 11
323.3213515143406
 21
18.1139541482177
 31
0.0
  0
LINE
  5
2279
330
2210
100
AcDbEntity
  8
ﾀｲﾄﾙ枠
  6
Continuous
370
    40
100
AcDbLine
 10
322.5368430171532
 20
13.7139541482177
 30
0.0
 11
322.5368430171532
 21
14.7339541482177
 31
0.0
  0
LINE
  5
227A
330
2210
100
AcDbEntity
  8
ﾀｲﾄﾙ枠
  6
Continuous
370
    40
100
AcDbLine
 10
322.5368430171532
 20
14.7539541482177
 30
0.0
 11
322.5368430171532
 21
15.7739541482177
 31
0.0
  0
LINE
  5
227B
330
2210
100
AcDbEntity
  8
ﾀｲﾄﾙ枠
  6
Continuous
370
    40
100
AcDbLine
 10
322.1368430171533
 20
15.9339541482177
 30
0.0
 11
322.1368430171533
 21
13.9439541482177
 31
0.0
  0
LINE
  5
227C
330
2210
100
AcDbEntity
  8
ﾀｲﾄﾙ枠
  6
Continuous
370
    40
100
AcDbLine
 10
322.3368430171533
 20
15.9339541482177
 30
0.0
 11
322.3368430171533
 21
13.9439541482177
 31
0.0
  0
LINE
  5
227D
330
2210
100
AcDbEntity
  8
ﾀｲﾄﾙ枠
  6
Continuous
370
    40
100
AcDbLine
 10
321.9368430171533
 20
15.9339541482177
 30
0.0
 11
321.9368430171533
 21
13.9439541482177
 31
0.0
  0
LINE
  5
227E
330
2210
100
AcDbEntity
  8
ﾀｲﾄﾙ枠
  6
Continuous
370
    40
100
AcDbLine
 10
321.7368430171533
 20
16.1839541482177
 30
0.0
 11
321.7368430171533
 21
15.7939541482177
 31
0.0
  0
LINE
  5
227F
330
2210
100
AcDbEntity
  8
ﾀｲﾄﾙ枠
  6
Continuous
370
    40
100
AcDbLine
 10
321.7368430171533
 20
15.7939541482177
 30
0.0
 11
320.5868430171533
 21
15.7939541482177
 31
0.0
  0
LINE
  5
2280
330
2210
100
AcDbEntity
  8
ﾀｲﾄﾙ枠
  6
Continuous
370
    40
100
AcDbLine
 10
320.5868430171533
 20
15.7939541482177
 30
0.0
 11
320.5868430171533
 21
16.1839541482177
 31
0.0
  0
LINE
  5
2281
330
2210
100
AcDbEntity
  8
ﾀｲﾄﾙ枠
  6
Continuous
370
    40
100
AcDbLine
 10
320.5868430171533
 20
16.1839541482177
 30
0.0
 11
320.3068430171533
 21
16.1839541482177
 31
0.0
  0
LINE
  5
2282
330
2210
100
AcDbEntity
  8
ﾀｲﾄﾙ枠
  6
Continuous
370
    40
100
AcDbLine
 10
320.3068430171533
 20
16.1839541482177
 30
0.0
 11
320.3068430171533
 21
15.7739541482177
 31
0.0
  0
LINE
  5
2283
330
2210
100
AcDbEntity
  8
ﾀｲﾄﾙ枠
  6
Continuous
370
    40
100
AcDbLine
 10
320.3068430171533
 20
15.7739541482177
 30
0.0
 11
321.7368430171533
 21
15.7739541482177
 31
0.0
  0
LINE
  5
2284
330
2210
100
AcDbEntity
  8
ﾀｲﾄﾙ枠
  6
Continuous
370
    40
100
AcDbLine
 10
321.3468430171533
 20
18.7839541482177
 30
0.0
 11
321.3468430171533
 21
18.1339541482177
 31
0.0
  0
LINE
  5
2285
330
2210
100
AcDbEntity
  8
ﾀｲﾄﾙ枠
  6
Continuous
370
    40
100
AcDbLine
 10
321.3468430171533
 20
18.1339541482177
 30
0.0
 11
318.8768430171533
 21
18.1339541482177
 31
0.0
  0
LINE
  5
2286
330
2210
100
AcDbEntity
  8
ﾀｲﾄﾙ枠
  6
Continuous
370
    40
100
AcDbLine
 10
318.8768430171533
 20
18.1339541482177
 30
0.0
 11
318.8768430171533
 21
18.1139541482177
 31
0.0
  0
LINE
  5
2287
330
2210
100
AcDbEntity
  8
ﾀｲﾄﾙ枠
  6
Continuous
370
    40
100
AcDbLine
 10
318.8768430171533
 20
18.1139541482177
 30
0.0
 11
319.4183906118956
 21
18.1139541482177
 31
0.0
  0
LINE
  5
2288
330
2210
100
AcDbEntity
  8
ﾀｲﾄﾙ枠
  6
Continuous
370
    40
100
AcDbLine
 10
319.4183906118956
 20
18.1139541482177
 30
0.0
 11
320.1083906118956
 21
16.9639541482177
 31
0.0
  0
LINE
  5
2289
330
2210
100
AcDbEntity
  8
ﾀｲﾄﾙ枠
  6
Continuous
370
    40
100
AcDbLine
 10
320.1083906118956
 20
16.9639541482177
 30
0.0
 11
318.8640311433432
 21
16.9639541482177
 31
0.0
  0
LINE
  5
228A
330
2210
100
AcDbEntity
  8
ﾀｲﾄﾙ枠
  6
Continuous
370
    40
100
AcDbLine
 10
320.1723345199659
 20
18.1139541482177
 30
0.0
 11
320.7473345199659
 21
16.9639541482177
 31
0.0
  0
LINE
  5
228B
330
2210
100
AcDbEntity
  8
ﾀｲﾄﾙ枠
  6
Continuous
370
    40
100
AcDbLine
 10
321.7468430171533
 20
18.3639541482177
 30
0.0
 11
321.7468430171533
 21
18.5339541482177
 31
0.0
  0
LINE
  5
228C
330
2210
100
AcDbEntity
  8
ﾀｲﾄﾙ枠
  6
Continuous
370
    40
100
AcDbLine
 10
319.9218625659306
 20
17.8839541482177
 30
0.0
 11
320.3013625659306
 21
17.1939541482177
 31
0.0
  0
LINE
  5
228D
330
2210
100
AcDbEntity
  8
ﾀｲﾄﾙ枠
  6
Continuous
370
    40
100
AcDbLine
 10
321.5468430171532
 20
18.3639541482177
 30
0.0
 11
321.5468430171532
 21
18.5339541482177
 31
0.0
  0
ARC
  5
228E
330
2210
100
AcDbEntity
  8
ﾀｲﾄﾙ枠
  6
Continuous
370
    40
100
AcDbCircle
 10
313.3292781992699
 20
15.49697007872703
 30
0.0
 40
5.719999999999999
100
AcDbArc
 50
344.2460809455039
 51
356.9872124958172
  0
ARC
  5
228F
330
2210
100
AcDbEntity
  8
ﾀｲﾄﾙ枠
  6
Continuous
370
    40
100
AcDbCircle
 10
313.3292781992699
 20
15.49697007872703
 30
0.0
 40
5.989999999999999
100
AcDbArc
 50
342.4820645709959
 51
356.9872124958172
  0
ARC
  5
2290
330
2210
100
AcDbEntity
  8
ﾀｲﾄﾙ枠
  6
Continuous
370
    40
100
AcDbCircle
 10
313.3292781992699
 20
15.49697007872703
 30
0.0
 40
5.45
100
AcDbArc
 50
340.6809234802235
 51
356.9872124958172
  0
LINE
  5
2291
330
2210
100
AcDbEntity
  8
ﾀｲﾄﾙ枠
  6
Continuous
370
    40
100
AcDbLine
 10
321.7368430171533
 20
14.7539541482177
 30
0.0
 11
320.3068430171533
 21
14.7539541482177
 31
0.0
  0
LINE
  5
2292
330
2210
100
AcDbEntity
  8
ﾀｲﾄﾙ枠
  6
Continuous
370
    40
100
AcDbLine
 10
320.3068430171533
 20
14.7539541482177
 30
0.0
 11
320.3068430171533
 21
14.7339541482177
 31
0.0
  0
LINE
  5
2293
330
2210
100
AcDbEntity
  8
ﾀｲﾄﾙ枠
  6
Continuous
370
    40
100
AcDbLine
 10
320.3068430171533
 20
14.7339541482177
 30
0.0
 11
321.7368430171533
 21
14.7339541482177
 31
0.0
  0
LINE
  5
2294
330
2210
100
AcDbEntity
  8
ﾀｲﾄﾙ枠
  6
Continuous
370
    40
100
AcDbLine
 10
321.7368430171533
 20
14.7339541482177
 30
0.0
 11
321.7368430171533
 21
13.7139541482177
 31
0.0
  0
LINE
  5
2295
330
2210
100
AcDbEntity
  8
ﾀｲﾄﾙ枠
  6
Continuous
370
    40
100
AcDbLine
 10
321.7368430171533
 20
13.7139541482177
 30
0.0
 11
319.9168430171532
 21
13.7139541482177
 31
0.0
  0
LINE
  5
2296
330
2210
100
AcDbEntity
  8
ﾀｲﾄﾙ枠
  6
Continuous
370
    40
100
AcDbLine
 10
319.9168430171532
 20
13.7139541482177
 30
0.0
 11
319.9168430171532
 21
13.6939541482177
 31
0.0
  0
LINE
  5
2297
330
2210
100
AcDbEntity
  8
ﾀｲﾄﾙ枠
  6
Continuous
370
    40
100
AcDbLine
 10
319.0414786119246
 20
13.6939541482177
 30
0.0
 11
318.4723933597863
 21
13.6939541482177
 31
0.0
  0
LINE
  5
2298
330
2210
100
AcDbEntity
  8
ﾀｲﾄﾙ枠
  6
Continuous
370
    40
100
AcDbLine
 10
321.7368430171533
 20
15.7739541482177
 30
0.0
 11
321.7368430171533
 21
14.7539541482177
 31
0.0
  0
LINE
  5
2299
330
2210
100
AcDbEntity
  8
ﾀｲﾄﾙ枠
  6
Continuous
370
    40
100
AcDbLine
 10
318.8640311433432
 20
16.9639541482177
 30
0.0
 11
318.7717453691323
 21
15.21052443820804
 31
0.0
  0
LINE
  5
229A
330
2210
100
AcDbEntity
  8
ﾀｲﾄﾙ枠
  6
Continuous
370
    40
100
AcDbLine
 10
319.0413721830519
 20
15.1963335532647
 30
0.0
 11
319.1212469512072
 21
16.7139541482177
 31
0.0
  0
LINE
  5
229B
330
2210
100
AcDbEntity
  8
ﾀｲﾄﾙ枠
  6
Continuous
370
    40
100
AcDbLine
 10
319.4037259169662
 20
16.9439541482177
 30
0.0
 11
319.3109989969716
 21
15.1821426683217
 31
0.0
  0
LINE
  5
229C
330
2210
100
AcDbEntity
  8
ﾀｲﾄﾙ枠
  6
Continuous
370
    40
100
AcDbLine
 10
322.5368430171532
 20
16.1839541482177
 30
0.0
 11
321.7368430171533
 21
16.1839541482177
 31
0.0
  0
LINE
  5
229D
330
2210
100
AcDbEntity
  8
ﾀｲﾄﾙ枠
  6
Continuous
370
    40
100
AcDbLine
 10
322.1468430171532
 20
18.7839541482177
 30
0.0
 11
321.3468430171533
 21
18.7839541482177
 31
0.0
  0
LINE
  5
229E
330
2210
100
AcDbEntity
  8
ﾀｲﾄﾙ枠
  6
Continuous
370
    40
100
AcDbLine
 10
323.3213515143406
 20
18.1139541482177
 30
0.0
 11
320.1723345199659
 21
18.1139541482177
 31
0.0
  0
LINE
  5
229F
330
2210
100
AcDbEntity
  8
ﾀｲﾄﾙ枠
  6
Continuous
370
    40
100
AcDbLine
 10
320.7473345199659
 20
16.9639541482177
 30
0.0
 11
322.7463515143406
 21
16.9639541482177
 31
0.0
  0
LINE
  5
22A0
330
2210
100
AcDbEntity
  8
ﾀｲﾄﾙ枠
  6
Continuous
370
    40
100
AcDbLine
 10
324.3568430171533
 20
15.7739541482177
 30
0.0
 11
324.3568430171533
 21
15.7939541482177
 31
0.0
  0
LINE
  5
22A1
330
2210
100
AcDbEntity
  8
ﾀｲﾄﾙ枠
  6
Continuous
370
    40
100
AcDbLine
 10
324.3568430171533
 20
16.9439541482177
 30
0.0
 11
324.3568430171533
 21
16.9639541482177
 31
0.0
  0
LINE
  5
22A2
330
2210
100
AcDbEntity
  8
ﾀｲﾄﾙ枠
  6
Continuous
370
    40
100
AcDbLine
 10
324.075295422411
 20
18.1139541482177
 30
0.0
 11
324.3568430171533
 21
18.1139541482177
 31
0.0
  0
LINE
  5
22A3
330
2210
100
AcDbEntity
  8
ﾀｲﾄﾙ枠
  6
Continuous
370
    40
100
AcDbLine
 10
324.3568430171533
 20
18.1139541482177
 30
0.0
 11
324.3568430171533
 21
18.1339541482177
 31
0.0
  0
LINE
  5
22A4
330
2210
100
AcDbEntity
  8
ﾀｲﾄﾙ枠
  6
Continuous
370
    40
100
AcDbLine
 10
324.3568430171533
 20
13.6939541482177
 30
0.0
 11
324.3568430171533
 21
13.7139541482177
 31
0.0
  0
LINE
  5
22A5
330
2210
100
AcDbEntity
  8
ﾀｲﾄﾙ枠
  6
Continuous
370
    40
100
AcDbLine
 10
324.0968430171533
 20
14.7339541482177
 30
0.0
 11
324.0968430171533
 21
14.7539541482177
 31
0.0
  0
LINE
  5
22A6
330
2210
100
AcDbEntity
  8
ﾀｲﾄﾙ枠
  6
Continuous
370
    40
100
AcDbLine
 10
334.4168430171532
 20
18.7839541482177
 30
0.0
 11
334.4168430171532
 21
17.6039541482177
 31
0.0
  0
LINE
  5
22A7
330
2210
100
AcDbEntity
  8
ﾀｲﾄﾙ枠
  6
Continuous
370
    40
100
AcDbLine
 10
333.8768430171533
 20
17.6039541482177
 30
0.0
 11
333.8768430171533
 21
18.7839541482177
 31
0.0
  0
LINE
  5
22A8
330
2210
100
AcDbEntity
  8
ﾀｲﾄﾙ枠
  6
Continuous
370
    40
100
AcDbLine
 10
333.8768430171533
 20
18.7839541482177
 30
0.0
 11
334.4168430171532
 21
18.7839541482177
 31
0.0
  0
LINE
  5
22A9
330
2210
100
AcDbEntity
  8
ﾀｲﾄﾙ枠
  6
Continuous
370
    40
100
AcDbLine
 10
334.4168430171532
 20
13.6939541482177
 30
0.0
 11
333.8768430171533
 21
13.6939541482177
 31
0.0
  0
LINE
  5
22AA
330
2210
100
AcDbEntity
  8
ﾀｲﾄﾙ枠
  6
Continuous
370
    40
100
AcDbLine
 10
333.8768430171533
 20
13.6939541482177
 30
0.0
 11
333.8768430171533
 21
15.68534525748604
 31
0.0
  0
LINE
  5
22AB
330
2210
100
AcDbEntity
  8
ﾀｲﾄﾙ枠
  6
Continuous
370
    40
100
AcDbLine
 10
334.1468430171532
 20
18.5339541482177
 30
0.0
 11
334.1468430171532
 21
13.9439541482177
 31
0.0
  0
LINE
  5
22AC
330
2210
100
AcDbEntity
  8
ﾀｲﾄﾙ枠
  6
Continuous
370
    40
100
AcDbLine
 10
334.4168430171532
 20
16.7939541482177
 30
0.0
 11
334.4168430171532
 21
13.6939541482177
 31
0.0
  0
LINE
  5
22AD
330
2210
100
AcDbEntity
  8
ﾀｲﾄﾙ枠
  6
Continuous
370
    40
100
AcDbLine
 10
331.8568430171533
 20
17.7989541482177
 30
0.0
 11
330.95439789467
 21
17.7989541482177
 31
0.0
  0
LINE
  5
22AE
330
2210
100
AcDbEntity
  8
ﾀｲﾄﾙ枠
  6
Continuous
370
    40
100
AcDbLine
 10
331.6315853946696
 20
18.7839541482177
 30
0.0
 11
330.2393978946696
 21
16.7589541482177
 31
0.0
  0
LINE
  5
22AF
330
2210
100
AcDbEntity
  8
ﾀｲﾄﾙ枠
  6
Continuous
370
    40
100
AcDbLine
 10
330.094117793482
 20
17.0089541482177
 30
0.0
 11
331.1187271684819
 21
18.5339541482177
 31
0.0
  0
LINE
  5
22B0
330
2210
100
AcDbEntity
  8
ﾀｲﾄﾙ枠
  6
Continuous
370
    40
100
AcDbLine
 10
330.941806442294
 20
18.7839541482177
 30
0.0
 11
331.6315853946696
 21
18.7839541482177
 31
0.0
  0
LINE
  5
22B1
330
2210
100
AcDbEntity
  8
ﾀｲﾄﾙ枠
  6
Continuous
370
    40
100
AcDbLine
 10
331.5968430171533
 20
14.33887351435003
 30
0.0
 11
330.0917019078846
 21
15.1989541482177
 31
0.0
  0
LINE
  5
22B2
330
2210
100
AcDbEntity
  8
ﾀｲﾄﾙ枠
  6
Continuous
370
    40
100
AcDbLine
 10
331.5968430171533
 20
13.8747490677997
 30
0.0
 11
331.5968430171533
 21
14.33887351435003
 31
0.0
  0
LINE
  5
22B3
330
2210
100
AcDbEntity
  8
ﾀｲﾄﾙ枠
  6
Continuous
370
    40
100
AcDbLine
 10
329.7768430171533
 20
17.7989541482177
 30
0.0
 11
329.7768430171533
 21
18.7839541482177
 31
0.0
  0
LINE
  5
22B4
330
2210
100
AcDbEntity
  8
ﾀｲﾄﾙ枠
  6
Continuous
370
    40
100
AcDbLine
 10
329.7768430171533
 20
18.7839541482177
 30
0.0
 11
329.3018430171533
 21
18.7839541482177
 31
0.0
  0
LINE
  5
22B5
330
2210
100
AcDbEntity
  8
ﾀｲﾄﾙ枠
  6
Continuous
370
    40
100
AcDbLine
 10
329.3018430171533
 20
18.7839541482177
 30
0.0
 11
329.3018430171533
 21
17.7989541482177
 31
0.0
  0
LINE
  5
22B6
330
2210
100
AcDbEntity
  8
ﾀｲﾄﾙ枠
  6
Continuous
370
    40
100
AcDbLine
 10
329.3018430171533
 20
17.7989541482177
 30
0.0
 11
328.4118430171532
 21
17.7989541482177
 31
0.0
  0
LINE
  5
22B7
330
2210
100
AcDbEntity
  8
ﾀｲﾄﾙ枠
  6
Continuous
370
    40
100
AcDbLine
 10
328.4118430171532
 20
17.7989541482177
 30
0.0
 11
328.4118430171532
 21
18.7839541482177
 31
0.0
  0
LINE
  5
22B8
330
2210
100
AcDbEntity
  8
ﾀｲﾄﾙ枠
  6
Continuous
370
    40
100
AcDbLine
 10
328.4118430171532
 20
18.7839541482177
 30
0.0
 11
327.9368430171533
 21
18.7839541482177
 31
0.0
  0
LINE
  5
22B9
330
2210
100
AcDbEntity
  8
ﾀｲﾄﾙ枠
  6
Continuous
370
    40
100
AcDbLine
 10
327.9368430171533
 20
18.7839541482177
 30
0.0
 11
327.9368430171533
 21
17.7989541482177
 31
0.0
  0
LINE
  5
22BA
330
2210
100
AcDbEntity
  8
ﾀｲﾄﾙ枠
  6
Continuous
370
    40
100
AcDbLine
 10
327.9368430171533
 20
17.7989541482177
 30
0.0
 11
327.4182858420126
 21
17.7989541482177
 31
0.0
  0
LINE
  5
22BB
330
2210
100
AcDbEntity
  8
ﾀｲﾄﾙ枠
  6
Continuous
370
    40
100
AcDbLine
 10
326.7718795920126
 20
18.7839541482177
 30
0.0
 11
328.1007858420126
 21
16.7589541482177
 31
0.0
  0
LINE
  5
22BC
330
2210
100
AcDbEntity
  8
ﾀｲﾄﾙ枠
  6
Continuous
370
    40
100
AcDbLine
 10
326.7668430171533
 20
15.9789541482177
 30
0.0
 11
328.3918430171532
 21
15.9789541482177
 31
0.0
  0
LINE
  5
22BD
330
2210
100
AcDbEntity
  8
ﾀｲﾄﾙ枠
  6
Continuous
370
    40
100
AcDbLine
 10
326.594958865825
 20
18.5339541482177
 30
0.0
 11
327.6195682408246
 21
17.0089541482177
 31
0.0
  0
LINE
  5
22BE
330
2210
100
AcDbEntity
  8
ﾀｲﾄﾙ枠
  6
Continuous
370
    40
100
AcDbLine
 10
328.3918430171532
 20
13.6939541482177
 30
0.0
 11
329.3218430171533
 21
13.6939541482177
 31
0.0
  0
LINE
  5
22BF
330
2210
100
AcDbEntity
  8
ﾀｲﾄﾙ枠
  6
Continuous
370
    40
100
AcDbLine
 10
328.3918430171532
 20
16.7589541482177
 30
0.0
 11
328.3918430171532
 21
13.6939541482177
 31
0.0
  0
LINE
  5
22C0
330
2210
100
AcDbEntity
  8
ﾀｲﾄﾙ枠
  6
Continuous
370
    40
100
AcDbLine
 10
329.3218430171533
 20
13.6939541482177
 30
0.0
 11
329.3218430171533
 21
16.7589541482177
 31
0.0
  0
LINE
  5
22C1
330
2210
100
AcDbEntity
  8
ﾀｲﾄﾙ枠
  6
Continuous
370
    40
100
AcDbLine
 10
328.8568430171533
 20
16.5089541482177
 30
0.0
 11
328.8568430171533
 21
13.9439541482177
 31
0.0
  0
LINE
  5
22C2
330
2210
100
AcDbEntity
  8
ﾀｲﾄﾙ枠
  6
Continuous
370
    40
100
AcDbLine
 10
329.0568430171532
 20
16.5089541482177
 30
0.0
 11
329.0568430171532
 21
13.9439541482177
 31
0.0
  0
LINE
  5
22C3
330
2210
100
AcDbEntity
  8
ﾀｲﾄﾙ枠
  6
Continuous
370
    40
100
AcDbLine
 10
328.6568430171532
 20
16.5089541482177
 30
0.0
 11
328.6568430171532
 21
13.9439541482177
 31
0.0
  0
LINE
  5
22C4
330
2210
100
AcDbEntity
  8
ﾀｲﾄﾙ枠
  6
Continuous
370
    40
100
AcDbLine
 10
329.3218430171533
 20
15.1747490677997
 30
0.0
 11
331.5968430171533
 21
13.8747490677997
 31
0.0
  0
LINE
  5
22C5
330
2210
100
AcDbEntity
  8
ﾀｲﾄﾙ枠
  6
Continuous
370
    40
100
AcDbLine
 10
330.2954001922939
 20
17.7989541482177
 30
0.0
 11
329.7768430171533
 21
17.7989541482177
 31
0.0
  0
LINE
  5
22C6
330
2210
100
AcDbEntity
  8
ﾀｲﾄﾙ枠
  6
Continuous
370
    40
100
AcDbLine
 10
329.6129001922939
 20
16.7589541482177
 30
0.0
 11
330.941806442294
 21
18.7839541482177
 31
0.0
  0
LINE
  5
22C7
330
2210
100
AcDbEntity
  8
ﾀｲﾄﾙ枠
  6
Continuous
370
    40
100
AcDbLine
 10
331.3368430171533
 20
16.7589541482177
 30
0.0
 11
326.3768430171533
 21
16.7589541482177
 31
0.0
  0
LINE
  5
22C8
330
2210
100
AcDbEntity
  8
ﾀｲﾄﾙ枠
  6
Continuous
370
    40
100
AcDbLine
 10
329.3218430171533
 20
15.9789541482177
 30
0.0
 11
330.9468430171532
 21
15.9789541482177
 31
0.0
  0
LINE
  5
22C9
330
2210
100
AcDbEntity
  8
ﾀｲﾄﾙ枠
  6
Continuous
370
    40
100
AcDbLine
 10
331.5968430171533
 20
15.1989541482177
 30
0.0
 11
329.3218430171533
 21
15.1989541482177
 31
0.0
  0
LINE
  5
22CA
330
2210
100
AcDbEntity
  8
ﾀｲﾄﾙ枠
  6
Continuous
370
    40
100
AcDbLine
 10
333.3568430171533
 20
14.77534525748637
 30
0.0
 11
333.3568430171533
 21
15.99580854732604
 31
0.0
  0
LINE
  5
22CB
330
2210
100
AcDbEntity
  8
ﾀｲﾄﾙ枠
  6
Continuous
370
    40
100
AcDbLine
 10
333.3568430171533
 20
15.99580854732604
 30
0.0
 11
334.00010125751
 21
17.6039541482177
 31
0.0
  0
LINE
  5
22CC
330
2210
100
AcDbEntity
  8
ﾀｲﾄﾙ枠
  6
Continuous
370
    40
100
AcDbLine
 10
333.6068430171533
 20
15.7267606038257
 30
0.0
 11
333.9384721373316
 21
16.44464970285204
 31
0.0
  0
LINE
  5
22CD
330
2210
100
AcDbEntity
  8
ﾀｲﾄﾙ枠
  6
Continuous
370
    40
100
AcDbLine
 10
333.8768430171533
 20
15.68534525748604
 30
0.0
 11
333.3568430171533
 21
14.77534525748637
 31
0.0
  0
TEXT
  5
22CE
330
2210
100
AcDbEntity
  8
ﾀｲﾄﾙ枠
100
AcDbText
 10
351.2219101123595
 20
32.37756490823933
 30
0.0
 40
2.5
  1
尺 度
 50
270.0
  7
明朝TATE
 72
     4
 11
352.4999999999999
 21
28.23430648127304
 31
0.0
100
AcDbText
  0
LINE
  5
22CF
330
2210
100
AcDbEntity
  8
ﾀｲﾄﾙ枠
  6
Continuous
370
    40
100
AcDbLine
 10
350.641957282789
 20
18.7839541482177
 30
0.0
 11
352.0717287515176
 21
18.7839541482177
 31
0.0
  0
LINE
  5
22D0
330
2210
100
AcDbEntity
  8
ﾀｲﾄﾙ枠
  6
Continuous
370
    40
100
AcDbLine
 10
354.0968430171533
 20
15.78395414821771
 30
0.0
 11
348.6168430171533
 21
15.78395414821771
 31
0.0
  0
LINE
  5
22D1
330
2210
100
AcDbEntity
  8
ﾀｲﾄﾙ枠
  6
Continuous
370
    40
100
AcDbLine
 10
351.3568430171533
 20
18.27346264540503
 30
0.0
 11
348.6168430171533
 21
16.90346264540503
 31
0.0
  0
LINE
  5
22D2
330
2210
100
AcDbEntity
  8
ﾀｲﾄﾙ枠
  6
Continuous
370
    40
100
AcDbLine
 10
348.8668430171533
 20
17.40286764611904
 30
0.0
 11
351.1290160213502
 21
18.5339541482177
 31
0.0
  0
LINE
  5
22D3
330
2210
100
AcDbEntity
  8
ﾀｲﾄﾙ枠
  6
Continuous
370
    40
100
AcDbLine
 10
353.0568430171533
 20
16.7489541482177
 30
0.0
 11
349.6568430171532
 21
16.7489541482177
 31
0.0
  0
LINE
  5
22D4
330
2210
100
AcDbEntity
  8
ﾀｲﾄﾙ枠
  6
Continuous
370
    40
100
AcDbLine
 10
349.6568430171532
 20
16.6389541482177
 30
0.0
 11
353.0568430171533
 21
16.6389541482177
 31
0.0
  0
LINE
  5
22D5
330
2210
100
AcDbEntity
  8
ﾀｲﾄﾙ枠
  6
Continuous
370
    40
100
AcDbLine
 10
353.8221507699653
 20
13.7039541482177
 30
0.0
 11
348.891535264341
 21
13.7039541482177
 31
0.0
  0
LINE
  5
22D6
330
2210
100
AcDbEntity
  8
ﾀｲﾄﾙ枠
  6
Continuous
370
    40
100
AcDbLine
 10
349.5971507699656
 20
13.7039541482177
 30
0.0
 11
351.2438174366323
 21
15.78395414821771
 31
0.0
  0
LINE
  5
22D7
330
2210
100
AcDbEntity
  8
ﾀｲﾄﾙ枠
100
AcDbLine
 10
350.0
 20
22.23430648127306
 30
0.0
 11
350.0
 21
34.23430648127306
 31
0.0
  0
LINE
  5
22D8
330
2210
100
AcDbEntity
  8
ﾀｲﾄﾙ枠
  6
Continuous
370
    40
100
AcDbLine
 10
343.8668430171533
 20
16.6939541482177
 30
0.0
 11
341.1168430171533
 21
16.6939541482177
 31
0.0
  0
LINE
  5
22D9
330
2210
100
AcDbEntity
  8
ﾀｲﾄﾙ枠
  6
Continuous
370
    40
100
AcDbLine
 10
343.8668430171533
 20
14.29890512389737
 30
0.0
 11
341.1168430171533
 21
13.74890512389737
 31
0.0
  0
LINE
  5
22DA
330
2210
100
AcDbEntity
  8
ﾀｲﾄﾙ枠
  6
Continuous
370
    40
100
AcDbLine
 10
341.1168430171533
 20
14.91216058197736
 30
0.0
 11
343.8668430171533
 21
15.24216058197737
 31
0.0
  0
LINE
  5
22DB
330
2210
100
AcDbEntity
  8
ﾀｲﾄﾙ枠
  6
Continuous
370
    40
100
AcDbLine
 10
343.6168430171533
 20
14.73053285293737
 30
0.0
 11
341.3668430171533
 21
14.37053285293737
 31
0.0
  0
LINE
  5
22DC
330
2210
100
AcDbEntity
  8
ﾀｲﾄﾙ枠
  6
Continuous
370
    40
100
AcDbLine
 10
343.5819435912518
 20
14.94865426482147
 30
0.0
 11
341.3319435912518
 21
14.58865426482147
 31
0.0
  0
LINE
  5
22DD
330
2210
100
AcDbEntity
  8
ﾀｲﾄﾙ枠
  6
Continuous
370
    40
100
AcDbLine
 10
343.6517424430547
 20
14.51241144105326
 30
0.0
 11
341.4017424430547
 21
14.15241144105326
 31
0.0
  0
LINE
  5
22DE
330
2210
100
AcDbEntity
  8
ﾀｲﾄﾙ枠
  6
Continuous
370
    40
100
AcDbLine
 10
341.1168430171533
 20
17.6039541482177
 30
0.0
 11
346.4668430171533
 21
17.6039541482177
 31
0.0
  0
LINE
  5
22DF
330
2210
100
AcDbEntity
  8
ﾀｲﾄﾙ枠
  6
Continuous
370
    40
100
AcDbLine
 10
342.2968430171533
 20
16.4439541482177
 30
0.0
 11
342.2968430171533
 21
15.05376058197737
 31
0.0
  0
LINE
  5
22E0
330
2210
100
AcDbEntity
  8
ﾀｲﾄﾙ枠
  6
Continuous
370
    40
100
AcDbLine
 10
342.6968430171533
 20
15.10176058197737
 30
0.0
 11
342.6968430171533
 21
16.6939541482177
 31
0.0
  0
LINE
  5
22E1
330
2210
100
AcDbEntity
  8
ﾀｲﾄﾙ枠
  6
Continuous
370
    40
100
AcDbLine
 10
339.2460929001122
 20
13.6939541482177
 30
0.0
 11
338.8082127081646
 21
13.6939541482177
 31
0.0
  0
LINE
  5
22E2
330
2210
100
AcDbEntity
  8
ﾀｲﾄﾙ枠
  6
Continuous
370
    40
100
AcDbLine
 10
338.6535929001122
 20
15.2739541482177
 30
0.0
 11
339.2460929001122
 21
13.6939541482177
 31
0.0
  0
LINE
  5
22E3
330
2210
100
AcDbEntity
  8
ﾀｲﾄﾙ枠
  6
Continuous
370
    40
100
AcDbLine
 10
335.6968430171533
 20
17.6039541482177
 30
0.0
 11
335.6968430171533
 21
18.7839541482177
 31
0.0
  0
LINE
  5
22E4
330
2210
100
AcDbEntity
  8
ﾀｲﾄﾙ枠
  6
Continuous
370
    40
100
AcDbLine
 10
335.6968430171533
 20
18.7839541482177
 30
0.0
 11
336.1068430171533
 21
18.7839541482177
 31
0.0
  0
LINE
  5
22E5
330
2210
100
AcDbEntity
  8
ﾀｲﾄﾙ枠
  6
Continuous
370
    40
100
AcDbLine
 10
336.1068430171533
 20
18.7839541482177
 30
0.0
 11
336.1068430171533
 21
17.6039541482177
 31
0.0
  0
LINE
  5
22E6
330
2210
100
AcDbEntity
  8
ﾀｲﾄﾙ枠
  6
Continuous
370
    40
100
AcDbLine
 10
337.1268430171533
 20
15.2739541482177
 30
0.0
 11
336.2513515143409
 21
15.2739541482177
 31
0.0
  0
LINE
  5
22E7
330
2210
100
AcDbEntity
  8
ﾀｲﾄﾙ枠
  6
Continuous
370
    40
100
AcDbLine
 10
337.1268430171533
 20
18.7839541482177
 30
0.0
 11
337.7968430171533
 21
18.7839541482177
 31
0.0
  0
LINE
  5
22E8
330
2210
100
AcDbEntity
  8
ﾀｲﾄﾙ枠
  6
Continuous
370
    40
100
AcDbLine
 10
334.8068430171533
 20
16.74062081488437
 30
0.0
 11
334.8068430171533
 21
16.2739541482177
 31
0.0
  0
LINE
  5
22E9
330
2210
100
AcDbEntity
  8
ﾀｲﾄﾙ枠
  6
Continuous
370
    40
100
AcDbLine
 10
335.4613515143406
 20
13.6939541482177
 30
0.0
 11
335.9197454497283
 21
13.6939541482177
 31
0.0
  0
LINE
  5
22EA
330
2210
100
AcDbEntity
  8
ﾀｲﾄﾙ枠
  6
Continuous
370
    40
100
AcDbLine
 10
337.7968430171533
 20
13.6939541482177
 30
0.0
 11
337.1268430171533
 21
13.6939541482177
 31
0.0
  0
LINE
  5
22EB
330
2210
100
AcDbEntity
  8
ﾀｲﾄﾙ枠
  6
Continuous
370
    40
100
AcDbLine
 10
336.2513515143409
 20
15.2739541482177
 30
0.0
 11
335.4613515143406
 21
13.6939541482177
 31
0.0
  0
LINE
  5
22EC
330
2210
100
AcDbEntity
  8
ﾀｲﾄﾙ枠
  6
Continuous
370
    40
100
AcDbLine
 10
335.9197454497283
 20
13.6939541482177
 30
0.0
 11
336.7097454497283
 21
15.2739541482177
 31
0.0
  0
LINE
  5
22ED
330
2210
100
AcDbEntity
  8
ﾀｲﾄﾙ枠
  6
Continuous
370
    40
100
AcDbLine
 10
337.4618430171533
 20
13.9439541482177
 30
0.0
 11
337.4618430171533
 21
18.5339541482177
 31
0.0
  0
LINE
  5
22EE
330
2210
100
AcDbEntity
  8
ﾀｲﾄﾙ枠
  6
Continuous
370
    40
100
AcDbLine
 10
337.7968430171533
 20
18.7839541482177
 30
0.0
 11
337.7968430171533
 21
13.6939541482177
 31
0.0
  0
LINE
  5
22EF
330
2210
100
AcDbEntity
  8
ﾀｲﾄﾙ枠
  6
Continuous
370
    40
100
AcDbLine
 10
337.1268430171533
 20
13.6939541482177
 30
0.0
 11
337.1268430171533
 21
18.7839541482177
 31
0.0
  0
LINE
  5
22F0
330
2210
100
AcDbEntity
  8
ﾀｲﾄﾙ枠
  6
Continuous
370
    40
100
AcDbLine
 10
338.8082127081646
 20
13.6939541482177
 30
0.0
 11
338.2157127081646
 21
15.2739541482177
 31
0.0
  0
LINE
  5
22F1
330
2210
100
AcDbEntity
  8
ﾀｲﾄﾙ枠
  6
Continuous
370
    40
100
AcDbLine
 10
338.9668430171533
 20
17.6039541482177
 30
0.0
 11
335.6968430171533
 21
17.6039541482177
 31
0.0
  0
LINE
  5
22F2
330
2210
100
AcDbEntity
  8
ﾀｲﾄﾙ枠
  6
Continuous
370
    40
100
AcDbLine
 10
335.6968430171533
 20
16.4339541482177
 30
0.0
 11
338.8368430171533
 21
16.4339541482177
 31
0.0
  0
LINE
  5
22F3
330
2210
100
AcDbEntity
  8
ﾀｲﾄﾙ枠
  6
Continuous
370
    40
100
AcDbLine
 10
337.7968430171533
 20
15.2739541482177
 30
0.0
 11
338.6535929001122
 21
15.2739541482177
 31
0.0
  0
LINE
  5
22F4
330
2210
100
AcDbEntity
  8
ﾀｲﾄﾙ枠
  6
Continuous
370
    40
100
AcDbLine
 10
341.1168430171533
 20
13.74890512389737
 30
0.0
 11
341.1168430171533
 21
14.91216058197736
 31
0.0
  0
LINE
  5
22F5
330
2210
100
AcDbEntity
  8
ﾀｲﾄﾙ枠
  6
Continuous
370
    40
100
AcDbLine
 10
341.8968430171533
 20
15.00576058197736
 30
0.0
 11
341.8968430171533
 21
16.6939541482177
 31
0.0
  0
LINE
  5
22F6
330
2210
100
AcDbEntity
  8
ﾀｲﾄﾙ枠
  6
Continuous
370
    40
100
AcDbLine
 10
346.4668430171533
 20
18.5239541482177
 30
0.0
 11
346.4668430171533
 21
18.3739541482177
 31
0.0
  0
LINE
  5
22F7
330
2210
100
AcDbEntity
  8
ﾀｲﾄﾙ枠
  6
Continuous
370
    40
100
AcDbLine
 10
344.9712490933716
 20
18.7839541482177
 30
0.0
 11
345.3249700236043
 21
17.6139541482177
 31
0.0
  0
LINE
  5
22F8
330
2210
100
AcDbEntity
  8
ﾀｲﾄﾙ枠
  6
Continuous
370
    40
100
AcDbLine
 10
344.4173206618653
 20
17.6139541482177
 30
0.0
 11
344.0635997316326
 21
18.7839541482177
 31
0.0
  0
LINE
  5
22F9
330
2210
100
AcDbEntity
  8
ﾀｲﾄﾙ枠
  6
Continuous
370
    40
100
AcDbLine
 10
344.0635997316326
 20
18.7839541482177
 30
0.0
 11
344.9712490933716
 21
18.7839541482177
 31
0.0
  0
LINE
  5
22FA
330
2210
100
AcDbEntity
  8
ﾀｲﾄﾙ枠
  6
Continuous
370
    40
100
AcDbLine
 10
345.9268430171533
 20
18.3739541482177
 30
0.0
 11
345.9268430171533
 21
18.5239541482177
 31
0.0
  0
LINE
  5
22FB
330
2210
100
AcDbEntity
  8
ﾀｲﾄﾙ枠
  6
Continuous
370
    40
100
AcDbLine
 10
343.8668430171533
 20
15.24216058197737
 30
0.0
 11
343.8668430171533
 21
14.29890512389737
 31
0.0
  0
LINE
  5
22FC
330
2210
100
AcDbEntity
  8
ﾀｲﾄﾙ枠
  6
Continuous
370
    40
100
AcDbLine
 10
345.6024369409349
 20
13.6939541482177
 30
0.0
 11
344.423367173493
 21
17.5939541482177
 31
0.0
  0
LINE
  5
22FD
330
2210
100
AcDbEntity
  8
ﾀｲﾄﾙ枠
  6
Continuous
370
    40
100
AcDbLine
 10
344.5842068402564
 20
18.56305842564579
 30
0.0
 11
345.9894791940501
 21
13.91484987078961
 31
0.0
  0
LINE
  5
22FE
330
2210
100
AcDbEntity
  8
ﾀｲﾄﾙ枠
  6
Continuous
370
    40
100
AcDbLine
 10
344.8149768836054
 20
18.56305842564579
 30
0.0
 11
346.2202492373992
 21
13.91484987078961
 31
0.0
  0
LINE
  5
22FF
330
2210
100
AcDbEntity
  8
ﾀｲﾄﾙ枠
  6
Continuous
370
    40
100
AcDbLine
 10
344.3534367969073
 20
18.56305842564579
 30
0.0
 11
345.758709150701
 21
13.91484987078961
 31
0.0
  0
LINE
  5
2300
330
2210
100
AcDbEntity
  8
ﾀｲﾄﾙ枠
  6
Continuous
370
    40
100
AcDbLine
 10
345.3310165352323
 20
17.5939541482177
 30
0.0
 11
346.5100863026739
 21
13.6939541482177
 31
0.0
  0
LINE
  5
2301
330
2210
100
AcDbEntity
  8
ﾀｲﾄﾙ枠
  6
Continuous
370
    40
100
AcDbLine
 10
346.5100863026739
 20
13.6939541482177
 30
0.0
 11
345.6024369409349
 21
13.6939541482177
 31
0.0
  0
LINE
  5
2302
330
2210
100
AcDbEntity
  8
ﾀｲﾄﾙ枠
  6
Continuous
370
    40
100
AcDbLine
 10
346.4668430171533
 20
18.3739541482177
 30
0.0
 11
345.9268430171533
 21
18.3739541482177
 31
0.0
  0
LINE
  5
2303
330
2210
100
AcDbEntity
  8
ﾀｲﾄﾙ枠
  6
Continuous
370
    40
100
AcDbLine
 10
345.9268430171533
 20
18.5239541482177
 30
0.0
 11
346.4668430171533
 21
18.5239541482177
 31
0.0
  0
LINE
  5
2304
330
2210
100
AcDbEntity
  8
ﾀｲﾄﾙ枠
  6
Continuous
370
    40
100
AcDbLine
 10
348.6168430171533
 20
16.90346264540503
 30
0.0
 11
348.6168430171533
 21
17.65227264683304
 31
0.0
  0
LINE
  5
2305
330
2210
100
AcDbEntity
  8
ﾀｲﾄﾙ枠
  6
Continuous
370
    40
100
AcDbLine
 10
349.6568430171532
 20
16.7489541482177
 30
0.0
 11
349.6568430171532
 21
16.6389541482177
 31
0.0
  0
LINE
  5
2306
330
2210
100
AcDbEntity
  8
ﾀｲﾄﾙ枠
  6
Continuous
370
    40
100
AcDbLine
 10
348.6168430171533
 20
17.65227264683304
 30
0.0
 11
350.641957282789
 21
18.7839541482177
 31
0.0
  0
LINE
  5
2307
330
2210
100
AcDbEntity
  8
ﾀｲﾄﾙ枠
  6
Continuous
370
    40
100
AcDbLine
 10
348.891535264341
 20
13.7039541482177
 30
0.0
 11
350.5302852643413
 21
15.7739541482177
 31
0.0
  0
LINE
  5
2308
330
2210
100
AcDbEntity
  8
ﾀｲﾄﾙ枠
  6
Continuous
370
    40
100
AcDbLine
 10
350.7471660174039
 20
15.60225688537637
 30
0.0
 11
349.4501763504866
 21
13.9639541482177
 31
0.0
  0
LINE
  5
2309
330
2210
100
AcDbEntity
  8
ﾀｲﾄﾙ枠
100
AcDbLine
 10
355.0
 20
22.23430648127306
 30
0.0
 11
355.0
 21
34.23430648127306
 31
0.0
  0
LINE
  5
230A
330
2210
100
AcDbEntity
  8
ﾀｲﾄﾙ枠
  6
Continuous
370
    40
100
AcDbLine
 10
358.7914401055489
 20
14.4739541482177
 30
0.0
 11
358.6361983585866
 21
14.4739541482177
 31
0.0
  0
LINE
  5
230B
330
2210
100
AcDbEntity
  8
ﾀｲﾄﾙ枠
  6
Continuous
370
    40
100
AcDbLine
 10
356.2136994888339
 20
14.4739541482177
 30
0.0
 11
356.3718133718422
 21
14.4739541482177
 31
0.0
  0
LINE
  5
230C
330
2210
100
AcDbEntity
  8
ﾀｲﾄﾙ枠
  6
Continuous
370
    40
100
AcDbLine
 10
356.6970328221672
 20
15.9239541482177
 30
0.0
 11
356.2136994888339
 21
14.4739541482177
 31
0.0
  0
LINE
  5
230D
330
2210
100
AcDbEntity
  8
ﾀｲﾄﾙ枠
  6
Continuous
370
    40
100
AcDbLine
 10
352.0717287515176
 20
18.7839541482177
 30
0.0
 11
354.0968430171533
 21
17.65227264683304
 31
0.0
  0
LINE
  5
230E
330
2210
100
AcDbEntity
  8
ﾀｲﾄﾙ枠
  6
Continuous
370
    40
100
AcDbLine
 10
354.0968430171533
 20
17.65227264683304
 30
0.0
 11
354.0968430171533
 21
16.90346264540503
 31
0.0
  0
LINE
  5
230F
330
2210
100
AcDbEntity
  8
ﾀｲﾄﾙ枠
  6
Continuous
370
    40
100
AcDbLine
 10
354.0968430171533
 20
16.90346264540503
 30
0.0
 11
351.3568430171533
 21
18.27346264540503
 31
0.0
  0
LINE
  5
2310
330
2210
100
AcDbEntity
  8
ﾀｲﾄﾙ枠
  6
Continuous
370
    40
100
AcDbLine
 10
351.1290160213502
 20
18.5339541482177
 30
0.0
 11
351.5846700129563
 21
18.5339541482177
 31
0.0
  0
LINE
  5
2311
330
2210
100
AcDbEntity
  8
ﾀｲﾄﾙ枠
  6
Continuous
370
    40
100
AcDbLine
 10
351.5846700129563
 20
18.5339541482177
 30
0.0
 11
353.8468430171533
 21
17.40286764611904
 31
0.0
  0
LINE
  5
2312
330
2210
100
AcDbEntity
  8
ﾀｲﾄﾙ枠
  6
Continuous
370
    40
100
AcDbLine
 10
353.0568430171533
 20
16.6389541482177
 30
0.0
 11
353.0568430171533
 21
16.7489541482177
 31
0.0
  0
LINE
  5
2313
330
2210
100
AcDbEntity
  8
ﾀｲﾄﾙ枠
  6
Continuous
370
    40
100
AcDbLine
 10
352.1834007699652
 20
15.7739541482177
 30
0.0
 11
353.8221507699653
 21
13.7039541482177
 31
0.0
  0
LINE
  5
2314
330
2210
100
AcDbEntity
  8
ﾀｲﾄﾙ枠
  6
Continuous
370
    40
100
AcDbLine
 10
351.4698685976743
 20
15.78395414821771
 30
0.0
 11
353.1165352643413
 21
13.7039541482177
 31
0.0
  0
LINE
  5
2315
330
2210
100
AcDbEntity
  8
ﾀｲﾄﾙ枠
  6
Continuous
370
    40
100
AcDbLine
 10
353.2635096838199
 20
13.9639541482177
 30
0.0
 11
351.9665200169026
 21
15.60225688537637
 31
0.0
  0
LINE
  5
2316
330
2210
100
AcDbEntity
  8
ﾀｲﾄﾙ枠
  6
Continuous
370
    40
100
AcDbLine
 10
358.4768430171533
 20
17.0839541482177
 30
0.0
 11
356.3768430171533
 21
17.0839541482177
 31
0.0
  0
LINE
  5
2317
330
2210
100
AcDbEntity
  8
ﾀｲﾄﾙ枠
  6
Continuous
370
    40
100
AcDbLine
 10
358.4047734388823
 20
15.9239541482177
 30
0.0
 11
357.9568430171533
 21
15.9239541482177
 31
0.0
  0
LINE
  5
2318
330
2210
100
AcDbEntity
  8
ﾀｲﾄﾙ枠
  6
Continuous
370
    40
100
AcDbLine
 10
357.1568430171532
 20
15.9239541482177
 30
0.0
 11
356.6970328221672
 21
15.9239541482177
 31
0.0
  0
LINE
  5
2319
330
2210
100
AcDbEntity
  8
ﾀｲﾄﾙ枠
  6
Continuous
370
    40
100
AcDbLine
 10
356.6368430171532
 20
18.7739541482177
 30
0.0
 11
358.3468430171533
 21
18.7739541482177
 31
0.0
  0
LINE
  5
231A
330
2210
100
AcDbEntity
  8
ﾀｲﾄﾙ枠
  6
Continuous
370
    40
100
AcDbLine
 10
357.1568430171532
 20
13.6939541482177
 30
0.0
 11
357.9568430171533
 21
13.6939541482177
 31
0.0
  0
LINE
  5
231B
330
2210
100
AcDbEntity
  8
ﾀｲﾄﾙ枠
  6
Continuous
370
    40
100
AcDbLine
 10
357.1568430171532
 20
17.0839541482177
 30
0.0
 11
357.1568430171532
 21
13.6939541482177
 31
0.0
  0
LINE
  5
231C
330
2210
100
AcDbEntity
  8
ﾀｲﾄﾙ枠
  6
Continuous
370
    40
100
AcDbLine
 10
357.9568430171533
 20
13.6939541482177
 30
0.0
 11
357.9568430171533
 21
17.0839541482177
 31
0.0
  0
LINE
  5
231D
330
2210
100
AcDbEntity
  8
ﾀｲﾄﾙ枠
  6
Continuous
370
    40
100
AcDbLine
 10
357.5568430171533
 20
16.8339541482177
 30
0.0
 11
357.5568430171533
 21
13.9439541482177
 31
0.0
  0
LINE
  5
231E
330
2210
100
AcDbEntity
  8
ﾀｲﾄﾙ枠
  6
Continuous
370
    40
100
AcDbLine
 10
356.3718133718422
 20
14.4739541482177
 30
0.0
 11
356.8551467051756
 21
15.9239541482177
 31
0.0
  0
LINE
  5
231F
330
2210
100
AcDbEntity
  8
ﾀｲﾄﾙ枠
  6
Continuous
370
    40
100
AcDbLine
 10
357.7568430171532
 20
16.8339541482177
 30
0.0
 11
357.7568430171532
 21
13.9439541482177
 31
0.0
  0
LINE
  5
2320
330
2210
100
AcDbEntity
  8
ﾀｲﾄﾙ枠
  6
Continuous
370
    40
100
AcDbLine
 10
357.3568430171533
 20
16.8339541482177
 30
0.0
 11
357.3568430171533
 21
13.9439541482177
 31
0.0
  0
LINE
  5
2321
330
2210
100
AcDbEntity
  8
ﾀｲﾄﾙ枠
  6
Continuous
370
    40
100
AcDbLine
 10
358.6361983585866
 20
14.4739541482177
 30
0.0
 11
358.2495316919196
 21
15.9239541482177
 31
0.0
  0
LINE
  5
2322
330
2210
100
AcDbEntity
  8
ﾀｲﾄﾙ枠
  6
Continuous
370
    40
100
AcDbLine
 10
358.4047734388823
 20
15.9239541482177
 30
0.0
 11
358.7914401055489
 21
14.4739541482177
 31
0.0
  0
LINE
  5
2323
330
2210
100
AcDbEntity
  8
ﾀｲﾄﾙ枠
  6
Continuous
370
    40
100
AcDbLine
 10
359.8868430171533
 20
18.7839541482177
 30
0.0
 11
360.8168430171533
 21
18.7839541482177
 31
0.0
  0
LINE
  5
2324
330
2210
100
AcDbEntity
  8
ﾀｲﾄﾙ枠
  6
Continuous
370
    40
100
AcDbLine
 10
359.3668430171533
 20
17.0839541482177
 30
0.0
 11
361.7268430171533
 21
17.0839541482177
 31
0.0
  0
LINE
  5
2325
330
2210
100
AcDbEntity
  8
ﾀｲﾄﾙ枠
  6
Continuous
370
    40
100
AcDbLine
 10
361.8568430171533
 20
13.6389541482177
 30
0.0
 11
359.2368430171533
 21
13.6389541482177
 31
0.0
  0
LINE
  5
2326
330
2210
100
AcDbEntity
  8
ﾀｲﾄﾙ枠
  6
Continuous
370
    40
100
AcDbLine
 10
359.8868430171533
 20
13.6389541482177
 30
0.0
 11
359.8868430171533
 21
18.7839541482177
 31
0.0
  0
LINE
  5
2327
330
2210
100
AcDbEntity
  8
ﾀｲﾄﾙ枠
  6
Continuous
370
    40
100
AcDbLine
 10
360.8168430171533
 20
18.7839541482177
 30
0.0
 11
360.8168430171533
 21
13.6389541482177
 31
0.0
  0
LINE
  5
2328
330
2210
100
AcDbEntity
  8
ﾀｲﾄﾙ枠
  6
Continuous
370
    40
100
AcDbLine
 10
360.3518430171533
 20
13.8889541482177
 30
0.0
 11
360.3518430171533
 21
18.5339541482177
 31
0.0
  0
LINE
  5
2329
330
2210
100
AcDbEntity
  8
ﾀｲﾄﾙ枠
  6
Continuous
370
    40
100
AcDbLine
 10
360.5518430171533
 20
13.8889541482177
 30
0.0
 11
360.5518430171533
 21
18.5339541482177
 31
0.0
  0
LINE
  5
232A
330
2210
100
AcDbEntity
  8
ﾀｲﾄﾙ枠
  6
Continuous
370
    40
100
AcDbLine
 10
360.1518430171533
 20
13.8889541482177
 30
0.0
 11
360.1518430171533
 21
18.5339541482177
 31
0.0
  0
TEXT
  5
232B
330
2210
100
AcDbEntity
  8
0
370
    30
100
AcDbText
 10
408.0
 20
14.11715324063652
 30
0.0
 40
4.0
  1
AA-000000
  7
MSP明朝W1
 11
408.0
 21
16.11715324063652
 31
0.0
100
AcDbText
 73
     2
  0
MTEXT
  5
232C
330
2210
100
AcDbEntity
  8
ﾀｲﾄﾙ枠
 62
     7
100
AcDbMText
 10
427.1638740951223
 20
49.28490200109685
 30
0.0
 40
2.5
 41
12.0
 71
     1
 72
     5
  1
{\fＭＳ Ｐ明朝|b0|i0|c128|p18;写　図}
 73
     1
 44
1.0
1001
ACAD
1000
MTEXTBEGIN
1070
    73
1070
     1
1070
    44
1040
1.0
1070
    74
1070
     0
1000
MTEXTEND
  0
LINE
  5
232D
330
2210
100
AcDbEntity
  8
ﾀｲﾄﾙ枠
100
AcDbLine
 10
378.0
 20
28.23430648127306
 30
0.0
 11
438.0
 21
28.23430648127306
 31
0.0
  0
LINE
  5
232E
330
2210
100
AcDbEntity
  8
ﾀｲﾄﾙ枠
100
AcDbLine
 10
378.0
 20
45.23430648127305
 30
0.0
 11
438.0
 21
45.23430648127305
 31
0.0
  0
LINE
  5
232F
330
2210
100
AcDbEntity
  8
ﾀｲﾄﾙ枠
100
AcDbLine
 10
378.0
 20
10.23430648127305
 30
0.0
 11
378.0
 21
50.23430648127305
 31
0.0
  0
MTEXT
  5
2330
330
2210
100
AcDbEntity
  8
ﾀｲﾄﾙ枠
370
    30
100
AcDbMText
 10
402.8581436041745
 20
20.69086127879382
 30
0.0
 40
2.0
 41
4.799999999999999
 71
     1
 72
     5
  1
{\fＭＳ Ｐ明朝|b0|i0|c128|p18;図\P\P番}
  7
TYPE1
 73
     1
 44
1.0
1001
ACAD
1000
MTEXTBEGIN
1070
    73
1070
     1
1070
    44
1040
1.0
1070
    74
1070
     0
1000
MTEXTEND
  0
LINE
  5
2331
330
2210
100
AcDbEntity
  8
ﾀｲﾄﾙ枠
100
AcDbLine
 10
402.0
 20
10.23430648127305
 30
0.0
 11
402.0
 21
22.23430648127306
 31
0.0
  0
TEXT
  5
2332
330
2210
100
AcDbEntity
  8
0
100
AcDbText
 10
397.0
 20
23.73430648127305
 30
0.0
 40
3.0
  1
2001
  7
MSP明朝W1
 11
397.0
 21
25.23430648127305
 31
0.0
100
AcDbText
 73
     2
  0
TEXT
  5
2333
330
2210
100
AcDbEntity
  8
0
100
AcDbText
 10
381.0
 20
23.73430648127305
 30
0.0
 40
3.0
  1
作成日　　　　　年　　月　　日
  7
MSP明朝W1
 11
381.0
 21
25.23430648127305
 31
0.0
100
AcDbText
 73
     2
  0
MTEXT
  5
2334
330
2210
100
AcDbEntity
  8
ﾀｲﾄﾙ枠
 62
     7
100
AcDbMText
 10
391.507132442457
 20
49.45639605900431
 30
0.0
 40
2.5
 41
12.0
 71
     1
 72
     5
  1
{\fＭＳ Ｐ明朝|b0|i0|c128|p18;検　図}
 73
     1
 44
1.0
1001
ACAD
1000
MTEXTBEGIN
1070
    73
1070
     1
1070
    44
1040
1.0
1070
    74
1070
     0
1000
MTEXTEND
  0
LINE
  5
2335
330
2210
100
AcDbEntity
  8
ﾀｲﾄﾙ枠
100
AcDbLine
 10
378.0
 20
16.23430648127305
 30
0.0
 11
402.0
 21
16.23430648127305
 31
0.0
  0
TEXT
  5
2336
330
2210
100
AcDbEntity
  8
0
100
AcDbText
 10
393.9101123595505
 20
42.48711547003707
 30
0.0
 40
4.0
  1
富井
 50
270.0
  7
明朝TATE
 72
     4
 11
396.0
 21
36.73430648127303
 31
0.0
100
AcDbText
  0
LINE
  5
2337
330
2210
100
AcDbEntity
  8
ﾀｲﾄﾙ枠
100
AcDbLine
 10
390.0
 20
28.23430648127306
 30
0.0
 11
390.0
 21
50.23430648127305
 31
0.0
  0
MTEXT
  5
2338
330
2210
100
AcDbEntity
  8
ﾀｲﾄﾙ枠
 62
     7
100
AcDbMText
 10
379.8879175140975
 20
49.37683685107971
 30
0.0
 40
2.5
 41
12.0
 71
     1
 72
     5
  1
{\fＭＳ Ｐ明朝|b0|i0|c128|p18;承　認}
 73
     1
 44
1.0
1001
ACAD
1000
MTEXTBEGIN
1070
    73
1070
     1
1070
    44
1040
1.0
1070
    74
1070
     0
1000
MTEXTEND
  0
TEXT
  5
2339
330
2210
100
AcDbEntity
  8
0
100
AcDbText
 10
417.8876404494381
 20
42.48711547003707
 30
0.0
 40
4.0
  1
鍵山
 50
270.0
  7
明朝TATE
 72
     4
 11
420.0
 21
36.73430648127303
 31
0.0
100
AcDbText
  0
LINE
  5
233A
330
2210
100
AcDbEntity
  8
ﾀｲﾄﾙ枠
100
AcDbLine
 10
426.0
 20
28.23430648127306
 30
0.0
 11
426.0
 21
50.23430648127305
 31
0.0
  0
LINE
  5
233B
330
2210
100
AcDbEntity
  8
ﾀｲﾄﾙ枠
100
AcDbLine
 10
414.0
 20
28.23430648127306
 30
0.0
 11
414.0
 21
50.23430648127305
 31
0.0
  0
LINE
  5
233C
330
2210
100
AcDbEntity
  8
ﾀｲﾄﾙ枠
100
AcDbLine
 10
402.0
 20
28.23430648127306
 30
0.0
 11
402.0
 21
50.23430648127305
 31
0.0
  0
TEXT
  5
233D
330
2210
100
AcDbEntity
  8
0
100
AcDbText
 10
414.0
 20
23.73430648127305
 30
0.0
 40
3.0
  1
04
  7
MSP明朝W1
 11
414.0
 21
25.23430648127305
 31
0.0
100
AcDbText
 73
     2
  0
TEXT
  5
233E
330
2210
100
AcDbEntity
  8
0
100
AcDbText
 10
424.0
 20
23.73430648127305
 30
0.0
 40
3.0
  1
06
  7
MSP明朝W1
 11
424.0
 21
25.23430648127305
 31
0.0
100
AcDbText
 73
     2
  0
MTEXT
  5
233F
330
2210
100
AcDbEntity
  8
ﾀｲﾄﾙ枠
 62
     7
100
AcDbMText
 10
416.1936457408828
 20
49.4563967183483
 30
0.0
 40
2.5
 41
12.0
 71
     1
 72
     5
  1
{\fＭＳ Ｐ明朝|b0|i0|c128|p18;製　図}
 73
     1
 44
1.0
1001
ACAD
1000
MTEXTBEGIN
1070
    73
1070
     1
1070
    44
1040
1.0
1070
    74
1070
     0
1000
MTEXTEND
  0
MTEXT
  5
2340
330
2210
100
AcDbEntity
  8
ﾀｲﾄﾙ枠
 62
     7
100
AcDbMText
 10
402.9538667992062
 20
49.28165466311215
 30
0.0
 40
2.5
 41
12.0
 71
     1
 72
     5
  1
{\fＭＳ Ｐ明朝|b0|i0|c128|p18;担　当}
 73
     1
 44
1.0
1001
ACAD
1000
MTEXTBEGIN
1070
    73
1070
     1
1070
    44
1040
1.0
1070
    74
1070
     0
1000
MTEXTEND
  0
LINE
  5
2341
330
2210
100
AcDbEntity
  8
ﾀｲﾄﾙ枠
100
AcDbLine
 10
438.0
 20
270.0
 30
0.0
 11
348.0
 21
270.0
 31
0.0
  0
LINE
  5
2342
330
2210
100
AcDbEntity
  8
ﾀｲﾄﾙ枠
100
AcDbLine
 10
438.0
 20
275.0
 30
0.0
 11
348.0
 21
275.0
 31
0.0
  0
LINE
  5
2343
330
2210
100
AcDbEntity
  8
ﾀｲﾄﾙ枠
100
AcDbLine
 10
438.0
 20
280.0
 30
0.0
 11
348.0
 21
280.0
 31
0.0
  0
LINE
  5
2344
330
2210
100
AcDbEntity
  8
ﾀｲﾄﾙ枠
100
AcDbLine
 10
438.0
 20
285.0
 30
0.0
 11
348.0
 21
285.0
 31
0.0
  0
LINE
  5
2345
330
2210
100
AcDbEntity
  8
ﾀｲﾄﾙ枠
100
AcDbLine
 10
438.0
 20
290.0
 30
0.0
 11
348.0
 21
290.0
 31
0.0
  0
TEXT
  5
2346
330
2210
100
AcDbEntity
  8
0
100
AcDbText
 10
360.7106741573033
 20
286.2289325842696
 30
0.0
 40
2.5
  1
日　付
  7
MSP明朝W1
 72
     4
 11
365.5
 21
287.5
 31
0.0
100
AcDbText
  0
LINE
  5
2347
330
2210
100
AcDbEntity
  8
ﾀｲﾄﾙ枠
100
AcDbLine
 10
348.0
 20
270.0
 30
0.0
 11
348.0
 21
290.0
 31
0.0
  0
LINE
  5
2348
330
2210
100
AcDbEntity
  8
ﾀｲﾄﾙ枠
100
AcDbLine
 10
358.0
 20
270.0
 30
0.0
 11
358.0
 21
290.0
 31
0.0
  0
TEXT
  5
2349
330
2210
100
AcDbEntity
  8
0
100
AcDbText
 10
352.2808988764044
 20
271.2074525992509
 30
0.0
 40
2.0
  1
3
  7
MSP明朝W1
 72
     4
 11
353.0
 21
272.1905986666666
 31
0.0
100
AcDbText
  0
TEXT
  5
234A
330
2210
100
AcDbEntity
  8
0
100
AcDbText
 10
352.2808988764044
 20
276.2186885543071
 30
0.0
 40
2.0
  1
2
  7
MSP明朝W1
 72
     4
 11
353.0
 21
277.1905986666666
 31
0.0
100
AcDbText
  0
LINE
  5
234B
330
2210
100
AcDbEntity
  8
ﾀｲﾄﾙ枠
370
    20
100
AcDbLine
 10
351.0
 20
276.0358979999999
 30
0.0
 11
355.0
 21
276.0358979999999
 31
0.0
  0
LINE
  5
234C
330
2210
100
AcDbEntity
  8
ﾀｲﾄﾙ枠
370
    20
100
AcDbLine
 10
351.0
 20
276.0358979999999
 30
0.0
 11
353.0
 21
279.4999999999999
 31
0.0
  0
LINE
  5
234D
330
2210
100
AcDbEntity
  8
ﾀｲﾄﾙ枠
370
    20
100
AcDbLine
 10
355.0
 20
276.0358979999999
 30
0.0
 11
353.0
 21
279.4999999999999
 31
0.0
  0
LINE
  5
234E
330
2210
100
AcDbEntity
  8
ﾀｲﾄﾙ枠
370
    20
100
AcDbLine
 10
351.0
 20
271.0358979999999
 30
0.0
 11
355.0
 21
271.0358979999999
 31
0.0
  0
LINE
  5
234F
330
2210
100
AcDbEntity
  8
ﾀｲﾄﾙ枠
370
    20
100
AcDbLine
 10
351.0
 20
271.0358979999999
 30
0.0
 11
353.0
 21
274.5
 31
0.0
  0
LINE
  5
2350
330
2210
100
AcDbEntity
  8
ﾀｲﾄﾙ枠
370
    20
100
AcDbLine
 10
355.0
 20
271.0358979999999
 30
0.0
 11
353.0
 21
274.5
 31
0.0
  0
LINE
  5
2351
330
2210
100
AcDbEntity
  8
ﾀｲﾄﾙ枠
100
AcDbLine
 10
362.5
 20
277.4999999999999
 30
0.0
 11
363.5
 21
277.4999999999999
 31
0.0
  0
LINE
  5
2352
330
2210
100
AcDbEntity
  8
ﾀｲﾄﾙ枠
100
AcDbLine
 10
362.5
 20
272.5
 30
0.0
 11
363.5
 21
272.5
 31
0.0
  0
TEXT
  5
2353
330
2210
100
AcDbEntity
  8
0
100
AcDbText
 10
352.2808988764044
 20
281.2130705767789
 30
0.0
 40
2.0
  1
1
  7
MSP明朝W1
 72
     4
 11
353.0
 21
282.1905986666666
 31
0.0
100
AcDbText
  0
TEXT
  5
2354
330
2210
100
AcDbEntity
  8
0
100
AcDbText
 10
351.2022471910112
 20
286.25702247191
 30
0.0
 40
2.5
  1
№
  7
MSP明朝W1
 72
     4
 11
353.0
 21
287.5
 31
0.0
100
AcDbText
  0
LINE
  5
2355
330
2210
100
AcDbEntity
  8
ﾀｲﾄﾙ枠
370
    20
100
AcDbLine
 10
351.0
 20
281.0358979999999
 30
0.0
 11
355.0
 21
281.0358979999999
 31
0.0
  0
LINE
  5
2356
330
2210
100
AcDbEntity
  8
ﾀｲﾄﾙ枠
370
    20
100
AcDbLine
 10
355.0
 20
281.0358979999999
 30
0.0
 11
353.0
 21
284.5
 31
0.0
  0
LINE
  5
2357
330
2210
100
AcDbEntity
  8
ﾀｲﾄﾙ枠
370
    20
100
AcDbLine
 10
351.0
 20
281.0358979999999
 30
0.0
 11
353.0
 21
284.5
 31
0.0
  0
TEXT
  5
2358
330
2210
100
AcDbEntity
  8
0
100
AcDbText
 10
365.3354287158817
 20
282.0220593408239
 30
0.0
 40
2.0
  1
.
  7
MSP明朝W1
 72
     4
 11
365.7736309630727
 21
282.1905986666666
 31
0.0
100
AcDbText
  0
TEXT
  5
2359
330
2210
100
AcDbEntity
  8
0
100
AcDbText
 10
360.4523443278109
 20
282.0220593408239
 30
0.0
 40
2.0
  1
.
  7
MSP明朝W1
 72
     4
 11
360.8905465750019
 21
282.1905986666666
 31
0.0
100
AcDbText
  0
LINE
  5
235A
330
2210
100
AcDbEntity
  8
ﾀｲﾄﾙ枠
100
AcDbLine
 10
362.5
 20
282.5
 30
0.0
 11
363.5
 21
282.5
 31
0.0
  0
TEXT
  5
235B
330
2210
100
AcDbEntity
  8
0
100
AcDbText
 10
432.5617977528089
 20
282.3314606741573
 30
0.0
 40
2.0
  1
.
  7
MSP明朝W1
 72
     4
 11
433.0
 21
282.5
 31
0.0
100
AcDbText
  0
TEXT
  5
235C
330
2210
100
AcDbEntity
  8
0
100
AcDbText
 10
429.4044943820224
 20
286.2078651685393
 30
0.0
 40
2.5
  1
担当
  7
MSP明朝W1
 72
     4
 11
433.0
 21
287.5
 31
0.0
100
AcDbText
  0
TEXT
  5
235D
330
2210
100
AcDbEntity
  8
0
100
AcDbText
 10
393.3089887640449
 20
286.2219101123595
 30
0.0
 40
2.5
  1
改訂内容
  7
MSP明朝W1
 72
     4
 11
400.4999999999999
 21
287.5
 31
0.0
100
AcDbText
  0
LINE
  5
235E
330
2210
100
AcDbEntity
  8
ﾀｲﾄﾙ枠
100
AcDbLine
 10
373.0
 20
270.0
 30
0.0
 11
373.0
 21
290.0
 31
0.0
  0
LINE
  5
235F
330
2210
100
AcDbEntity
  8
ﾀｲﾄﾙ枠
100
AcDbLine
 10
373.0
 20
270.0
 30
0.0
 11
373.0
 21
290.0
 31
0.0
  0
LINE
  5
2360
330
2210
100
AcDbEntity
  8
ﾀｲﾄﾙ枠
100
AcDbLine
 10
367.5
 20
277.4999999999999
 30
0.0
 11
368.5
 21
277.4999999999999
 31
0.0
  0
LINE
  5
2361
330
2210
100
AcDbEntity
  8
ﾀｲﾄﾙ枠
100
AcDbLine
 10
367.5
 20
272.5
 30
0.0
 11
368.5
 21
272.5
 31
0.0
  0
TEXT
  5
2362
330
2210
100
AcDbEntity
  8
0
100
AcDbText
 10
370.0568212265226
 20
282.0220593408239
 30
0.0
 40
2.0
  1
.
  7
MSP明朝W1
 72
     4
 11
370.4950234737136
 21
282.1905986666666
 31
0.0
100
AcDbText
  0
LINE
  5
2363
330
2210
100
AcDbEntity
  8
ﾀｲﾄﾙ枠
100
AcDbLine
 10
367.5
 20
282.5
 30
0.0
 11
368.5
 21
282.5
 31
0.0
  0
LINE
  5
2364
330
2210
100
AcDbEntity
  8
ﾀｲﾄﾙ枠
100
AcDbLine
 10
428.0
 20
270.0
 30
0.0
 11
428.0
 21
290.0
 31
0.0
  0
ENDBLK
  5
2366
330
2210
100
AcDbEntity
  8
0
100
AcDbBlockEnd
  0
ENDSEC
  0
SECTION
  2
ENTITIES
  0
MTEXT
  5
1422
330
18
100
AcDbEntity
  8
0
 62
     3
100
AcDbMText
 10
2255.387085609579
 20
2104.565198799706
 30
0.0
 40
2.5
 41
0.0
 71
     6
 72
     1
  1
 
  7
TYPE1
 73
     1
 44
1.0
  0
MTEXT
  5
1426
330
18
100
AcDbEntity
  8
0
 62
     3
100
AcDbMText
 10
2283.286084648451
 20
2105.815198799706
 30
0.0
 40
2.5
 41
0.0
 71
     4
 72
     1
  1
 
  7
TYPE1
 73
     1
 44
1.0
  0
LINE
  5
1B55
330
18
100
AcDbEntity
  8
0
100
AcDbLine
 10
1440.997031746142
 20
3577.383094469913
 30
0.0
 11
2830.644269942041
 21
3577.383094469913
 31
0.0
  0
LINE
  5
1B56
330
18
100
AcDbEntity
  8
0
100
AcDbLine
 10
4240.997031746142
 20
2927.383094469913
 30
0.0
 11
2847.330555663776
 21
2927.383094469913
 31
0.0
  0
LINE
  5
1B57
330
18
100
AcDbEntity
  8
0
100
AcDbLine
 10
1440.997031746142
 20
2927.383094469913
 30
0.0
 11
1440.997031746142
 21
3577.383094469913
 31
0.0
  0
LINE
  5
1B58
330
18
100
AcDbEntity
  8
0
100
AcDbLine
 10
1440.997031746142
 20
3562.383094469913
 30
0.0
 11
2826.625032055574
 21
3562.383094469913
 31
0.0
  0
LINE
  5
1B59
330
18
100
AcDbEntity
  8
0
100
AcDbLine
 10
1440.997031746142
 20
3554.383094469914
 30
0.0
 11
2824.481438516125
 21
3554.383094469914
 31
0.0
  0
LINE
  5
1B5A
330
18
100
AcDbEntity
  8
0
100
AcDbLine
 10
4240.997031746142
 20
3577.383094469913
 30
0.0
 11
4240.997031746142
 21
2927.383094469913
 31
0.0
  0
LINE
  5
1B5B
330
18
100
AcDbEntity
  8
0
 62
     3
100
AcDbLine
 10
2816.442962743192
 20
3524.383094469913
 30
0.0
 11
2838.682745714974
 21
3607.383094469913
 31
0.0
  0
LINE
  5
1B5C
330
18
100
AcDbEntity
  8
0
 62
     3
100
AcDbLine
 10
2837.148486351393
 20
3524.383094469913
 30
0.0
 11
2859.388269323176
 21
3607.383094469913
 31
0.0
  0
LINE
  5
1B5D
330
18
100
AcDbEntity
  8
0
100
AcDbLine
 10
2851.349793550243
 20
3577.383094469913
 30
0.0
 11
4240.997031746142
 21
3577.383094469913
 31
0.0
  0
LINE
  5
1B5E
330
18
100
AcDbEntity
  8
0
100
AcDbLine
 10
2847.330555663776
 20
3562.383094469913
 30
0.0
 11
4240.997031746142
 21
3562.383094469913
 31
0.0
  0
LINE
  5
1B5F
330
18
100
AcDbEntity
  8
0
100
AcDbLine
 10
2845.186962124327
 20
3554.383094469914
 30
0.0
 11
4240.997031746142
 21
3554.383094469914
 31
0.0
  0
LINE
  5
1B60
330
18
100
AcDbEntity
  8
0
 62
     3
100
AcDbLine
 10
2816.442962743192
 20
2889.383094469913
 30
0.0
 11
2838.682745714974
 21
2972.383094469913
 31
0.0
  0
LINE
  5
1B61
330
18
100
AcDbEntity
  8
0
 62
     3
100
AcDbLine
 10
2837.148486351393
 20
2889.383094469913
 30
0.0
 11
2859.388269323176
 21
2972.383094469913
 31
0.0
  0
LINE
  5
1B62
330
18
100
AcDbEntity
  8
0
100
AcDbLine
 10
2826.625032055574
 20
2927.383094469913
 30
0.0
 11
1440.997031746142
 21
2927.383094469913
 31
0.0
  0
LINE
  5
1B63
330
18
100
AcDbEntity
  8
0
100
AcDbLine
 10
4365.301693312036
 20
3577.383094469914
 30
0.0
 11
4371.301693312036
 21
3577.383094469914
 31
0.0
  0
LINE
  5
1B64
330
18
100
AcDbEntity
  8
0
 62
     3
100
AcDbLine
 10
2411.474048640541
 20
2100.565198799706
 30
0.0
 11
2408.476489968498
 21
2083.565198799706
 31
0.0
  0
LINE
  5
1B65
330
18
100
AcDbEntity
  8
0
 62
     3
100
AcDbLine
 10
2407.412342192999
 20
2100.565198799706
 30
0.0
 11
2404.414783520955
 21
2083.565198799706
 31
0.0
  0
MTEXT
  5
1B66
330
18
100
AcDbEntity
  8
0
 62
     3
100
AcDbMText
 10
2255.387085609579
 20
2104.565198799706
 30
0.0
 40
2.5
 41
0.0
 71
     6
 72
     1
  1
 
  7
TYPE1
 73
     1
 44
1.0
  0
MTEXT
  5
1B67
330
18
100
AcDbEntity
  8
0
 62
     3
100
AcDbMText
 10
2283.286084648451
 20
2105.815198799706
 30
0.0
 40
2.5
 41
0.0
 71
     4
 72
     1
  1
 
  7
TYPE1
 73
     1
 44
1.0
  0
DIMENSION
  5
1B68
330
18
100
AcDbEntity
  8
0
100
AcDbDimension
  2
*D1
 10
1360.997031746142
 20
2927.383094469913
 30
0.0
 11
1338.497031746142
 21
3252.383094469913
 31
0.0
 70
    32
 71
     5
 42
-1.0
  3
MSP明朝寸法1
100
AcDbAlignedDimension
 13
1440.997031746142
 23
3577.383094469913
 33
0.0
 14
1440.997031746142
 24
2927.383094469913
 34
0.0
 50
90.0
100
AcDbRotatedDimension
1001
ACAD
1000
DSTYLE
1002
{
1070
    40
1040
10.0
1002
}
  0
DIMENSION
  5
1B69
330
18
100
AcDbEntity
  8
0
100
AcDbDimension
  2
*D2
 10
4240.997031746142
 20
2777.383094469913
 30
0.0
 11
2840.997031746142
 21
2799.883094469914
 31
0.0
 70
    32
  1
3600
 71
     5
 42
-1.0
  3
MSP明朝寸法1
100
AcDbAlignedDimension
 13
1440.997031746142
 23
2927.383094469913
 33
0.0
 14
4240.997031746142
 24
2927.383094469913
 34
0.0
100
AcDbRotatedDimension
1001
ACAD
1000
DSTYLE
1002
{
1070
    40
1040
10.0
1002
}
  0
LINE
  5
1B6A
330
18
100
AcDbEntity
  8
sen-h
100
AcDbLine
 10
2828.232727210161
 20
2933.383094469913
 30
0.0
 11
1440.997031746142
 21
2933.383094469913
 31
0.0
  0
LINE
  5
1B6B
330
18
100
AcDbEntity
  8
sen-h
100
AcDbLine
 10
4240.997031746142
 20
2933.383094469913
 30
0.0
 11
2848.938250818362
 21
2933.383094469913
 31
0.0
  0
LINE
  5
1B6C
330
18
100
AcDbEntity
  8
0
100
AcDbLine
 10
4421.301693312036
 20
2937.383094469914
 30
0.0
 11
4421.301693312036
 21
3553.383094469913
 31
0.0
  0
LINE
  5
1B6D
330
18
100
AcDbEntity
  8
0
100
AcDbLine
 10
4425.301693312036
 20
2933.383094469914
 30
0.0
 11
4455.301693312036
 21
2933.383094469914
 31
0.0
  0
LINE
  5
1B6E
330
18
100
AcDbEntity
  8
0
100
AcDbLine
 10
4415.301693312036
 20
2947.256077816124
 30
0.0
 11
4415.301693312036
 21
3552.41154579687
 31
0.0
  0
LINE
  5
1B6F
330
18
100
AcDbEntity
  8
0
100
AcDbLine
 10
4423.301693312036
 20
2927.383094469913
 30
0.0
 11
4456.301693312036
 21
2927.383094469913
 31
0.0
  0
LINE
  5
1B70
330
18
100
AcDbEntity
  8
0
100
AcDbLine
 10
4456.301693312036
 20
2927.383094469913
 30
0.0
 11
4456.301693312036
 21
2932.383094469914
 31
0.0
  0
ARC
  5
1B71
330
18
100
AcDbEntity
  8
0
100
AcDbCircle
 10
4423.301693312036
 20
2936.383094469914
 30
0.0
 40
9.0
100
AcDbArc
 50
180.0000000000029
 51
270.0000000000029
  0
LINE
  5
1B72
330
18
100
AcDbEntity
  8
0
100
AcDbLine
 10
4414.301693312036
 20
2936.383094469913
 30
0.0
 11
4414.301693312036
 21
2943.383094469913
 31
0.0
  0
ARC
  5
1B73
330
18
100
AcDbEntity
  8
0
100
AcDbCircle
 10
4425.301693312036
 20
2937.383094469914
 30
0.0
 40
4.0
100
AcDbArc
 50
180.0
 51
270.0
  0
ARC
  5
1B74
330
18
100
AcDbEntity
  8
0
100
AcDbCircle
 10
4455.301693312036
 20
2932.383094469914
 30
0.0
 40
1.0
100
AcDbArc
 50
0.0
 51
90.0
  0
ARC
  5
1B75
330
18
100
AcDbEntity
  8
0
100
AcDbCircle
 10
4411.301693312036
 20
2947.256077816122
 30
0.0
 40
4.0
100
AcDbArc
 50
331.044975628132
 51
0.0
  0
ARC
  5
1B76
330
18
100
AcDbEntity
  8
0
100
AcDbCircle
 10
4418.301693312036
 20
2943.383094469914
 30
0.0
 40
4.0
100
AcDbArc
 50
151.044975628132
 51
180.0
  0
LINE
  5
1B77
330
18
100
AcDbEntity
  8
0
100
AcDbLine
 10
4371.092296331822
 20
3561.680882156641
 30
0.0
 11
4407.580889285656
 21
3560.406672413022
 31
0.0
  0
LINE
  5
1B78
330
18
100
AcDbEntity
  8
0
100
AcDbLine
 10
4365.301693312036
 20
3567.677227118756
 30
0.0
 11
4365.301693312036
 21
3577.383094469913
 31
0.0
  0
LINE
  5
1B79
330
18
100
AcDbEntity
  8
0
100
AcDbLine
 10
4371.301693312036
 20
3568.383094469913
 30
0.0
 11
4371.301693312036
 21
3577.383094469913
 31
0.0
  0
LINE
  5
1B7A
330
18
100
AcDbEntity
  8
0
100
AcDbLine
 10
4374.301693312037
 20
3565.383094469913
 30
0.0
 11
4409.301693312036
 21
3565.383094469913
 31
0.0
  0
ARC
  5
1B7B
330
18
100
AcDbEntity
  8
0
100
AcDbCircle
 10
4374.301693312037
 20
3568.383094469913
 30
0.0
 40
3.0
100
AcDbArc
 50
180.0
 51
270.0
  0
ARC
  5
1B7C
330
18
100
AcDbEntity
  8
0
100
AcDbCircle
 10
4371.301693312036
 20
3567.677227118756
 30
0.0
 40
6.0
100
AcDbArc
 50
180.0
 51
268.0
  0
ARC
  5
1B7D
330
18
100
AcDbEntity
  8
0
100
AcDbCircle
 10
4407.301693312036
 20
3552.41154579687
 30
0.0
 40
8.0
100
AcDbArc
 50
0.0
 51
87.99999999999977
  0
ARC
  5
1B7E
330
18
100
AcDbEntity
  8
0
100
AcDbCircle
 10
4409.301693312036
 20
3553.383094469914
 30
0.0
 40
12.0
100
AcDbArc
 50
0.0
 51
90.0
  0
ARC
  5
1B7F
330
18
100
AcDbEntity
  8
0
100
AcDbCircle
 10
2530.472867407704
 20
2103.565198799706
 30
0.0
 40
8.0
100
AcDbArc
 50
270.0
 51
357.9999999999997
  0
ARC
  5
1B80
330
18
100
AcDbEntity
  8
0
100
AcDbCircle
 10
2531.444416080748
 20
2101.565198799706
 30
0.0
 40
12.0
100
AcDbArc
 50
270.0
 51
0.0
  0
ARC
  5
1B81
330
18
100
AcDbEntity
  8
0
100
AcDbCircle
 10
2269.444416080748
 20
2087.565198799707
 30
0.0
 40
9.0
100
AcDbArc
 50
90.00000000000291
 51
180.0000000000029
  0
ARC
  5
1B82
330
18
100
AcDbEntity
  8
0
100
AcDbCircle
 10
2546.444416080748
 20
2136.565198799706
 30
0.0
 40
3.0
100
AcDbArc
 50
89.99999999999998
 51
180.0
  0
LINE
  5
1B83
330
18
100
AcDbEntity
  8
0
100
AcDbLine
 10
2539.742203767475
 20
2139.77459577992
 30
0.0
 11
2538.467994023857
 21
2103.286002826085
 31
0.0
  0
LINE
  5
1B84
330
18
100
AcDbEntity
  8
0
100
AcDbLine
 10
2555.444416080748
 20
2145.565198799706
 30
0.0
 11
2555.444416080748
 21
2139.565198799706
 31
0.0
  0
LINE
  5
1B85
330
18
100
AcDbEntity
  8
0
100
AcDbLine
 10
2546.444416080747
 20
2139.565198799706
 30
0.0
 11
2555.444416080747
 21
2139.565198799706
 31
0.0
  0
LINE
  5
1B86
330
18
100
AcDbEntity
  8
0
100
AcDbLine
 10
2545.73854872959
 20
2145.565198799706
 30
0.0
 11
2555.444416080747
 21
2145.565198799706
 31
0.0
  0
ARC
  5
1B87
330
18
100
AcDbEntity
  8
0
100
AcDbCircle
 10
2545.73854872959
 20
2139.565198799706
 30
0.0
 40
6.0
100
AcDbArc
 50
89.99999999999998
 51
178.0
  0
LINE
  5
1B88
330
18
100
AcDbEntity
  8
0
100
AcDbLine
 10
2543.444416080747
 20
2136.565198799706
 30
0.0
 11
2543.444416080747
 21
2101.565198799706
 31
0.0
  0
LINE
  5
1B89
330
18
100
AcDbEntity
  8
0
100
AcDbLine
 10
2280.317399426958
 20
2095.565198799706
 30
0.0
 11
2406.530707289456
 21
2095.565198799706
 31
0.0
  0
LINE
  5
1B8A
330
18
100
AcDbEntity
  8
0
100
AcDbLine
 10
2270.444416080748
 20
2089.565198799706
 30
0.0
 11
2405.472745405206
 21
2089.565198799706
 31
0.0
  0
LINE
  5
1B8B
330
18
100
AcDbEntity
  8
0
100
AcDbLine
 10
2260.444416080748
 20
2087.565198799706
 30
0.0
 11
2260.444416080747
 21
2055.565198799706
 31
0.0
  0
LINE
  5
1B8C
330
18
100
AcDbEntity
  8
0
100
AcDbLine
 10
2266.444416080748
 20
2085.565198799706
 30
0.0
 11
2266.444416080748
 21
2055.565198799706
 31
0.0
  0
LINE
  5
1B8D
330
18
100
AcDbEntity
  8
0
100
AcDbLine
 10
2269.444416080748
 20
2096.565198799706
 30
0.0
 11
2276.444416080748
 21
2096.565198799706
 31
0.0
  0
ARC
  5
1B8E
330
18
100
AcDbEntity
  8
0
100
AcDbCircle
 10
2270.444416080749
 20
2085.565198799706
 30
0.0
 40
4.0
100
AcDbArc
 50
89.99999999999998
 51
180.0
  0
ARC
  5
1B8F
330
18
100
AcDbEntity
  8
0
100
AcDbCircle
 10
2276.444416080749
 20
2092.565198799707
 30
0.0
 40
4.0
100
AcDbArc
 50
61.04497562813203
 51
89.99999999999998
  0
ARC
  5
1B90
330
18
100
AcDbEntity
  8
0
100
AcDbCircle
 10
2280.317399426957
 20
2099.565198799706
 30
0.0
 40
4.0
100
AcDbArc
 50
241.044975628132
 51
270.0
  0
LINE
  5
1B91
330
18
100
AcDbEntity
  8
0
100
AcDbLine
 10
2261.444416080748
 20
2054.565198799706
 30
0.0
 11
2265.444416080748
 21
2054.565198799706
 31
0.0
  0
ARC
  5
1B92
330
18
100
AcDbEntity
  8
0
100
AcDbCircle
 10
2265.444416080748
 20
2055.565198799706
 30
0.0
 40
1.0
100
AcDbArc
 50
270.0
 51
0.0
  0
LINE
  5
1B93
330
18
100
AcDbEntity
  8
0
100
AcDbLine
 10
2410.592413736999
 20
2095.565198799706
 30
0.0
 11
2530.472867407706
 21
2095.565198799706
 31
0.0
  0
LINE
  5
1B94
330
18
100
AcDbEntity
  8
0
100
AcDbLine
 10
2409.534451852749
 20
2089.565198799706
 30
0.0
 11
2531.44441608075
 21
2089.565198799706
 31
0.0
  0
DIMENSION
  5
1B95
330
18
100
AcDbEntity
  8
0
100
AcDbDimension
  2
*D3
 10
2252.444416080748
 20
2054.565198799706
 30
0.0
 11
2250.194416080748
 21
2075.565198799706
 31
0.0
 70
    32
 71
     5
 42
-1.0
  3
MSP明朝寸法1
100
AcDbAlignedDimension
 13
2269.444416080748
 23
2096.565198799706
 33
0.0
 14
2260.444416080748
 24
2054.565198799706
 34
0.0
 50
90.0
100
AcDbRotatedDimension
1001
ACAD
1000
DSTYLE
1002
{
1070
   141
1040
0.0
1002
}
  0
DIMENSION
  5
1B96
330
18
100
AcDbEntity
  8
0
100
AcDbDimension
  2
*D4
 10
2266.444416080748
 20
2046.565198799706
 30
0.0
 11
2263.444416080748
 21
2048.815198799706
 31
0.0
 70
    32
 71
     5
 42
-1.0
  3
MSP明朝寸法1
100
AcDbAlignedDimension
 13
2260.444416080748
 23
2054.565198799706
 33
0.0
 14
2266.444416080748
 24
2055.565198799706
 34
0.0
100
AcDbRotatedDimension
1001
ACAD
1000
DSTYLE
1002
{
1070
   141
1040
0.0
1002
}
  0
DIMENSION
  5
1B97
330
18
100
AcDbEntity
  8
0
100
AcDbDimension
  2
*D5
 10
2276.444416080749
 20
2103.565198799706
 30
0.0
 11
2268.444416080748
 21
2105.815198799706
 31
0.0
 70
    32
 71
     5
 42
-1.0
  3
MSP明朝寸法1
100
AcDbAlignedDimension
 13
2260.444416080748
 23
2087.565198799705
 33
0.0
 14
2276.444416080749
 24
2096.565198799706
 34
0.0
100
AcDbRotatedDimension
1001
ACAD
1000
DSTYLE
1002
{
1070
   141
1040
0.0
1002
}
  0
DIMENSION
  5
1B99
330
18
100
AcDbEntity
  8
0
100
AcDbDimension
  2
*D6
 10
2555.444416080748
 20
2038.565198799706
 30
0.0
 11
2407.944416080748
 21
2040.815198799706
 31
0.0
 70
    32
  1
650
 71
     5
 42
-1.0
  3
MSP明朝寸法1
100
AcDbAlignedDimension
 13
2260.444416080748
 23
2046.565198799706
 33
0.0
 14
2555.444416080748
 24
2139.565198799706
 34
0.0
100
AcDbRotatedDimension
1001
ACAD
1000
DSTYLE
1002
{
1070
   141
1040
0.0
1002
}
  0
DIMENSION
  5
1B9A
330
18
100
AcDbEntity
  8
0
100
AcDbDimension
  2
*D7
 10
2565.444416080748
 20
2139.565198799706
 30
0.0
 11
2563.194416080748
 21
2142.565198799706
 31
0.0
 70
    32
 71
     5
 42
-1.0
  3
MSP明朝寸法1
100
AcDbAlignedDimension
 13
2555.444416080748
 23
2145.565198799706
 33
0.0
 14
2555.444416080748
 24
2139.565198799706
 34
0.0
 50
90.0
100
AcDbRotatedDimension
1001
ACAD
1000
DSTYLE
1002
{
1070
   141
1040
0.0
1002
}
  0
DIMENSION
  5
1B9B
330
18
100
AcDbEntity
  8
0
100
AcDbDimension
  2
*D8
 10
2565.444416080748
 20
2089.565198799706
 30
0.0
 11
2563.194416080748
 21
2114.565198799706
 31
0.0
 70
    32
 71
     5
 42
-1.0
  3
MSP明朝寸法1
100
AcDbAlignedDimension
 13
2565.444416080748
 23
2139.565198799706
 33
0.0
 14
2531.444416080748
 24
2089.565198799706
 34
0.0
 50
90.0
100
AcDbRotatedDimension
1001
ACAD
1000
DSTYLE
1002
{
1070
   141
1040
0.0
1002
}
  0
DIMENSION
  5
1B9C
330
18
100
AcDbEntity
  8
0
100
AcDbDimension
  2
*D9
 10
2573.444416080748
 20
2089.565198799706
 30
0.0
 11
2571.194416080748
 21
2117.565198799706
 31
0.0
 70
    32
 71
     5
 42
-1.0
  3
MSP明朝寸法1
100
AcDbAlignedDimension
 13
2565.444416080748
 23
2145.565198799706
 33
0.0
 14
2565.444416080748
 24
2089.565198799706
 34
0.0
 50
90.0
100
AcDbRotatedDimension
1001
ACAD
1000
DSTYLE
1002
{
1070
   141
1040
0.0
1002
}
  0
DIMENSION
  5
1B9D
330
18
100
AcDbEntity
  8
0
100
AcDbDimension
  2
*D10
 10
2510.190896139436
 20
2095.565198799706
 30
0.0
 11
2507.940896139436
 21
2120.565198799706
 31
0.0
 70
    32
 71
     5
 42
-1.0
  3
MSP明朝寸法1
100
AcDbAlignedDimension
 13
2545.73854872959
 23
2145.565198799706
 33
0.0
 14
2510.190896139436
 24
2095.565198799706
 34
0.0
 50
90.0
100
AcDbRotatedDimension
1001
ACAD
1000
DSTYLE
1002
{
1070
   141
1040
0.0
1002
}
  0
DIMENSION
  5
1B9E
330
18
100
AcDbEntity
  8
0
100
AcDbDimension
  2
*D11
 10
2510.190896139436
 20
2089.565198799706
 30
0.0
 11
2507.940896139436
 21
2092.565198799706
 31
0.0
 70
    32
 71
     5
 42
-1.0
  3
MSP明朝寸法1
100
AcDbAlignedDimension
 13
2510.190896139436
 23
2095.565198799706
 33
0.0
 14
2510.190896139436
 24
2089.565198799706
 34
0.0
 50
90.0
100
AcDbRotatedDimension
1001
ACAD
1000
DSTYLE
1002
{
1070
   141
1040
0.0
1002
}
  0
DIMENSION
  5
1BA0
330
18
100
AcDbEntity
  8
0
100
AcDbDimension
  2
*D12
 10
2555.444416080748
 20
2119.08812835689
 30
0.0
 11
2549.444416080747
 21
2121.338128356891
 31
0.0
 70
    32
 71
     5
 42
-1.0
  3
MSP明朝寸法1
100
AcDbAlignedDimension
 13
2543.444416080747
 23
2119.08812835689
 33
0.0
 14
2555.444416080748
 24
2119.08812835689
 34
0.0
100
AcDbRotatedDimension
1001
ACAD
1000
DSTYLE
1002
{
1070
   141
1040
0.0
1002
}
  0
DIMENSION
  5
1BA4
330
18
100
AcDbEntity
  8
0
 62
     3
100
AcDbDimension
  2
*D13
 10
2573.444416080748
 20
2054.565198799706
 30
0.0
 11
2571.194416080748
 21
2072.065198799706
 31
0.0
 70
    32
 71
     5
 42
-1.0
  3
MSP明朝寸法1
100
AcDbAlignedDimension
 13
2573.444416080748
 23
2089.565198799706
 33
0.0
 14
2265.444416080748
 24
2054.565198799706
 34
0.0
 50
90.0
100
AcDbRotatedDimension
1001
ACAD
1000
DSTYLE
1002
{
1070
   141
1040
0.0
1002
}
  0
DIMENSION
  5
1BA5
330
18
100
AcDbEntity
  8
0
 62
     3
100
AcDbDimension
  2
*D14
 10
2581.444416080748
 20
2054.565198799706
 30
0.0
 11
2579.194416080748
 21
2100.065198799706
 31
0.0
 70
    32
 71
     5
 42
-1.0
  3
MSP明朝寸法1
100
AcDbAlignedDimension
 13
2573.444416080748
 23
2145.565198799706
 33
0.0
 14
2573.444416080748
 24
2054.565198799706
 34
0.0
 50
90.0
100
AcDbRotatedDimension
1001
ACAD
1000
DSTYLE
1002
{
1070
   141
1040
0.0
1002
}
  0
LINE
  5
1BA6
330
18
100
AcDbEntity
  8
0
100
AcDbLine
 10
2260.444416080747
 20
2055.565198799706
 30
0.0
 11
2261.444416080748
 21
2054.565198799706
 31
0.0
  0
MTEXT
  5
1BAB
330
18
100
AcDbEntity
  8
0
 62
     3
100
AcDbMText
 10
2289.603684719001
 20
2105.815198799706
 30
0.0
 40
2.5
 41
0.0
 71
     4
 72
     1
  1
 
  7
TYPE1
 73
     1
 44
1.0
  0
DIMENSION
  5
1BAC
330
18
100
AcDbEntity
  8
0
100
AcDbDimension
  2
*D15
 10
2298.058514515162
 20
2096.565198799706
 30
0.0
 11
2295.808514515162
 21
2102.074975336019
 31
0.0
 70
    32
 71
     5
 42
-1.0
  3
MSP明朝寸法1
100
AcDbAlignedDimension
 13
2280.317399426958
 23
2095.565198799706
 33
0.0
 14
2276.444416080749
 24
2096.565198799706
 34
0.0
 50
90.0
100
AcDbRotatedDimension
1001
ACAD
1000
DSTYLE
1002
{
1070
   141
1040
0.0
1002
}
  0
DIMENSION
  5
1BAD
330
18
100
AcDbEntity
  8
0
100
AcDbDimension
  2
*D16
 10
2555.444416080748
 20
2153.565198799706
 30
0.0
 11
2547.694416080748
 21
2155.815198799706
 31
0.0
 70
    32
 71
     5
 42
15.50000000000091
  3
MSP明朝寸法1
100
AcDbAlignedDimension
 13
2539.944416080747
 23
2143.702727010093
 33
0.0
 14
2555.444416080748
 24
2145.565198799706
 34
0.0
100
AcDbRotatedDimension
1001
ACAD
1000
DSTYLE
1002
{
1070
   141
1040
0.0
1002
}
  0
VIEWPORT
  5
47
330
15
100
AcDbEntity
 67
     1
  8
0
100
AcDbViewport
 10
290.6282176723141
 20
144.1797271149871
 30
0.0
 40
674.0235810763456
 41
301.0062573610175
 68
     1
 69
     1
 12
290.6282176723141
 22
144.1797271149871
 13
0.0
 23
0.0
 14
5.0
 24
5.0
 15
5.0
 25
5.0
 16
0.0
 26
0.0
 36
1.0
 17
0.0
 27
0.0
 37
0.0
 42
50.0
 43
0.0
 44
0.0
 45
301.0062573610175
 50
0.0
 51
0.0
 72
   100
 90
    32800
  1

281
     0
 71
     1
 74
     0
110
0.0
120
0.0
130
0.0
111
1.0
121
0.0
131
0.0
112
0.0
122
1.0
132
0.0
 79
     0
146
0.0
  0
TEXT
  5
638
330
15
100
AcDbEntity
 67
     1
  8
ﾃｷｽﾄ
  6
Continuous
 62
     3
100
AcDbText
 10
258.35400390625
 20
22.69371541341133
 30
0.0
 40
5.0468565623
  1
   
 41
0.6466754489000001
  7
BIGFONT
100
AcDbText
  0
TEXT
  5
649
330
15
100
AcDbEntity
 67
     1
  8
ﾃｷｽﾄ
 62
     3
100
AcDbText
 10
1047.0
 20
69.0
 30
0.0
 40
9.0
  1
 
100
AcDbText
  0
TEXT
  5
652
330
15
100
AcDbEntity
 67
     1
  8
ﾃｷｽﾄ
 62
     3
100
AcDbText
 10
1141.800048828125
 20
111.0
 30
0.0
 40
15.0
  1
 
 41
1.6
100
AcDbText
  0
TEXT
  5
653
330
15
100
AcDbEntity
 67
     1
  8
ﾃｷｽﾄ
 62
     3
100
AcDbText
 10
1141.800048828125
 20
87.0
 30
0.0
 40
15.0
  1
 
 41
1.6
100
AcDbText
  0
TEXT
  5
654
330
15
100
AcDbEntity
 67
     1
  8
ﾃｷｽﾄ
 62
     3
100
AcDbText
 10
774.0
 20
69.0
 30
0.0
 40
15.0
  1
 
 41
0.8
100
AcDbText
  0
TEXT
  5
655
330
15
100
AcDbEntity
 67
     1
  8
ﾃｷｽﾄ
 62
     3
100
AcDbText
 10
957.0
 20
69.0
 30
0.0
 40
15.0
  1
 
 41
0.8
100
AcDbText
  0
TEXT
  5
656
330
15
100
AcDbEntity
 67
     1
  8
ﾃｷｽﾄ
 62
     3
100
AcDbText
 10
957.0
 20
84.0
 30
0.0
 40
15.0
  1
 
 41
0.8
100
AcDbText
  0
TEXT
  5
657
330
15
100
AcDbEntity
 67
     1
  8
ﾃｷｽﾄ
 62
     3
100
AcDbText
 10
774.0
 20
105.0
 30
0.0
 40
15.0
  1
 
 41
0.8
100
AcDbText
  0
TEXT
  5
775
330
15
100
AcDbEntity
 67
     1
  8
ﾃｷｽﾄ
 62
     5
100
AcDbText
 10
258.0
 20
35.0
 30
0.0
 40
5.0
  1
     
 41
0.7
100
AcDbText
  0
MTEXT
  5
BBD
330
15
100
AcDbEntity
 67
     1
  8
0
 62
     3
100
AcDbMText
 10
66.12996829931558
 20
172.495994693367
 30
0.0
 40
3.5
 41
0.0
 71
     1
 72
     5
  1
平面図　Ｓ＝（１／１０）
  7
MSP明朝W1
 73
     1
 44
1.0
  0
LINE
  5
BC3
330
15
100
AcDbEntity
 67
     1
  8
0
 62
     3
100
AcDbLine
 10
66.42630719050408
 20
166.9849107795024
 30
0.0
 11
111.4117339701847
 21
166.9849107795024
 31
0.0
  0
LINE
  5
BC4
330
15
100
AcDbEntity
 67
     1
  8
0
 62
     3
100
AcDbLine
 10
66.42630719050408
 20
166.4849107795024
 30
0.0
 11
111.4117339701847
 21
166.4849107795024
 31
0.0
  0
VIEWPORT
  5
1852
330
15
100
AcDbEntity
 67
     1
  8
VEW枠1
100
AcDbViewport
 10
221.1835130059252
 20
229.1905678477559
 30
0.0
 40
360.0526765205243
 41
103.1094343500303
 68
     2
 69
     2
 12
2915.375875780176
 22
3221.21451382547
 13
0.0
 23
0.0
 14
10.0
 24
10.0
 15
10.0
 25
10.0
 16
0.0
 26
0.0
 36
1.0
 17
0.0
 27
0.0
 37
0.0
 42
50.0
 43
0.0
 44
0.0
 45
1031.094344980982
 50
0.0
 51
0.0
 72
   100
 90
    32800
  1

281
     0
 71
     1
 74
     0
110
1000.0
120
1000.0
130
0.0
111
1.0
121
0.0
131
0.0
112
0.0
122
1.0
132
0.0
 79
     0
146
0.0
  0
MTEXT
  5
1853
330
15
100
AcDbEntity
 67
     1
  8
VEW枠1
100
AcDbMText
 10
44.52215215041292
 20
185.4811339541204
 30
0.0
 40
5.0
 41
0.0
 71
     1
 72
     5
  1
Vew1
  7
MSP明朝1
 73
     1
 44
1.0
  0
VIEWPORT
  5
1855
330
15
100
AcDbEntity
 67
     1
  8
VEW枠2
100
AcDbViewport
 10
221.1835130059252
 20
113.4726430778175
 30
0.0
 40
360.0526765205243
 41
128.3264151898463
 68
     3
 69
     3
 12
2409.302600186462
 22
2099.314200024779
 13
0.0
 23
0.0
 14
10.0
 24
10.0
 15
10.0
 25
10.0
 16
0.0
 26
0.0
 36
1.0
 17
0.0
 27
0.0
 37
0.0
 42
50.0
 43
0.0
 44
0.0
 45
128.3264189413508
 50
0.0
 51
0.0
 72
   100
 90
    32800
  1

281
     0
 71
     1
 74
     0
110
1000.0
120
1000.0
130
0.0
111
1.0
121
0.0
131
0.0
112
0.0
122
1.0
132
0.0
 79
     0
146
0.0
  0
MTEXT
  5
1856
330
15
100
AcDbEntity
 67
     1
  8
VEW枠2
100
AcDbMText
 10
44.52215215041292
 20
57.71509599333535
 30
0.0
 40
5.0
 41
0.0
 71
     1
 72
     5
  1
Vew2
  7
MSP明朝1
 73
     1
 44
1.0
  0
LINE
  5
19B3
330
15
100
AcDbEntity
 67
     1
  8
0
 62
     3
100
AcDbLine
 10
66.42630719050408
 20
38.59670528906542
 30
0.0
 11
108.3869341407369
 21
38.59670528906542
 31
0.0
  0
LINE
  5
19B4
330
15
100
AcDbEntity
 67
     1
  8
0
 62
     3
100
AcDbLine
 10
66.42630719050408
 20
38.09670528906542
 30
0.0
 11
108.3869341407369
 21
38.09670528906542
 31
0.0
  0
MTEXT
  5
19B5
330
15
100
AcDbEntity
 67
     1
  8
0
 62
     3
100
AcDbMText
 10
66.12996829931558
 20
44.10778920293
 30
0.0
 40
3.5
 41
0.0
 71
     1
 72
     5
  1
断面図　Ｓ＝（１／１）
  7
MSP明朝W1
 73
     1
 44
1.0
  0
LINE
  5
2368
330
15
100
AcDbEntity
 67
     1
  8
ﾀｲﾄﾙ枠
  6
Continuous
 62
     5
100
AcDbLine
 10
409.6420813309307
 20
5.973648938110727
 30
0.0
 11
23.64208133093075
 21
5.973648938110727
 31
0.0
  0
LINE
  5
2369
330
15
100
AcDbEntity
 67
     1
  8
ﾀｲﾄﾙ枠
  6
Continuous
 62
     5
100
AcDbLine
 10
23.64208133093075
 20
285.9736489381107
 30
0.0
 11
409.6420813309307
 21
285.9736489381107
 31
0.0
  0
LINE
  5
236A
330
15
100
AcDbEntity
 67
     1
  8
0
 62
     5
100
AcDbLine
 10
23.64208133093075
 20
285.9736489381107
 30
0.0
 11
23.64208133093075
 21
5.973648938110727
 31
0.0
  0
LINE
  5
236B
330
15
100
AcDbEntity
 67
     1
  8
ﾀｲﾄﾙ枠
  6
Continuous
 62
     5
100
AcDbLine
 10
409.6420813309307
 20
285.9736489381107
 30
0.0
 11
409.6420813309307
 21
5.973648938110727
 31
0.0
  0
TEXT
  5
23B9
330
15
100
AcDbEntity
 67
     1
  8
0
100
AcDbText
 10
342.0676882263016
 20
21.90325914133194
 30
0.0
 40
4.0
  1
EK型ｶｳﾝﾀｰ
  7
MSP明朝W1
 72
     4
 11
357.1912837319196
 21
23.91449509638812
 31
0.0
100
AcDbText
  0
LINE
  5
2695
330
15
100
AcDbEntity
 67
     1
  8
ﾀｲﾄﾙ枠
  6
Continuous
370
    40
100
AcDbLine
 10
344.1534172176021
 20
9.433296605055375
 30
0.0
 11
339.1934172176021
 21
9.433296605055375
 31
0.0
  0
LINE
  5
2696
330
15
100
AcDbEntity
 67
     1
  8
ﾀｲﾄﾙ枠
  6
Continuous
370
    40
100
AcDbLine
 10
340.1234172176021
 20
9.583296605055352
 30
0.0
 11
343.2234172176021
 21
9.583296605055352
 31
0.0
  0
LINE
  5
2697
330
15
100
AcDbEntity
 67
     1
  8
ﾀｲﾄﾙ枠
  6
Continuous
370
    40
100
AcDbLine
 10
339.1934172176021
 20
11.4032966050554
 30
0.0
 11
344.1534172176021
 21
11.4032966050554
 31
0.0
  0
LINE
  5
2698
330
15
100
AcDbEntity
 67
     1
  8
ﾀｲﾄﾙ枠
  6
Continuous
370
    40
100
AcDbLine
 10
343.2234172176021
 20
11.25329660505536
 30
0.0
 11
340.1234172176021
 21
11.25329660505536
 31
0.0
  0
LINE
  5
2699
330
15
100
AcDbEntity
 67
     1
  8
ﾀｲﾄﾙ枠
  6
Continuous
370
    40
100
AcDbLine
 10
344.1534172176021
 20
12.29329660505539
 30
0.0
 11
339.1934172176021
 21
12.29329660505539
 31
0.0
  0
LINE
  5
269A
330
15
100
AcDbEntity
 67
     1
  8
ﾀｲﾄﾙ枠
  6
Continuous
370
    40
100
AcDbLine
 10
341.2084172176021
 20
14.5232966050554
 30
0.0
 11
342.1384172176021
 21
14.5232966050554
 31
0.0
  0
LINE
  5
269B
330
15
100
AcDbEntity
 67
     1
  8
ﾀｲﾄﾙ枠
100
AcDbLine
 10
324.6420813309307
 20
17.97364893811072
 30
0.0
 11
409.6420813309307
 21
17.97364893811072
 31
0.0
  0
LINE
  5
269C
330
15
100
AcDbEntity
 67
     1
  8
ﾀｲﾄﾙ枠
100
AcDbLine
 10
324.6420813309307
 20
29.97364893811072
 30
0.0
 11
409.6420813309307
 21
29.97364893811072
 31
0.0
  0
LINE
  5
269D
330
15
100
AcDbEntity
 67
     1
  8
ﾀｲﾄﾙ枠
100
AcDbLine
 10
324.6420813309307
 20
5.973648938110727
 30
0.0
 11
324.6420813309307
 21
29.97364893811072
 31
0.0
  0
LINE
  5
269E
330
15
100
AcDbEntity
 67
     1
  8
ﾀｲﾄﾙ枠
  6
Continuous
370
    40
100
AcDbLine
 10
341.2084172176021
 20
12.44329660505536
 30
0.0
 11
341.2084172176021
 21
13.4632966050554
 31
0.0
  0
LINE
  5
269F
330
15
100
AcDbEntity
 67
     1
  8
ﾀｲﾄﾙ枠
  6
Continuous
370
    40
100
AcDbLine
 10
341.2084172176021
 20
13.61329660505538
 30
0.0
 11
341.2084172176021
 21
14.5232966050554
 31
0.0
  0
LINE
  5
26A0
330
15
100
AcDbEntity
 67
     1
  8
ﾀｲﾄﾙ枠
  6
Continuous
370
    40
100
AcDbLine
 10
341.6734172176021
 20
12.54329660505538
 30
0.0
 11
341.6734172176021
 21
14.2732966050554
 31
0.0
  0
LINE
  5
26A1
330
15
100
AcDbEntity
 67
     1
  8
ﾀｲﾄﾙ枠
  6
Continuous
370
    40
100
AcDbLine
 10
341.4734172176021
 20
12.54329660505538
 30
0.0
 11
341.4734172176021
 21
14.2732966050554
 31
0.0
  0
LINE
  5
26A2
330
15
100
AcDbEntity
 67
     1
  8
ﾀｲﾄﾙ枠
  6
Continuous
370
    40
100
AcDbLine
 10
339.1934172176021
 20
12.29329660505539
 30
0.0
 11
339.1934172176021
 21
12.44329660505536
 31
0.0
  0
LINE
  5
26A3
330
15
100
AcDbEntity
 67
     1
  8
ﾀｲﾄﾙ枠
  6
Continuous
370
    40
100
AcDbLine
 10
338.6734172176021
 20
13.4632966050554
 30
0.0
 11
338.6734172176021
 21
13.61329660505538
 31
0.0
  0
LINE
  5
26A4
330
15
100
AcDbEntity
 67
     1
  8
ﾀｲﾄﾙ枠
  6
Continuous
370
    40
100
AcDbLine
 10
339.1934172176021
 20
9.433296605055375
 30
0.0
 11
339.1934172176021
 21
11.4032966050554
 31
0.0
  0
LINE
  5
26A5
330
15
100
AcDbEntity
 67
     1
  8
ﾀｲﾄﾙ枠
  6
Continuous
370
    40
100
AcDbLine
 10
340.1234172176021
 20
11.25329660505536
 30
0.0
 11
340.1234172176021
 21
9.583296605055352
 31
0.0
  0
LINE
  5
26A6
330
15
100
AcDbEntity
 67
     1
  8
ﾀｲﾄﾙ枠
  6
Continuous
370
    40
100
AcDbLine
 10
339.6584172176021
 20
11.25329660505536
 30
0.0
 11
339.6584172176021
 21
9.583296605055352
 31
0.0
  0
LINE
  5
26A7
330
15
100
AcDbEntity
 67
     1
  8
ﾀｲﾄﾙ枠
  6
Continuous
370
    40
100
AcDbLine
 10
339.8584172176021
 20
11.25329660505536
 30
0.0
 11
339.8584172176021
 21
9.583296605055352
 31
0.0
  0
LINE
  5
26A8
330
15
100
AcDbEntity
 67
     1
  8
ﾀｲﾄﾙ枠
  6
Continuous
370
    40
100
AcDbLine
 10
339.4584172176021
 20
11.25329660505536
 30
0.0
 11
339.4584172176021
 21
9.583296605055352
 31
0.0
  0
LINE
  5
26A9
330
15
100
AcDbEntity
 67
     1
  8
ﾀｲﾄﾙ枠
  6
Continuous
370
    40
100
AcDbLine
 10
339.1934172176021
 20
12.44329660505536
 30
0.0
 11
341.2084172176021
 21
12.44329660505536
 31
0.0
  0
LINE
  5
26AA
330
15
100
AcDbEntity
 67
     1
  8
ﾀｲﾄﾙ枠
  6
Continuous
370
    40
100
AcDbLine
 10
341.2084172176021
 20
13.4632966050554
 30
0.0
 11
338.6734172176021
 21
13.4632966050554
 31
0.0
  0
LINE
  5
26AB
330
15
100
AcDbEntity
 67
     1
  8
ﾀｲﾄﾙ枠
  6
Continuous
370
    40
100
AcDbLine
 10
338.6734172176021
 20
13.61329660505538
 30
0.0
 11
341.2084172176021
 21
13.61329660505538
 31
0.0
  0
MTEXT
  5
26AC
330
15
100
AcDbEntity
 67
     1
  8
ﾀｲﾄﾙ枠
370
    30
100
AcDbMText
 10
326.3377522081452
 20
28.83296956531546
 30
0.0
 40
2.5
 41
11.5
 71
     1
 72
     5
  1
{\fＭＳ Ｐ明朝|b0|i0|c128|p18;製品名}
 73
     1
 44
1.0
1001
ACAD
1000
MTEXTBEGIN
1070
    73
1070
     1
1070
    44
1040
1.0
1070
    74
1070
     0
1000
MTEXTEND
1000
MTEXTBEGIN
1070
    73
1070
     1
1070
    44
1040
1.0
1070
    74
1070
     0
1000
MTEXTEND
  0
TEXT
  5
26AD
330
15
100
AcDbEntity
 67
     1
  8
0
100
AcDbText
 10
387.9368687034322
 20
21.98056100723064
 30
0.0
 40
3.5
  1
1/10, 1/1
  7
MSP明朝W1
 72
     4
 11
398.2795653326456
 21
23.62241493981491
 31
0.0
100
AcDbText
  0
LINE
  5
26AE
330
15
100
AcDbEntity
 67
     1
  8
ﾀｲﾄﾙ枠
  6
Continuous
370
    40
100
AcDbLine
 10
374.5626671005611
 20
9.433296605055375
 30
0.0
 11
374.1247869086135
 21
9.433296605055375
 31
0.0
  0
LINE
  5
26AF
330
15
100
AcDbEntity
 67
     1
  8
ﾀｲﾄﾙ枠
  6
Continuous
370
    40
100
AcDbLine
 10
373.9701671005611
 20
11.01329660505536
 30
0.0
 11
374.5626671005611
 21
9.433296605055375
 31
0.0
  0
LINE
  5
26B0
330
15
100
AcDbEntity
 67
     1
  8
ﾀｲﾄﾙ枠
  6
Continuous
370
    40
100
AcDbLine
 10
359.6734172176021
 20
11.53329660505539
 30
0.0
 11
357.853417217602
 21
11.53329660505539
 31
0.0
  0
LINE
  5
26B1
330
15
100
AcDbEntity
 67
     1
  8
ﾀｲﾄﾙ枠
  6
Continuous
370
    40
100
AcDbLine
 10
357.853417217602
 20
11.51329660505535
 30
0.0
 11
359.6734172176021
 21
11.51329660505535
 31
0.0
  0
LINE
  5
26B2
330
15
100
AcDbEntity
 67
     1
  8
ﾀｲﾄﾙ枠
  6
Continuous
370
    40
100
AcDbLine
 10
359.6734172176021
 20
13.87329660505537
 30
0.0
 11
357.4634172176021
 21
13.87329660505537
 31
0.0
  0
LINE
  5
26B3
330
15
100
AcDbEntity
 67
     1
  8
ﾀｲﾄﾙ枠
  6
Continuous
370
    40
100
AcDbLine
 10
359.6734172176021
 20
9.453296605055356
 30
0.0
 11
357.853417217602
 21
9.453296605055356
 31
0.0
  0
LINE
  5
26B4
330
15
100
AcDbEntity
 67
     1
  8
ﾀｲﾄﾙ枠
  6
Continuous
370
    40
100
AcDbLine
 10
357.853417217602
 20
10.47329660505539
 30
0.0
 11
359.4134172176021
 21
10.47329660505539
 31
0.0
  0
LINE
  5
26B5
330
15
100
AcDbEntity
 67
     1
  8
ﾀｲﾄﾙ枠
  6
Continuous
370
    40
100
AcDbLine
 10
359.4134172176021
 20
10.49329660505537
 30
0.0
 11
357.853417217602
 21
10.49329660505537
 31
0.0
  0
LINE
  5
26B6
330
15
100
AcDbEntity
 67
     1
  8
ﾀｲﾄﾙ枠
  6
Continuous
370
    40
100
AcDbLine
 10
355.2334172176021
 20
9.433296605055375
 30
0.0
 11
359.6734172176021
 21
9.433296605055375
 31
0.0
  0
LINE
  5
26B7
330
15
100
AcDbEntity
 67
     1
  8
ﾀｲﾄﾙ枠
  6
Continuous
370
    40
100
AcDbLine
 10
354.7203001174151
 20
12.68329660505537
 30
0.0
 11
359.6734172176021
 21
12.68329660505537
 31
0.0
  0
LINE
  5
26B8
330
15
100
AcDbEntity
 67
     1
  8
ﾀｲﾄﾙ枠
  6
Continuous
370
    40
100
AcDbLine
 10
358.0629257147894
 20
12.70329660505535
 30
0.0
 11
358.6379257147894
 21
13.85329660505539
 31
0.0
  0
LINE
  5
26B9
330
15
100
AcDbEntity
 67
     1
  8
ﾀｲﾄﾙ枠
  6
Continuous
370
    40
100
AcDbLine
 10
358.6379257147894
 20
13.85329660505539
 30
0.0
 11
355.4889087204147
 21
13.85329660505539
 31
0.0
  0
LINE
  5
26BA
330
15
100
AcDbEntity
 67
     1
  8
ﾀｲﾄﾙ枠
  6
Continuous
370
    40
100
AcDbLine
 10
349.6384172176021
 20
13.33329660505535
 30
0.0
 11
352.1734172176021
 21
13.33329660505535
 31
0.0
  0
LINE
  5
26BB
330
15
100
AcDbEntity
 67
     1
  8
ﾀｲﾄﾙ枠
  6
Continuous
370
    40
100
AcDbLine
 10
352.1734172176021
 20
13.48329660505538
 30
0.0
 11
349.6384172176021
 21
13.48329660505538
 31
0.0
  0
LINE
  5
26BC
330
15
100
AcDbEntity
 67
     1
  8
ﾀｲﾄﾙ枠
  6
Continuous
370
    40
100
AcDbLine
 10
352.1734172176021
 20
10.48918327815039
 30
0.0
 11
349.6384172176021
 21
12.82918327815036
 31
0.0
  0
LINE
  5
26BD
330
15
100
AcDbEntity
 67
     1
  8
ﾀｲﾄﾙ枠
  6
Continuous
370
    40
100
AcDbLine
 10
349.6384172176021
 20
12.09429287453537
 30
0.0
 11
352.1734172176021
 21
9.754292874535394
 31
0.0
  0
LINE
  5
26BE
330
15
100
AcDbEntity
 67
     1
  8
ﾀｲﾄﾙ枠
  6
Continuous
370
    40
100
AcDbLine
 10
351.9234172176021
 20
10.35250730711203
 30
0.0
 11
349.6384172176021
 21
12.46173807634272
 31
0.0
  0
LINE
  5
26BF
330
15
100
AcDbEntity
 67
     1
  8
ﾀｲﾄﾙ枠
  6
Continuous
370
    40
100
AcDbLine
 10
349.6384172176021
 20
10.08329660505535
 30
0.0
 11
350.6134172176021
 21
10.08329660505535
 31
0.0
  0
LINE
  5
26C0
330
15
100
AcDbEntity
 67
     1
  8
ﾀｲﾄﾙ枠
  6
Continuous
370
    40
100
AcDbLine
 10
350.6134172176021
 20
10.23329660505538
 30
0.0
 11
349.6384172176021
 21
10.23329660505538
 31
0.0
  0
LINE
  5
26C1
330
15
100
AcDbEntity
 67
     1
  8
ﾀｲﾄﾙ枠
  6
Continuous
370
    40
100
AcDbLine
 10
349.6384172176021
 20
12.82918327815036
 30
0.0
 11
349.6384172176021
 21
13.33329660505535
 31
0.0
  0
LINE
  5
26C2
330
15
100
AcDbEntity
 67
     1
  8
ﾀｲﾄﾙ枠
  6
Continuous
370
    40
100
AcDbLine
 10
349.6384172176021
 20
13.48329660505538
 30
0.0
 11
349.6384172176021
 21
14.5232966050554
 31
0.0
  0
LINE
  5
26C3
330
15
100
AcDbEntity
 67
     1
  8
ﾀｲﾄﾙ枠
  6
Continuous
370
    40
100
AcDbLine
 10
349.6384172176021
 20
9.433296605055375
 30
0.0
 11
349.6384172176021
 21
10.08329660505535
 31
0.0
  0
LINE
  5
26C4
330
15
100
AcDbEntity
 67
     1
  8
ﾀｲﾄﾙ枠
  6
Continuous
370
    40
100
AcDbLine
 10
349.6384172176021
 20
10.23329660505538
 30
0.0
 11
349.6384172176021
 21
12.09429287453537
 31
0.0
  0
LINE
  5
26C5
330
15
100
AcDbEntity
 67
     1
  8
ﾀｲﾄﾙ枠
  6
Continuous
370
    40
100
AcDbLine
 10
349.1734172176021
 20
9.683296605055375
 30
0.0
 11
349.1734172176021
 21
14.2732966050554
 31
0.0
  0
LINE
  5
26C6
330
15
100
AcDbEntity
 67
     1
  8
ﾀｲﾄﾙ枠
  6
Continuous
370
    40
100
AcDbLine
 10
349.3734172176021
 20
9.683296605055375
 30
0.0
 11
349.3734172176021
 21
14.2732966050554
 31
0.0
  0
LINE
  5
26C7
330
15
100
AcDbEntity
 67
     1
  8
ﾀｲﾄﾙ枠
  6
Continuous
370
    40
100
AcDbLine
 10
348.9734172176021
 20
9.683296605055375
 30
0.0
 11
348.9734172176021
 21
14.2732966050554
 31
0.0
  0
LINE
  5
26C8
330
15
100
AcDbEntity
 67
     1
  8
ﾀｲﾄﾙ枠
  6
Continuous
370
    40
100
AcDbLine
 10
348.7084172176021
 20
14.5232966050554
 30
0.0
 11
348.7084172176021
 21
13.48329660505538
 31
0.0
  0
LINE
  5
26C9
330
15
100
AcDbEntity
 67
     1
  8
ﾀｲﾄﾙ枠
  6
Continuous
370
    40
100
AcDbLine
 10
348.7084172176021
 20
13.48329660505538
 30
0.0
 11
346.1734172176021
 21
13.48329660505538
 31
0.0
  0
LINE
  5
26CA
330
15
100
AcDbEntity
 67
     1
  8
ﾀｲﾄﾙ枠
  6
Continuous
370
    40
100
AcDbLine
 10
346.1734172176021
 20
13.48329660505538
 30
0.0
 11
346.1734172176021
 21
13.33329660505535
 31
0.0
  0
LINE
  5
26CB
330
15
100
AcDbEntity
 67
     1
  8
ﾀｲﾄﾙ枠
  6
Continuous
370
    40
100
AcDbLine
 10
346.1734172176021
 20
13.33329660505535
 30
0.0
 11
348.7084172176021
 21
13.33329660505535
 31
0.0
  0
LINE
  5
26CC
330
15
100
AcDbEntity
 67
     1
  8
ﾀｲﾄﾙ枠
  6
Continuous
370
    40
100
AcDbLine
 10
348.7084172176021
 20
13.33329660505535
 30
0.0
 11
348.7084172176021
 21
12.82918327815036
 31
0.0
  0
LINE
  5
26CD
330
15
100
AcDbEntity
 67
     1
  8
ﾀｲﾄﾙ枠
  6
Continuous
370
    40
100
AcDbLine
 10
346.1734172176021
 20
10.48918327815039
 30
0.0
 11
346.1734172176021
 21
9.754292874535394
 31
0.0
  0
LINE
  5
26CE
330
15
100
AcDbEntity
 67
     1
  8
ﾀｲﾄﾙ枠
  6
Continuous
370
    40
100
AcDbLine
 10
348.7084172176021
 20
10.23329660505538
 30
0.0
 11
347.733417217602
 21
10.23329660505538
 31
0.0
  0
LINE
  5
26CF
330
15
100
AcDbEntity
 67
     1
  8
ﾀｲﾄﾙ枠
  6
Continuous
370
    40
100
AcDbLine
 10
347.733417217602
 20
10.23329660505538
 30
0.0
 11
347.733417217602
 21
10.08329660505535
 31
0.0
  0
LINE
  5
26D0
330
15
100
AcDbEntity
 67
     1
  8
ﾀｲﾄﾙ枠
  6
Continuous
370
    40
100
AcDbLine
 10
347.733417217602
 20
10.08329660505535
 30
0.0
 11
348.7084172176021
 21
10.08329660505535
 31
0.0
  0
LINE
  5
26D1
330
15
100
AcDbEntity
 67
     1
  8
ﾀｲﾄﾙ枠
  6
Continuous
370
    40
100
AcDbLine
 10
348.7084172176021
 20
10.08329660505535
 30
0.0
 11
348.7084172176021
 21
9.433296605055375
 31
0.0
  0
LINE
  5
26D2
330
15
100
AcDbEntity
 67
     1
  8
ﾀｲﾄﾙ枠
  6
Continuous
370
    40
100
AcDbLine
 10
348.7084172176021
 20
12.82918327815036
 30
0.0
 11
346.1734172176021
 21
10.48918327815039
 31
0.0
  0
LINE
  5
26D3
330
15
100
AcDbEntity
 67
     1
  8
ﾀｲﾄﾙ枠
  6
Continuous
370
    40
100
AcDbLine
 10
346.1734172176021
 20
9.754292874535394
 30
0.0
 11
348.7084172176021
 21
12.09429287453537
 31
0.0
  0
LINE
  5
26D4
330
15
100
AcDbEntity
 67
     1
  8
ﾀｲﾄﾙ枠
  6
Continuous
370
    40
100
AcDbLine
 10
348.7084172176021
 20
12.09429287453537
 30
0.0
 11
348.7084172176021
 21
10.23329660505538
 31
0.0
  0
LINE
  5
26D5
330
15
100
AcDbEntity
 67
     1
  8
ﾀｲﾄﾙ枠
  6
Continuous
370
    40
100
AcDbLine
 10
348.7084172176021
 20
12.46173807634272
 30
0.0
 11
346.4234172176021
 21
10.35250730711203
 31
0.0
  0
LINE
  5
26D6
330
15
100
AcDbEntity
 67
     1
  8
ﾀｲﾄﾙ枠
  6
Continuous
370
    40
100
AcDbLine
 10
348.7084172176021
 20
9.433296605055375
 30
0.0
 11
349.6384172176021
 21
9.433296605055375
 31
0.0
  0
LINE
  5
26D7
330
15
100
AcDbEntity
 67
     1
  8
ﾀｲﾄﾙ枠
  6
Continuous
370
    40
100
AcDbLine
 10
349.6384172176021
 20
14.5232966050554
 30
0.0
 11
348.7084172176021
 21
14.5232966050554
 31
0.0
  0
LINE
  5
26D8
330
15
100
AcDbEntity
 67
     1
  8
ﾀｲﾄﾙ枠
  6
Continuous
370
    40
100
AcDbLine
 10
344.6734172176021
 20
13.61329660505538
 30
0.0
 11
344.6734172176021
 21
13.4632966050554
 31
0.0
  0
LINE
  5
26D9
330
15
100
AcDbEntity
 67
     1
  8
ﾀｲﾄﾙ枠
  6
Continuous
370
    40
100
AcDbLine
 10
342.1384172176021
 20
12.44329660505536
 30
0.0
 11
344.1534172176021
 21
12.44329660505536
 31
0.0
  0
LINE
  5
26DA
330
15
100
AcDbEntity
 67
     1
  8
ﾀｲﾄﾙ枠
  6
Continuous
370
    40
100
AcDbLine
 10
342.1384172176021
 20
14.5232966050554
 30
0.0
 11
342.1384172176021
 21
13.61329660505538
 31
0.0
  0
LINE
  5
26DB
330
15
100
AcDbEntity
 67
     1
  8
ﾀｲﾄﾙ枠
  6
Continuous
370
    40
100
AcDbLine
 10
342.1384172176021
 20
13.4632966050554
 30
0.0
 11
342.1384172176021
 21
12.44329660505536
 31
0.0
  0
LINE
  5
26DC
330
15
100
AcDbEntity
 67
     1
  8
ﾀｲﾄﾙ枠
  6
Continuous
370
    40
100
AcDbLine
 10
341.8734172176021
 20
12.54329660505538
 30
0.0
 11
341.8734172176021
 21
14.2732966050554
 31
0.0
  0
LINE
  5
26DD
330
15
100
AcDbEntity
 67
     1
  8
ﾀｲﾄﾙ枠
  6
Continuous
370
    40
100
AcDbLine
 10
344.1534172176021
 20
12.44329660505536
 30
0.0
 11
344.1534172176021
 21
12.29329660505539
 31
0.0
  0
LINE
  5
26DE
330
15
100
AcDbEntity
 67
     1
  8
ﾀｲﾄﾙ枠
  6
Continuous
370
    40
100
AcDbLine
 10
344.1534172176021
 20
11.4032966050554
 30
0.0
 11
344.1534172176021
 21
9.433296605055375
 31
0.0
  0
LINE
  5
26DF
330
15
100
AcDbEntity
 67
     1
  8
ﾀｲﾄﾙ枠
  6
Continuous
370
    40
100
AcDbLine
 10
343.6884172176021
 20
9.583296605055352
 30
0.0
 11
343.6884172176021
 21
11.25329660505536
 31
0.0
  0
LINE
  5
26E0
330
15
100
AcDbEntity
 67
     1
  8
ﾀｲﾄﾙ枠
  6
Continuous
370
    40
100
AcDbLine
 10
343.2234172176021
 20
9.583296605055352
 30
0.0
 11
343.2234172176021
 21
11.25329660505536
 31
0.0
  0
LINE
  5
26E1
330
15
100
AcDbEntity
 67
     1
  8
ﾀｲﾄﾙ枠
  6
Continuous
370
    40
100
AcDbLine
 10
343.8884172176021
 20
9.583296605055352
 30
0.0
 11
343.8884172176021
 21
11.25329660505536
 31
0.0
  0
LINE
  5
26E2
330
15
100
AcDbEntity
 67
     1
  8
ﾀｲﾄﾙ枠
  6
Continuous
370
    40
100
AcDbLine
 10
343.488417217602
 20
9.583296605055352
 30
0.0
 11
343.488417217602
 21
11.25329660505536
 31
0.0
  0
LINE
  5
26E3
330
15
100
AcDbEntity
 67
     1
  8
ﾀｲﾄﾙ枠
  6
Continuous
370
    40
100
AcDbLine
 10
342.1384172176021
 20
13.61329660505538
 30
0.0
 11
344.6734172176021
 21
13.61329660505538
 31
0.0
  0
LINE
  5
26E4
330
15
100
AcDbEntity
 67
     1
  8
ﾀｲﾄﾙ枠
  6
Continuous
370
    40
100
AcDbLine
 10
344.6734172176021
 20
13.4632966050554
 30
0.0
 11
342.1384172176021
 21
13.4632966050554
 31
0.0
  0
LINE
  5
26E5
330
15
100
AcDbEntity
 67
     1
  8
ﾀｲﾄﾙ枠
  6
Continuous
370
    40
100
AcDbLine
 10
357.2634172176021
 20
14.10329660505539
 30
0.0
 11
357.2634172176021
 21
14.2732966050554
 31
0.0
  0
LINE
  5
26E6
330
15
100
AcDbEntity
 67
     1
  8
ﾀｲﾄﾙ枠
  6
Continuous
370
    40
100
AcDbLine
 10
357.853417217602
 20
11.53329660505539
 30
0.0
 11
357.853417217602
 21
11.92329660505538
 31
0.0
  0
LINE
  5
26E7
330
15
100
AcDbEntity
 67
     1
  8
ﾀｲﾄﾙ枠
  6
Continuous
370
    40
100
AcDbLine
 10
357.4634172176021
 20
13.87329660505537
 30
0.0
 11
357.4634172176021
 21
14.5232966050554
 31
0.0
  0
LINE
  5
26E8
330
15
100
AcDbEntity
 67
     1
  8
ﾀｲﾄﾙ枠
  6
Continuous
370
    40
100
AcDbLine
 10
357.853417217602
 20
9.453296605055356
 30
0.0
 11
357.853417217602
 21
10.47329660505539
 31
0.0
  0
LINE
  5
26E9
330
15
100
AcDbEntity
 67
     1
  8
ﾀｲﾄﾙ枠
  6
Continuous
370
    40
100
AcDbLine
 10
357.853417217602
 20
10.49329660505537
 30
0.0
 11
357.853417217602
 21
11.51329660505535
 31
0.0
  0
LINE
  5
26EA
330
15
100
AcDbEntity
 67
     1
  8
ﾀｲﾄﾙ枠
  6
Continuous
370
    40
100
AcDbLine
 10
357.4534172176021
 20
11.67329660505538
 30
0.0
 11
357.4534172176021
 21
9.683296605055375
 31
0.0
  0
LINE
  5
26EB
330
15
100
AcDbEntity
 67
     1
  8
ﾀｲﾄﾙ枠
  6
Continuous
370
    40
100
AcDbLine
 10
357.6534172176021
 20
11.67329660505538
 30
0.0
 11
357.6534172176021
 21
9.683296605055375
 31
0.0
  0
LINE
  5
26EC
330
15
100
AcDbEntity
 67
     1
  8
ﾀｲﾄﾙ枠
  6
Continuous
370
    40
100
AcDbLine
 10
357.2534172176021
 20
11.67329660505538
 30
0.0
 11
357.2534172176021
 21
9.683296605055375
 31
0.0
  0
LINE
  5
26ED
330
15
100
AcDbEntity
 67
     1
  8
ﾀｲﾄﾙ枠
  6
Continuous
370
    40
100
AcDbLine
 10
357.0534172176021
 20
11.92329660505538
 30
0.0
 11
357.0534172176021
 21
11.53329660505539
 31
0.0
  0
LINE
  5
26EE
330
15
100
AcDbEntity
 67
     1
  8
ﾀｲﾄﾙ枠
  6
Continuous
370
    40
100
AcDbLine
 10
357.0534172176021
 20
11.53329660505539
 30
0.0
 11
355.9034172176021
 21
11.53329660505539
 31
0.0
  0
LINE
  5
26EF
330
15
100
AcDbEntity
 67
     1
  8
ﾀｲﾄﾙ枠
  6
Continuous
370
    40
100
AcDbLine
 10
355.9034172176021
 20
11.53329660505539
 30
0.0
 11
355.9034172176021
 21
11.92329660505538
 31
0.0
  0
LINE
  5
26F0
330
15
100
AcDbEntity
 67
     1
  8
ﾀｲﾄﾙ枠
  6
Continuous
370
    40
100
AcDbLine
 10
355.9034172176021
 20
11.92329660505538
 30
0.0
 11
355.6234172176021
 21
11.92329660505538
 31
0.0
  0
LINE
  5
26F1
330
15
100
AcDbEntity
 67
     1
  8
ﾀｲﾄﾙ枠
  6
Continuous
370
    40
100
AcDbLine
 10
355.6234172176021
 20
11.92329660505538
 30
0.0
 11
355.6234172176021
 21
11.51329660505535
 31
0.0
  0
LINE
  5
26F2
330
15
100
AcDbEntity
 67
     1
  8
ﾀｲﾄﾙ枠
  6
Continuous
370
    40
100
AcDbLine
 10
355.6234172176021
 20
11.51329660505535
 30
0.0
 11
357.0534172176021
 21
11.51329660505535
 31
0.0
  0
LINE
  5
26F3
330
15
100
AcDbEntity
 67
     1
  8
ﾀｲﾄﾙ枠
  6
Continuous
370
    40
100
AcDbLine
 10
356.6634172176021
 20
14.5232966050554
 30
0.0
 11
356.6634172176021
 21
13.87329660505537
 31
0.0
  0
LINE
  5
26F4
330
15
100
AcDbEntity
 67
     1
  8
ﾀｲﾄﾙ枠
  6
Continuous
370
    40
100
AcDbLine
 10
356.6634172176021
 20
13.87329660505537
 30
0.0
 11
354.1934172176021
 21
13.87329660505537
 31
0.0
  0
LINE
  5
26F5
330
15
100
AcDbEntity
 67
     1
  8
ﾀｲﾄﾙ枠
  6
Continuous
370
    40
100
AcDbLine
 10
354.1934172176021
 20
13.87329660505537
 30
0.0
 11
354.1934172176021
 21
13.85329660505539
 31
0.0
  0
LINE
  5
26F6
330
15
100
AcDbEntity
 67
     1
  8
ﾀｲﾄﾙ枠
  6
Continuous
370
    40
100
AcDbLine
 10
354.1934172176021
 20
13.85329660505539
 30
0.0
 11
354.7349648123444
 21
13.85329660505539
 31
0.0
  0
LINE
  5
26F7
330
15
100
AcDbEntity
 67
     1
  8
ﾀｲﾄﾙ枠
  6
Continuous
370
    40
100
AcDbLine
 10
354.7349648123444
 20
13.85329660505539
 30
0.0
 11
355.4249648123444
 21
12.70329660505535
 31
0.0
  0
LINE
  5
26F8
330
15
100
AcDbEntity
 67
     1
  8
ﾀｲﾄﾙ枠
  6
Continuous
370
    40
100
AcDbLine
 10
355.4249648123444
 20
12.70329660505535
 30
0.0
 11
354.180605343792
 21
12.70329660505535
 31
0.0
  0
LINE
  5
26F9
330
15
100
AcDbEntity
 67
     1
  8
ﾀｲﾄﾙ枠
  6
Continuous
370
    40
100
AcDbLine
 10
355.4889087204147
 20
13.85329660505539
 30
0.0
 11
356.0639087204148
 21
12.70329660505535
 31
0.0
  0
LINE
  5
26FA
330
15
100
AcDbEntity
 67
     1
  8
ﾀｲﾄﾙ枠
  6
Continuous
370
    40
100
AcDbLine
 10
357.0634172176021
 20
14.10329660505539
 30
0.0
 11
357.0634172176021
 21
14.2732966050554
 31
0.0
  0
LINE
  5
26FB
330
15
100
AcDbEntity
 67
     1
  8
ﾀｲﾄﾙ枠
  6
Continuous
370
    40
100
AcDbLine
 10
355.2384367663794
 20
13.62329660505537
 30
0.0
 11
355.6179367663794
 21
12.93329660505537
 31
0.0
  0
LINE
  5
26FC
330
15
100
AcDbEntity
 67
     1
  8
ﾀｲﾄﾙ枠
  6
Continuous
370
    40
100
AcDbLine
 10
356.863417217602
 20
14.10329660505539
 30
0.0
 11
356.863417217602
 21
14.2732966050554
 31
0.0
  0
ARC
  5
26FD
330
15
100
AcDbEntity
 67
     1
  8
ﾀｲﾄﾙ枠
  6
Continuous
370
    40
100
AcDbCircle
 10
348.6458523997187
 20
11.2363125355647
 30
0.0
 40
5.719999999999999
100
AcDbArc
 50
344.2460809455041
 51
356.987212495817
  0
ARC
  5
26FE
330
15
100
AcDbEntity
 67
     1
  8
ﾀｲﾄﾙ枠
  6
Continuous
370
    40
100
AcDbCircle
 10
348.6458523997187
 20
11.2363125355647
 30
0.0
 40
5.989999999999999
100
AcDbArc
 50
342.4820645709959
 51
356.987212495817
  0
ARC
  5
26FF
330
15
100
AcDbEntity
 67
     1
  8
ﾀｲﾄﾙ枠
  6
Continuous
370
    40
100
AcDbCircle
 10
348.6458523997187
 20
11.2363125355647
 30
0.0
 40
5.45
100
AcDbArc
 50
340.6809234802237
 51
356.987212495817
  0
LINE
  5
2700
330
15
100
AcDbEntity
 67
     1
  8
ﾀｲﾄﾙ枠
  6
Continuous
370
    40
100
AcDbLine
 10
357.0534172176021
 20
10.49329660505537
 30
0.0
 11
355.6234172176021
 21
10.49329660505537
 31
0.0
  0
LINE
  5
2701
330
15
100
AcDbEntity
 67
     1
  8
ﾀｲﾄﾙ枠
  6
Continuous
370
    40
100
AcDbLine
 10
355.6234172176021
 20
10.49329660505537
 30
0.0
 11
355.6234172176021
 21
10.47329660505539
 31
0.0
  0
LINE
  5
2702
330
15
100
AcDbEntity
 67
     1
  8
ﾀｲﾄﾙ枠
  6
Continuous
370
    40
100
AcDbLine
 10
355.6234172176021
 20
10.47329660505539
 30
0.0
 11
357.0534172176021
 21
10.47329660505539
 31
0.0
  0
LINE
  5
2703
330
15
100
AcDbEntity
 67
     1
  8
ﾀｲﾄﾙ枠
  6
Continuous
370
    40
100
AcDbLine
 10
357.0534172176021
 20
10.47329660505539
 30
0.0
 11
357.0534172176021
 21
9.453296605055356
 31
0.0
  0
LINE
  5
2704
330
15
100
AcDbEntity
 67
     1
  8
ﾀｲﾄﾙ枠
  6
Continuous
370
    40
100
AcDbLine
 10
357.0534172176021
 20
9.453296605055356
 30
0.0
 11
355.2334172176021
 21
9.453296605055356
 31
0.0
  0
LINE
  5
2705
330
15
100
AcDbEntity
 67
     1
  8
ﾀｲﾄﾙ枠
  6
Continuous
370
    40
100
AcDbLine
 10
355.2334172176021
 20
9.453296605055356
 30
0.0
 11
355.2334172176021
 21
9.433296605055375
 31
0.0
  0
LINE
  5
2706
330
15
100
AcDbEntity
 67
     1
  8
ﾀｲﾄﾙ枠
  6
Continuous
370
    40
100
AcDbLine
 10
354.3580528123734
 20
9.433296605055375
 30
0.0
 11
353.7889675602351
 21
9.433296605055375
 31
0.0
  0
LINE
  5
2707
330
15
100
AcDbEntity
 67
     1
  8
ﾀｲﾄﾙ枠
  6
Continuous
370
    40
100
AcDbLine
 10
357.0534172176021
 20
11.51329660505535
 30
0.0
 11
357.0534172176021
 21
10.49329660505537
 31
0.0
  0
LINE
  5
2708
330
15
100
AcDbEntity
 67
     1
  8
ﾀｲﾄﾙ枠
  6
Continuous
370
    40
100
AcDbLine
 10
354.180605343792
 20
12.70329660505535
 30
0.0
 11
354.0883195695811
 21
10.94986689504571
 31
0.0
  0
LINE
  5
2709
330
15
100
AcDbEntity
 67
     1
  8
ﾀｲﾄﾙ枠
  6
Continuous
370
    40
100
AcDbLine
 10
354.3579463835007
 20
10.93567601010238
 30
0.0
 11
354.4378211516561
 21
12.45329660505535
 31
0.0
  0
LINE
  5
270A
330
15
100
AcDbEntity
 67
     1
  8
ﾀｲﾄﾙ枠
  6
Continuous
370
    40
100
AcDbLine
 10
354.7203001174151
 20
12.68329660505537
 30
0.0
 11
354.6275731974204
 21
10.92148512515939
 31
0.0
  0
LINE
  5
270B
330
15
100
AcDbEntity
 67
     1
  8
ﾀｲﾄﾙ枠
  6
Continuous
370
    40
100
AcDbLine
 10
357.853417217602
 20
11.92329660505538
 30
0.0
 11
357.0534172176021
 21
11.92329660505538
 31
0.0
  0
LINE
  5
270C
330
15
100
AcDbEntity
 67
     1
  8
ﾀｲﾄﾙ枠
  6
Continuous
370
    40
100
AcDbLine
 10
357.4634172176021
 20
14.5232966050554
 30
0.0
 11
356.6634172176021
 21
14.5232966050554
 31
0.0
  0
LINE
  5
270D
330
15
100
AcDbEntity
 67
     1
  8
ﾀｲﾄﾙ枠
  6
Continuous
370
    40
100
AcDbLine
 10
356.0639087204148
 20
12.70329660505535
 30
0.0
 11
358.0629257147894
 21
12.70329660505535
 31
0.0
  0
LINE
  5
270E
330
15
100
AcDbEntity
 67
     1
  8
ﾀｲﾄﾙ枠
  6
Continuous
370
    40
100
AcDbLine
 10
350.6134172176021
 20
10.08329660505535
 30
0.0
 11
350.6134172176021
 21
10.23329660505538
 31
0.0
  0
LINE
  5
270F
330
15
100
AcDbEntity
 67
     1
  8
ﾀｲﾄﾙ枠
  6
Continuous
370
    40
100
AcDbLine
 10
352.1734172176021
 20
13.33329660505535
 30
0.0
 11
352.1734172176021
 21
13.48329660505538
 31
0.0
  0
LINE
  5
2710
330
15
100
AcDbEntity
 67
     1
  8
ﾀｲﾄﾙ枠
  6
Continuous
370
    40
100
AcDbLine
 10
352.1734172176021
 20
9.754292874535394
 30
0.0
 11
352.1734172176021
 21
10.48918327815039
 31
0.0
  0
LINE
  5
2711
330
15
100
AcDbEntity
 67
     1
  8
ﾀｲﾄﾙ枠
  6
Continuous
370
    40
100
AcDbLine
 10
367.1734172176021
 20
13.53829660505539
 30
0.0
 11
366.2709720951188
 21
13.53829660505539
 31
0.0
  0
LINE
  5
2712
330
15
100
AcDbEntity
 67
     1
  8
ﾀｲﾄﾙ枠
  6
Continuous
370
    40
100
AcDbLine
 10
366.9481595951184
 20
14.5232966050554
 30
0.0
 11
365.5559720951184
 21
12.49829660505537
 31
0.0
  0
LINE
  5
2713
330
15
100
AcDbEntity
 67
     1
  8
ﾀｲﾄﾙ枠
  6
Continuous
370
    40
100
AcDbLine
 10
365.4106919939308
 20
12.74829660505537
 30
0.0
 11
366.4353013689308
 21
14.2732966050554
 31
0.0
  0
LINE
  5
2714
330
15
100
AcDbEntity
 67
     1
  8
ﾀｲﾄﾙ枠
  6
Continuous
370
    40
100
AcDbLine
 10
366.2583806427428
 20
14.5232966050554
 30
0.0
 11
366.9481595951184
 21
14.5232966050554
 31
0.0
  0
LINE
  5
2715
330
15
100
AcDbEntity
 67
     1
  8
ﾀｲﾄﾙ枠
  6
Continuous
370
    40
100
AcDbLine
 10
366.9134172176021
 20
10.07821597118771
 30
0.0
 11
365.4082761083334
 21
10.93829660505537
 31
0.0
  0
LINE
  5
2716
330
15
100
AcDbEntity
 67
     1
  8
ﾀｲﾄﾙ枠
  6
Continuous
370
    40
100
AcDbLine
 10
364.6384172176021
 20
10.91409152463739
 30
0.0
 11
366.9134172176021
 21
9.614091524637387
 31
0.0
  0
LINE
  5
2717
330
15
100
AcDbEntity
 67
     1
  8
ﾀｲﾄﾙ枠
  6
Continuous
370
    40
100
AcDbLine
 10
366.6534172176021
 20
12.49829660505537
 30
0.0
 11
361.6934172176021
 21
12.49829660505537
 31
0.0
  0
LINE
  5
2718
330
15
100
AcDbEntity
 67
     1
  8
ﾀｲﾄﾙ枠
  6
Continuous
370
    40
100
AcDbLine
 10
366.9134172176021
 20
10.93829660505537
 30
0.0
 11
364.6384172176021
 21
10.93829660505537
 31
0.0
  0
LINE
  5
2719
330
15
100
AcDbEntity
 67
     1
  8
ﾀｲﾄﾙ枠
  6
Continuous
370
    40
100
AcDbLine
 10
365.0934172176021
 20
13.53829660505539
 30
0.0
 11
365.0934172176021
 21
14.5232966050554
 31
0.0
  0
LINE
  5
271A
330
15
100
AcDbEntity
 67
     1
  8
ﾀｲﾄﾙ枠
  6
Continuous
370
    40
100
AcDbLine
 10
365.0934172176021
 20
14.5232966050554
 30
0.0
 11
364.6184172176021
 21
14.5232966050554
 31
0.0
  0
LINE
  5
271B
330
15
100
AcDbEntity
 67
     1
  8
ﾀｲﾄﾙ枠
  6
Continuous
370
    40
100
AcDbLine
 10
364.6184172176021
 20
14.5232966050554
 30
0.0
 11
364.6184172176021
 21
13.53829660505539
 31
0.0
  0
LINE
  5
271C
330
15
100
AcDbEntity
 67
     1
  8
ﾀｲﾄﾙ枠
  6
Continuous
370
    40
100
AcDbLine
 10
364.6184172176021
 20
13.53829660505539
 30
0.0
 11
363.7284172176021
 21
13.53829660505539
 31
0.0
  0
LINE
  5
271D
330
15
100
AcDbEntity
 67
     1
  8
ﾀｲﾄﾙ枠
  6
Continuous
370
    40
100
AcDbLine
 10
363.7284172176021
 20
13.53829660505539
 30
0.0
 11
363.7284172176021
 21
14.5232966050554
 31
0.0
  0
LINE
  5
271E
330
15
100
AcDbEntity
 67
     1
  8
ﾀｲﾄﾙ枠
  6
Continuous
370
    40
100
AcDbLine
 10
363.7284172176021
 20
14.5232966050554
 30
0.0
 11
363.2534172176021
 21
14.5232966050554
 31
0.0
  0
LINE
  5
271F
330
15
100
AcDbEntity
 67
     1
  8
ﾀｲﾄﾙ枠
  6
Continuous
370
    40
100
AcDbLine
 10
363.2534172176021
 20
14.5232966050554
 30
0.0
 11
363.2534172176021
 21
13.53829660505539
 31
0.0
  0
LINE
  5
2720
330
15
100
AcDbEntity
 67
     1
  8
ﾀｲﾄﾙ枠
  6
Continuous
370
    40
100
AcDbLine
 10
363.2534172176021
 20
13.53829660505539
 30
0.0
 11
362.7348600424614
 21
13.53829660505539
 31
0.0
  0
LINE
  5
2721
330
15
100
AcDbEntity
 67
     1
  8
ﾀｲﾄﾙ枠
  6
Continuous
370
    40
100
AcDbLine
 10
362.0884537924614
 20
14.5232966050554
 30
0.0
 11
363.4173600424614
 21
12.49829660505537
 31
0.0
  0
LINE
  5
2722
330
15
100
AcDbEntity
 67
     1
  8
ﾀｲﾄﾙ枠
  6
Continuous
370
    40
100
AcDbLine
 10
362.0834172176021
 20
11.7182966050554
 30
0.0
 11
363.7084172176021
 21
11.7182966050554
 31
0.0
  0
LINE
  5
2723
330
15
100
AcDbEntity
 67
     1
  8
ﾀｲﾄﾙ枠
  6
Continuous
370
    40
100
AcDbLine
 10
361.9115330662738
 20
14.2732966050554
 30
0.0
 11
362.9361424412734
 21
12.74829660505537
 31
0.0
  0
LINE
  5
2724
330
15
100
AcDbEntity
 67
     1
  8
ﾀｲﾄﾙ枠
  6
Continuous
370
    40
100
AcDbLine
 10
363.7084172176021
 20
9.433296605055375
 30
0.0
 11
364.6384172176021
 21
9.433296605055375
 31
0.0
  0
LINE
  5
2725
330
15
100
AcDbEntity
 67
     1
  8
ﾀｲﾄﾙ枠
  6
Continuous
370
    40
100
AcDbLine
 10
363.7084172176021
 20
12.49829660505537
 30
0.0
 11
363.7084172176021
 21
9.433296605055375
 31
0.0
  0
LINE
  5
2726
330
15
100
AcDbEntity
 67
     1
  8
ﾀｲﾄﾙ枠
  6
Continuous
370
    40
100
AcDbLine
 10
364.6384172176021
 20
9.433296605055375
 30
0.0
 11
364.6384172176021
 21
12.49829660505537
 31
0.0
  0
LINE
  5
2727
330
15
100
AcDbEntity
 67
     1
  8
ﾀｲﾄﾙ枠
  6
Continuous
370
    40
100
AcDbLine
 10
364.1734172176021
 20
12.24829660505537
 30
0.0
 11
364.1734172176021
 21
9.683296605055375
 31
0.0
  0
LINE
  5
2728
330
15
100
AcDbEntity
 67
     1
  8
ﾀｲﾄﾙ枠
  6
Continuous
370
    40
100
AcDbLine
 10
364.3734172176021
 20
12.24829660505537
 30
0.0
 11
364.3734172176021
 21
9.683296605055375
 31
0.0
  0
LINE
  5
2729
330
15
100
AcDbEntity
 67
     1
  8
ﾀｲﾄﾙ枠
  6
Continuous
370
    40
100
AcDbLine
 10
363.9734172176021
 20
12.24829660505537
 30
0.0
 11
363.9734172176021
 21
9.683296605055375
 31
0.0
  0
LINE
  5
272A
330
15
100
AcDbEntity
 67
     1
  8
ﾀｲﾄﾙ枠
  6
Continuous
370
    40
100
AcDbLine
 10
365.6119743927428
 20
13.53829660505539
 30
0.0
 11
365.0934172176021
 21
13.53829660505539
 31
0.0
  0
LINE
  5
272B
330
15
100
AcDbEntity
 67
     1
  8
ﾀｲﾄﾙ枠
  6
Continuous
370
    40
100
AcDbLine
 10
364.9294743927427
 20
12.49829660505537
 30
0.0
 11
366.2583806427428
 21
14.5232966050554
 31
0.0
  0
LINE
  5
272C
330
15
100
AcDbEntity
 67
     1
  8
ﾀｲﾄﾙ枠
  6
Continuous
370
    40
100
AcDbLine
 10
364.6384172176021
 20
11.7182966050554
 30
0.0
 11
366.2634172176021
 21
11.7182966050554
 31
0.0
  0
LINE
  5
272D
330
15
100
AcDbEntity
 67
     1
  8
ﾀｲﾄﾙ枠
  6
Continuous
370
    40
100
AcDbLine
 10
361.4334172176021
 20
9.614091524637387
 30
0.0
 11
361.4334172176021
 21
10.07821597118771
 31
0.0
  0
LINE
  5
272E
330
15
100
AcDbEntity
 67
     1
  8
ﾀｲﾄﾙ枠
  6
Continuous
370
    40
100
AcDbLine
 10
359.6734172176021
 20
12.70329660505535
 30
0.0
 11
358.7018696228598
 21
12.70329660505535
 31
0.0
  0
LINE
  5
272F
330
15
100
AcDbEntity
 67
     1
  8
ﾀｲﾄﾙ枠
  6
Continuous
370
    40
100
AcDbLine
 10
358.7018696228598
 20
12.70329660505535
 30
0.0
 11
359.3918696228598
 21
13.85329660505539
 31
0.0
  0
LINE
  5
2730
330
15
100
AcDbEntity
 67
     1
  8
ﾀｲﾄﾙ枠
  6
Continuous
370
    40
100
AcDbLine
 10
358.5088976688248
 20
12.93329660505537
 30
0.0
 11
358.8883976688248
 21
13.62329660505537
 31
0.0
  0
LINE
  5
2731
330
15
100
AcDbEntity
 67
     1
  8
ﾀｲﾄﾙ枠
  6
Continuous
370
    40
100
AcDbLine
 10
359.6734172176021
 20
11.51329660505535
 30
0.0
 11
359.6734172176021
 21
11.53329660505539
 31
0.0
  0
LINE
  5
2732
330
15
100
AcDbEntity
 67
     1
  8
ﾀｲﾄﾙ枠
  6
Continuous
370
    40
100
AcDbLine
 10
359.6734172176021
 20
12.68329660505537
 30
0.0
 11
359.6734172176021
 21
12.70329660505535
 31
0.0
  0
LINE
  5
2733
330
15
100
AcDbEntity
 67
     1
  8
ﾀｲﾄﾙ枠
  6
Continuous
370
    40
100
AcDbLine
 10
359.3918696228598
 20
13.85329660505539
 30
0.0
 11
359.6734172176021
 21
13.85329660505539
 31
0.0
  0
LINE
  5
2734
330
15
100
AcDbEntity
 67
     1
  8
ﾀｲﾄﾙ枠
  6
Continuous
370
    40
100
AcDbLine
 10
359.6734172176021
 20
13.85329660505539
 30
0.0
 11
359.6734172176021
 21
13.87329660505537
 31
0.0
  0
LINE
  5
2735
330
15
100
AcDbEntity
 67
     1
  8
ﾀｲﾄﾙ枠
  6
Continuous
370
    40
100
AcDbLine
 10
359.6734172176021
 20
9.433296605055375
 30
0.0
 11
359.6734172176021
 21
9.453296605055356
 31
0.0
  0
LINE
  5
2736
330
15
100
AcDbEntity
 67
     1
  8
ﾀｲﾄﾙ枠
  6
Continuous
370
    40
100
AcDbLine
 10
359.4134172176021
 20
10.47329660505539
 30
0.0
 11
359.4134172176021
 21
10.49329660505537
 31
0.0
  0
LINE
  5
2737
330
15
100
AcDbEntity
 67
     1
  8
ﾀｲﾄﾙ枠
  6
Continuous
370
    40
100
AcDbLine
 10
361.3986748400857
 20
14.5232966050554
 30
0.0
 11
362.0884537924614
 21
14.5232966050554
 31
0.0
  0
LINE
  5
2738
330
15
100
AcDbEntity
 67
     1
  8
ﾀｲﾄﾙ枠
  6
Continuous
370
    40
100
AcDbLine
 10
362.7908623400858
 20
12.49829660505537
 30
0.0
 11
361.3986748400857
 21
14.5232966050554
 31
0.0
  0
LINE
  5
2739
330
15
100
AcDbEntity
 67
     1
  8
ﾀｲﾄﾙ枠
  6
Continuous
370
    40
100
AcDbLine
 10
362.0758623400857
 20
13.53829660505539
 30
0.0
 11
361.1734172176021
 21
13.53829660505539
 31
0.0
  0
LINE
  5
273A
330
15
100
AcDbEntity
 67
     1
  8
ﾀｲﾄﾙ枠
  6
Continuous
370
    40
100
AcDbLine
 10
363.7084172176021
 20
10.91409152463739
 30
0.0
 11
361.4334172176021
 21
9.614091524637387
 31
0.0
  0
LINE
  5
273B
330
15
100
AcDbEntity
 67
     1
  8
ﾀｲﾄﾙ枠
  6
Continuous
370
    40
100
AcDbLine
 10
361.4334172176021
 20
10.07821597118771
 30
0.0
 11
362.9385583268707
 21
10.93829660505537
 31
0.0
  0
LINE
  5
273C
330
15
100
AcDbEntity
 67
     1
  8
ﾀｲﾄﾙ枠
  6
Continuous
370
    40
100
AcDbLine
 10
363.7084172176021
 20
10.93829660505537
 30
0.0
 11
361.4334172176021
 21
10.93829660505537
 31
0.0
  0
LINE
  5
273D
330
15
100
AcDbEntity
 67
     1
  8
ﾀｲﾄﾙ枠
  6
Continuous
370
    40
100
AcDbLine
 10
370.1234172176021
 20
12.01329660505535
 30
0.0
 11
369.7334172176021
 21
12.53329660505539
 31
0.0
  0
LINE
  5
273E
330
15
100
AcDbEntity
 67
     1
  8
ﾀｲﾄﾙ枠
  6
Continuous
370
    40
100
AcDbLine
 10
369.7334172176021
 20
14.5232966050554
 30
0.0
 11
369.7334172176021
 21
13.3432966050554
 31
0.0
  0
LINE
  5
273F
330
15
100
AcDbEntity
 67
     1
  8
ﾀｲﾄﾙ枠
  6
Continuous
370
    40
100
AcDbLine
 10
369.7334172176021
 20
12.53329660505539
 30
0.0
 11
369.7334172176021
 21
9.433296605055375
 31
0.0
  0
LINE
  5
2740
330
15
100
AcDbEntity
 67
     1
  8
ﾀｲﾄﾙ枠
  6
Continuous
370
    40
100
AcDbLine
 10
371.0134172176021
 20
13.3432966050554
 30
0.0
 11
371.0134172176021
 21
14.5232966050554
 31
0.0
  0
LINE
  5
2741
330
15
100
AcDbEntity
 67
     1
  8
ﾀｲﾄﾙ枠
  6
Continuous
370
    40
100
AcDbLine
 10
371.0134172176021
 20
14.5232966050554
 30
0.0
 11
371.4234172176021
 21
14.5232966050554
 31
0.0
  0
LINE
  5
2742
330
15
100
AcDbEntity
 67
     1
  8
ﾀｲﾄﾙ枠
  6
Continuous
370
    40
100
AcDbLine
 10
371.4234172176021
 20
14.5232966050554
 30
0.0
 11
371.4234172176021
 21
13.3432966050554
 31
0.0
  0
LINE
  5
2743
330
15
100
AcDbEntity
 67
     1
  8
ﾀｲﾄﾙ枠
  6
Continuous
370
    40
100
AcDbLine
 10
372.4434172176021
 20
11.01329660505536
 30
0.0
 11
371.5679257147897
 21
11.01329660505536
 31
0.0
  0
LINE
  5
2744
330
15
100
AcDbEntity
 67
     1
  8
ﾀｲﾄﾙ枠
  6
Continuous
370
    40
100
AcDbLine
 10
372.4434172176021
 20
14.5232966050554
 30
0.0
 11
373.1134172176021
 21
14.5232966050554
 31
0.0
  0
LINE
  5
2745
330
15
100
AcDbEntity
 67
     1
  8
ﾀｲﾄﾙ枠
  6
Continuous
370
    40
100
AcDbLine
 10
370.1234172176021
 20
12.47996327172205
 30
0.0
 11
370.1234172176021
 21
12.01329660505535
 31
0.0
  0
LINE
  5
2746
330
15
100
AcDbEntity
 67
     1
  8
ﾀｲﾄﾙ枠
  6
Continuous
370
    40
100
AcDbLine
 10
370.7779257147894
 20
9.433296605055375
 30
0.0
 11
371.2363196501771
 21
9.433296605055375
 31
0.0
  0
LINE
  5
2747
330
15
100
AcDbEntity
 67
     1
  8
ﾀｲﾄﾙ枠
  6
Continuous
370
    40
100
AcDbLine
 10
373.1134172176021
 20
9.433296605055375
 30
0.0
 11
372.4434172176021
 21
9.433296605055375
 31
0.0
  0
LINE
  5
2748
330
15
100
AcDbEntity
 67
     1
  8
ﾀｲﾄﾙ枠
  6
Continuous
370
    40
100
AcDbLine
 10
371.5679257147897
 20
11.01329660505536
 30
0.0
 11
370.7779257147894
 21
9.433296605055375
 31
0.0
  0
LINE
  5
2749
330
15
100
AcDbEntity
 67
     1
  8
ﾀｲﾄﾙ枠
  6
Continuous
370
    40
100
AcDbLine
 10
371.2363196501771
 20
9.433296605055375
 30
0.0
 11
372.0263196501771
 21
11.01329660505536
 31
0.0
  0
LINE
  5
274A
330
15
100
AcDbEntity
 67
     1
  8
ﾀｲﾄﾙ枠
  6
Continuous
370
    40
100
AcDbLine
 10
372.7784172176021
 20
9.683296605055375
 30
0.0
 11
372.7784172176021
 21
14.2732966050554
 31
0.0
  0
LINE
  5
274B
330
15
100
AcDbEntity
 67
     1
  8
ﾀｲﾄﾙ枠
  6
Continuous
370
    40
100
AcDbLine
 10
373.1134172176021
 20
14.5232966050554
 30
0.0
 11
373.1134172176021
 21
9.433296605055375
 31
0.0
  0
LINE
  5
274C
330
15
100
AcDbEntity
 67
     1
  8
ﾀｲﾄﾙ枠
  6
Continuous
370
    40
100
AcDbLine
 10
372.4434172176021
 20
9.433296605055375
 30
0.0
 11
372.4434172176021
 21
14.5232966050554
 31
0.0
  0
LINE
  5
274D
330
15
100
AcDbEntity
 67
     1
  8
ﾀｲﾄﾙ枠
  6
Continuous
370
    40
100
AcDbLine
 10
374.1247869086135
 20
9.433296605055375
 30
0.0
 11
373.5322869086135
 21
11.01329660505536
 31
0.0
  0
LINE
  5
274E
330
15
100
AcDbEntity
 67
     1
  8
ﾀｲﾄﾙ枠
  6
Continuous
370
    40
100
AcDbLine
 10
374.2834172176021
 20
13.3432966050554
 30
0.0
 11
371.0134172176021
 21
13.3432966050554
 31
0.0
  0
LINE
  5
274F
330
15
100
AcDbEntity
 67
     1
  8
ﾀｲﾄﾙ枠
  6
Continuous
370
    40
100
AcDbLine
 10
371.0134172176021
 20
12.17329660505538
 30
0.0
 11
374.1534172176021
 21
12.17329660505538
 31
0.0
  0
LINE
  5
2750
330
15
100
AcDbEntity
 67
     1
  8
ﾀｲﾄﾙ枠
  6
Continuous
370
    40
100
AcDbLine
 10
373.1134172176021
 20
11.01329660505536
 30
0.0
 11
373.9701671005611
 21
11.01329660505536
 31
0.0
  0
LINE
  5
2751
330
15
100
AcDbEntity
 67
     1
  8
ﾀｲﾄﾙ枠
  6
Continuous
370
    40
100
AcDbLine
 10
369.1934172176021
 20
13.3432966050554
 30
0.0
 11
369.1934172176021
 21
14.5232966050554
 31
0.0
  0
LINE
  5
2752
330
15
100
AcDbEntity
 67
     1
  8
ﾀｲﾄﾙ枠
  6
Continuous
370
    40
100
AcDbLine
 10
369.1934172176021
 20
9.433296605055375
 30
0.0
 11
369.1934172176021
 21
11.42468771432373
 31
0.0
  0
LINE
  5
2753
330
15
100
AcDbEntity
 67
     1
  8
ﾀｲﾄﾙ枠
  6
Continuous
370
    40
100
AcDbLine
 10
369.4634172176021
 20
14.2732966050554
 30
0.0
 11
369.4634172176021
 21
9.683296605055375
 31
0.0
  0
LINE
  5
2754
330
15
100
AcDbEntity
 67
     1
  8
ﾀｲﾄﾙ枠
  6
Continuous
370
    40
100
AcDbLine
 10
366.9134172176021
 20
9.614091524637387
 30
0.0
 11
366.9134172176021
 21
10.07821597118771
 31
0.0
  0
LINE
  5
2755
330
15
100
AcDbEntity
 67
     1
  8
ﾀｲﾄﾙ枠
  6
Continuous
370
    40
100
AcDbLine
 10
368.6734172176021
 20
10.51468771432405
 30
0.0
 11
368.6734172176021
 21
11.73515100416369
 31
0.0
  0
LINE
  5
2756
330
15
100
AcDbEntity
 67
     1
  8
ﾀｲﾄﾙ枠
  6
Continuous
370
    40
100
AcDbLine
 10
368.6734172176021
 20
11.73515100416369
 30
0.0
 11
369.3166754579588
 21
13.3432966050554
 31
0.0
  0
LINE
  5
2757
330
15
100
AcDbEntity
 67
     1
  8
ﾀｲﾄﾙ枠
  6
Continuous
370
    40
100
AcDbLine
 10
368.9234172176021
 20
11.46610306066338
 30
0.0
 11
369.2550463377804
 21
12.18399215968969
 31
0.0
  0
LINE
  5
2758
330
15
100
AcDbEntity
 67
     1
  8
ﾀｲﾄﾙ枠
  6
Continuous
370
    40
100
AcDbLine
 10
369.1934172176021
 20
11.42468771432373
 30
0.0
 11
368.6734172176021
 21
10.51468771432405
 31
0.0
  0
LINE
  5
2759
330
15
100
AcDbEntity
 67
     1
  8
ﾀｲﾄﾙ枠
  6
Continuous
370
    40
100
AcDbLine
 10
369.4759172176021
 20
13.3432966050554
 30
0.0
 11
370.1234172176021
 21
12.47996327172205
 31
0.0
  0
LINE
  5
275A
330
15
100
AcDbEntity
 67
     1
  8
ﾀｲﾄﾙ枠
  6
Continuous
370
    40
100
AcDbLine
 10
370.1234172176021
 20
13.3432966050554
 30
0.0
 11
368.6734172176021
 21
13.3432966050554
 31
0.0
  0
LINE
  5
275B
330
15
100
AcDbEntity
 67
     1
  8
ﾀｲﾄﾙ枠
  6
Continuous
370
    40
100
AcDbLine
 10
369.1934172176021
 20
14.5232966050554
 30
0.0
 11
369.7334172176021
 21
14.5232966050554
 31
0.0
  0
LINE
  5
275C
330
15
100
AcDbEntity
 67
     1
  8
ﾀｲﾄﾙ枠
  6
Continuous
370
    40
100
AcDbLine
 10
369.7334172176021
 20
9.433296605055375
 30
0.0
 11
369.1934172176021
 21
9.433296605055375
 31
0.0
  0
LINE
  5
275D
330
15
100
AcDbEntity
 67
     1
  8
ﾀｲﾄﾙ枠
100
AcDbLine
 10
386.6420813309307
 20
17.97364893811072
 30
0.0
 11
386.6420813309307
 21
29.97364893811072
 31
0.0
  0
LINE
  5
275E
330
15
100
AcDbEntity
 67
     1
  8
ﾀｲﾄﾙ枠
100
AcDbLine
 10
381.6420813309307
 20
17.97364893811072
 30
0.0
 11
381.6420813309307
 21
29.97364893811072
 31
0.0
  0
LINE
  5
275F
330
15
100
AcDbEntity
 67
     1
  8
ﾀｲﾄﾙ枠
  6
Continuous
370
    40
100
AcDbLine
 10
378.0134172176021
 20
10.84110303881504
 30
0.0
 11
378.0134172176021
 21
12.43329660505537
 31
0.0
  0
LINE
  5
2760
330
15
100
AcDbEntity
 67
     1
  8
ﾀｲﾄﾙ枠
  6
Continuous
370
    40
100
AcDbLine
 10
381.7834172176021
 20
14.26329660505536
 30
0.0
 11
381.7834172176021
 21
14.11329660505538
 31
0.0
  0
LINE
  5
2761
330
15
100
AcDbEntity
 67
     1
  8
ﾀｲﾄﾙ枠
  6
Continuous
370
    40
100
AcDbLine
 10
380.2878232938204
 20
14.5232966050554
 30
0.0
 11
380.6415442240531
 21
13.35329660505539
 31
0.0
  0
LINE
  5
2762
330
15
100
AcDbEntity
 67
     1
  8
ﾀｲﾄﾙ枠
  6
Continuous
370
    40
100
AcDbLine
 10
379.7338948623141
 20
13.35329660505539
 30
0.0
 11
379.3801739320814
 21
14.5232966050554
 31
0.0
  0
LINE
  5
2763
330
15
100
AcDbEntity
 67
     1
  8
ﾀｲﾄﾙ枠
  6
Continuous
370
    40
100
AcDbLine
 10
379.3801739320814
 20
14.5232966050554
 30
0.0
 11
380.2878232938204
 21
14.5232966050554
 31
0.0
  0
LINE
  5
2764
330
15
100
AcDbEntity
 67
     1
  8
ﾀｲﾄﾙ枠
  6
Continuous
370
    40
100
AcDbLine
 10
381.2434172176021
 20
14.11329660505538
 30
0.0
 11
381.2434172176021
 21
14.26329660505536
 31
0.0
  0
LINE
  5
2765
330
15
100
AcDbEntity
 67
     1
  8
ﾀｲﾄﾙ枠
  6
Continuous
370
    40
100
AcDbLine
 10
379.1834172176021
 20
10.98150303881505
 30
0.0
 11
379.1834172176021
 21
10.03824758073506
 31
0.0
  0
LINE
  5
2766
330
15
100
AcDbEntity
 67
     1
  8
ﾀｲﾄﾙ枠
  6
Continuous
370
    40
100
AcDbLine
 10
380.9190111413838
 20
9.433296605055375
 30
0.0
 11
379.7399413739418
 21
13.33329660505535
 31
0.0
  0
LINE
  5
2767
330
15
100
AcDbEntity
 67
     1
  8
ﾀｲﾄﾙ枠
  6
Continuous
370
    40
100
AcDbLine
 10
379.9007810407053
 20
14.30240088248348
 30
0.0
 11
381.3060533944989
 21
9.654192327627299
 31
0.0
  0
LINE
  5
2768
330
15
100
AcDbEntity
 67
     1
  8
ﾀｲﾄﾙ枠
  6
Continuous
370
    40
100
AcDbLine
 10
380.1315510840542
 20
14.30240088248348
 30
0.0
 11
381.536823437848
 21
9.654192327627299
 31
0.0
  0
LINE
  5
2769
330
15
100
AcDbEntity
 67
     1
  8
ﾀｲﾄﾙ枠
  6
Continuous
370
    40
100
AcDbLine
 10
379.6700109973562
 20
14.30240088248348
 30
0.0
 11
381.0752833511498
 21
9.654192327627299
 31
0.0
  0
LINE
  5
276A
330
15
100
AcDbEntity
 67
     1
  8
ﾀｲﾄﾙ枠
  6
Continuous
370
    40
100
AcDbLine
 10
380.6475907356811
 20
13.33329660505535
 30
0.0
 11
381.8266605031228
 21
9.433296605055375
 31
0.0
  0
LINE
  5
276B
330
15
100
AcDbEntity
 67
     1
  8
ﾀｲﾄﾙ枠
  6
Continuous
370
    40
100
AcDbLine
 10
381.8266605031228
 20
9.433296605055375
 30
0.0
 11
380.9190111413838
 21
9.433296605055375
 31
0.0
  0
LINE
  5
276C
330
15
100
AcDbEntity
 67
     1
  8
ﾀｲﾄﾙ枠
  6
Continuous
370
    40
100
AcDbLine
 10
381.7834172176021
 20
14.11329660505538
 30
0.0
 11
381.2434172176021
 21
14.11329660505538
 31
0.0
  0
LINE
  5
276D
330
15
100
AcDbEntity
 67
     1
  8
ﾀｲﾄﾙ枠
  6
Continuous
370
    40
100
AcDbLine
 10
381.2434172176021
 20
14.26329660505536
 30
0.0
 11
381.7834172176021
 21
14.26329660505536
 31
0.0
  0
LINE
  5
276E
330
15
100
AcDbEntity
 67
     1
  8
ﾀｲﾄﾙ枠
  6
Continuous
370
    40
100
AcDbLine
 10
377.6134172176021
 20
12.18329660505537
 30
0.0
 11
377.6134172176021
 21
10.79310303881504
 31
0.0
  0
LINE
  5
276F
330
15
100
AcDbEntity
 67
     1
  8
ﾀｲﾄﾙ枠
  6
Continuous
370
    40
100
AcDbLine
 10
376.4334172176021
 20
9.488247580735048
 30
0.0
 11
376.4334172176021
 21
10.65150303881506
 31
0.0
  0
LINE
  5
2770
330
15
100
AcDbEntity
 67
     1
  8
ﾀｲﾄﾙ枠
  6
Continuous
370
    40
100
AcDbLine
 10
377.2134172176021
 20
10.74510303881504
 30
0.0
 11
377.2134172176021
 21
12.43329660505537
 31
0.0
  0
LINE
  5
2771
330
15
100
AcDbEntity
 67
     1
  8
ﾀｲﾄﾙ枠
  6
Continuous
370
    40
100
AcDbLine
 10
379.1834172176021
 20
12.43329660505537
 30
0.0
 11
376.4334172176021
 21
12.43329660505537
 31
0.0
  0
LINE
  5
2772
330
15
100
AcDbEntity
 67
     1
  8
ﾀｲﾄﾙ枠
  6
Continuous
370
    40
100
AcDbLine
 10
379.1834172176021
 20
10.03824758073506
 30
0.0
 11
376.4334172176021
 21
9.488247580735048
 31
0.0
  0
LINE
  5
2773
330
15
100
AcDbEntity
 67
     1
  8
ﾀｲﾄﾙ枠
  6
Continuous
370
    40
100
AcDbLine
 10
376.4334172176021
 20
10.65150303881506
 30
0.0
 11
379.1834172176021
 21
10.98150303881505
 31
0.0
  0
LINE
  5
2774
330
15
100
AcDbEntity
 67
     1
  8
ﾀｲﾄﾙ枠
  6
Continuous
370
    40
100
AcDbLine
 10
378.9334172176021
 20
10.46987530977503
 30
0.0
 11
376.6834172176021
 21
10.10987530977502
 31
0.0
  0
LINE
  5
2775
330
15
100
AcDbEntity
 67
     1
  8
ﾀｲﾄﾙ枠
  6
Continuous
370
    40
100
AcDbLine
 10
378.8985177917006
 20
10.68799672165914
 30
0.0
 11
376.6485177917006
 21
10.32799672165913
 31
0.0
  0
LINE
  5
2776
330
15
100
AcDbEntity
 67
     1
  8
ﾀｲﾄﾙ枠
  6
Continuous
370
    40
100
AcDbLine
 10
378.9683166435036
 20
10.25175389789092
 30
0.0
 11
376.7183166435036
 21
9.891753897890964
 31
0.0
  0
LINE
  5
2777
330
15
100
AcDbEntity
 67
     1
  8
ﾀｲﾄﾙ枠
  6
Continuous
370
    40
100
AcDbLine
 10
376.4334172176021
 20
13.3432966050554
 30
0.0
 11
381.7834172176021
 21
13.3432966050554
 31
0.0
  0
LINE
  5
2778
330
15
100
AcDbEntity
 67
     1
  8
ﾀｲﾄﾙ枠
  6
Continuous
370
    40
100
AcDbLine
 10
387.3883029519664
 20
14.5232966050554
 30
0.0
 11
389.4134172176021
 21
13.39161510367068
 31
0.0
  0
LINE
  5
2779
330
15
100
AcDbEntity
 67
     1
  8
ﾀｲﾄﾙ枠
  6
Continuous
370
    40
100
AcDbLine
 10
389.4134172176021
 20
13.39161510367068
 30
0.0
 11
389.4134172176021
 21
12.64280510224273
 31
0.0
  0
LINE
  5
277A
330
15
100
AcDbEntity
 67
     1
  8
ﾀｲﾄﾙ枠
  6
Continuous
370
    40
100
AcDbLine
 10
389.4134172176021
 20
12.64280510224273
 30
0.0
 11
386.6734172176021
 21
14.01280510224273
 31
0.0
  0
LINE
  5
277B
330
15
100
AcDbEntity
 67
     1
  8
ﾀｲﾄﾙ枠
  6
Continuous
370
    40
100
AcDbLine
 10
386.445590221799
 20
14.2732966050554
 30
0.0
 11
386.9012442134051
 21
14.2732966050554
 31
0.0
  0
LINE
  5
277C
330
15
100
AcDbEntity
 67
     1
  8
ﾀｲﾄﾙ枠
  6
Continuous
370
    40
100
AcDbLine
 10
386.9012442134051
 20
14.2732966050554
 30
0.0
 11
389.1634172176021
 21
13.14221010295671
 31
0.0
  0
LINE
  5
277D
330
15
100
AcDbEntity
 67
     1
  8
ﾀｲﾄﾙ枠
  6
Continuous
370
    40
100
AcDbLine
 10
388.3734172176021
 20
12.37829660505536
 30
0.0
 11
388.3734172176021
 21
12.48829660505538
 31
0.0
  0
LINE
  5
277E
330
15
100
AcDbEntity
 67
     1
  8
ﾀｲﾄﾙ枠
  6
Continuous
370
    40
100
AcDbLine
 10
387.499974970414
 20
11.51329660505535
 30
0.0
 11
389.1387249704141
 21
9.443296605055365
 31
0.0
  0
LINE
  5
277F
330
15
100
AcDbEntity
 67
     1
  8
ﾀｲﾄﾙ枠
  6
Continuous
370
    40
100
AcDbLine
 10
386.7864427981231
 20
11.5232966050554
 30
0.0
 11
388.4331094647901
 21
9.443296605055365
 31
0.0
  0
LINE
  5
2780
330
15
100
AcDbEntity
 67
     1
  8
ﾀｲﾄﾙ枠
  6
Continuous
370
    40
100
AcDbLine
 10
388.5800838842687
 20
9.703296605055356
 30
0.0
 11
387.2830942173515
 21
11.34159934221406
 31
0.0
  0
LINE
  5
2781
330
15
100
AcDbEntity
 67
     1
  8
ﾀｲﾄﾙ枠
  6
Continuous
370
    40
100
AcDbLine
 10
383.9334172176021
 20
12.64280510224273
 30
0.0
 11
383.9334172176021
 21
13.39161510367068
 31
0.0
  0
LINE
  5
2782
330
15
100
AcDbEntity
 67
     1
  8
ﾀｲﾄﾙ枠
  6
Continuous
370
    40
100
AcDbLine
 10
384.9734172176021
 20
12.48829660505538
 30
0.0
 11
384.9734172176021
 21
12.37829660505536
 31
0.0
  0
LINE
  5
2783
330
15
100
AcDbEntity
 67
     1
  8
ﾀｲﾄﾙ枠
  6
Continuous
370
    40
100
AcDbLine
 10
383.9334172176021
 20
13.39161510367068
 30
0.0
 11
385.9585314832378
 21
14.5232966050554
 31
0.0
  0
LINE
  5
2784
330
15
100
AcDbEntity
 67
     1
  8
ﾀｲﾄﾙ枠
  6
Continuous
370
    40
100
AcDbLine
 10
384.2081094647898
 20
9.443296605055365
 30
0.0
 11
385.8468594647901
 21
11.51329660505535
 31
0.0
  0
LINE
  5
2785
330
15
100
AcDbEntity
 67
     1
  8
ﾀｲﾄﾙ枠
  6
Continuous
370
    40
100
AcDbLine
 10
386.0637402178527
 20
11.34159934221406
 30
0.0
 11
384.7667505509354
 21
9.703296605055356
 31
0.0
  0
LINE
  5
2786
330
15
100
AcDbEntity
 67
     1
  8
ﾀｲﾄﾙ枠
  6
Continuous
370
    40
100
AcDbLine
 10
385.9585314832378
 20
14.5232966050554
 30
0.0
 11
387.3883029519664
 21
14.5232966050554
 31
0.0
  0
LINE
  5
2787
330
15
100
AcDbEntity
 67
     1
  8
ﾀｲﾄﾙ枠
  6
Continuous
370
    40
100
AcDbLine
 10
389.4134172176021
 20
11.5232966050554
 30
0.0
 11
383.9334172176021
 21
11.5232966050554
 31
0.0
  0
LINE
  5
2788
330
15
100
AcDbEntity
 67
     1
  8
ﾀｲﾄﾙ枠
  6
Continuous
370
    40
100
AcDbLine
 10
386.6734172176021
 20
14.01280510224273
 30
0.0
 11
383.9334172176021
 21
12.64280510224273
 31
0.0
  0
LINE
  5
2789
330
15
100
AcDbEntity
 67
     1
  8
ﾀｲﾄﾙ枠
  6
Continuous
370
    40
100
AcDbLine
 10
384.1834172176021
 20
13.14221010295671
 30
0.0
 11
386.445590221799
 21
14.2732966050554
 31
0.0
  0
LINE
  5
278A
330
15
100
AcDbEntity
 67
     1
  8
ﾀｲﾄﾙ枠
  6
Continuous
370
    40
100
AcDbLine
 10
388.3734172176021
 20
12.48829660505538
 30
0.0
 11
384.9734172176021
 21
12.48829660505538
 31
0.0
  0
LINE
  5
278B
330
15
100
AcDbEntity
 67
     1
  8
ﾀｲﾄﾙ枠
  6
Continuous
370
    40
100
AcDbLine
 10
384.9734172176021
 20
12.37829660505536
 30
0.0
 11
388.3734172176021
 21
12.37829660505536
 31
0.0
  0
LINE
  5
278C
330
15
100
AcDbEntity
 67
     1
  8
ﾀｲﾄﾙ枠
  6
Continuous
370
    40
100
AcDbLine
 10
389.1387249704141
 20
9.443296605055365
 30
0.0
 11
384.2081094647898
 21
9.443296605055365
 31
0.0
  0
LINE
  5
278D
330
15
100
AcDbEntity
 67
     1
  8
ﾀｲﾄﾙ枠
  6
Continuous
370
    40
100
AcDbLine
 10
384.9137249704144
 20
9.443296605055365
 30
0.0
 11
386.5603916370811
 21
11.5232966050554
 31
0.0
  0
TEXT
  5
278E
330
15
100
AcDbEntity
 67
     1
  8
ﾀｲﾄﾙ枠
100
AcDbText
 10
382.8639914432902
 20
28.11690736507701
 30
0.0
 40
2.5
  1
尺 度
 50
270.0
  7
明朝TATE
 72
     4
 11
384.1420813309307
 21
23.97364893811072
 31
0.0
100
AcDbText
  0
LINE
  5
278F
330
15
100
AcDbEntity
 67
     1
  8
ﾀｲﾄﾙ枠
  6
Continuous
370
    40
100
AcDbLine
 10
395.2034172176021
 20
14.5232966050554
 30
0.0
 11
396.1334172176021
 21
14.5232966050554
 31
0.0
  0
LINE
  5
2790
330
15
100
AcDbEntity
 67
     1
  8
ﾀｲﾄﾙ枠
  6
Continuous
370
    40
100
AcDbLine
 10
394.6834172176021
 20
12.82329660505536
 30
0.0
 11
397.0434172176021
 21
12.82329660505536
 31
0.0
  0
LINE
  5
2791
330
15
100
AcDbEntity
 67
     1
  8
ﾀｲﾄﾙ枠
  6
Continuous
370
    40
100
AcDbLine
 10
397.1734172176021
 20
9.378296605055368
 30
0.0
 11
394.5534172176021
 21
9.378296605055368
 31
0.0
  0
LINE
  5
2792
330
15
100
AcDbEntity
 67
     1
  8
ﾀｲﾄﾙ枠
  6
Continuous
370
    40
100
AcDbLine
 10
395.2034172176021
 20
9.378296605055368
 30
0.0
 11
395.2034172176021
 21
14.5232966050554
 31
0.0
  0
LINE
  5
2793
330
15
100
AcDbEntity
 67
     1
  8
ﾀｲﾄﾙ枠
  6
Continuous
370
    40
100
AcDbLine
 10
396.1334172176021
 20
14.5232966050554
 30
0.0
 11
396.1334172176021
 21
9.378296605055368
 31
0.0
  0
LINE
  5
2794
330
15
100
AcDbEntity
 67
     1
  8
ﾀｲﾄﾙ枠
  6
Continuous
370
    40
100
AcDbLine
 10
395.6684172176021
 20
9.628296605055368
 30
0.0
 11
395.6684172176021
 21
14.2732966050554
 31
0.0
  0
LINE
  5
2795
330
15
100
AcDbEntity
 67
     1
  8
ﾀｲﾄﾙ枠
  6
Continuous
370
    40
100
AcDbLine
 10
395.8684172176021
 20
9.628296605055368
 30
0.0
 11
395.8684172176021
 21
14.2732966050554
 31
0.0
  0
LINE
  5
2796
330
15
100
AcDbEntity
 67
     1
  8
ﾀｲﾄﾙ枠
  6
Continuous
370
    40
100
AcDbLine
 10
395.4684172176021
 20
9.628296605055368
 30
0.0
 11
395.4684172176021
 21
14.2732966050554
 31
0.0
  0
LINE
  5
2797
330
15
100
AcDbEntity
 67
     1
  8
ﾀｲﾄﾙ枠
  6
Continuous
370
    40
100
AcDbLine
 10
394.1080143059977
 20
10.2132966050554
 30
0.0
 11
393.9527725590354
 21
10.2132966050554
 31
0.0
  0
LINE
  5
2798
330
15
100
AcDbEntity
 67
     1
  8
ﾀｲﾄﾙ枠
  6
Continuous
370
    40
100
AcDbLine
 10
391.5302736892828
 20
10.2132966050554
 30
0.0
 11
391.6883875722911
 21
10.2132966050554
 31
0.0
  0
LINE
  5
2799
330
15
100
AcDbEntity
 67
     1
  8
ﾀｲﾄﾙ枠
  6
Continuous
370
    40
100
AcDbLine
 10
392.0136070226161
 20
11.66329660505539
 30
0.0
 11
391.5302736892828
 21
10.2132966050554
 31
0.0
  0
LINE
  5
279A
330
15
100
AcDbEntity
 67
     1
  8
ﾀｲﾄﾙ枠
  6
Continuous
370
    40
100
AcDbLine
 10
393.7934172176021
 20
12.82329660505536
 30
0.0
 11
391.6934172176021
 21
12.82329660505536
 31
0.0
  0
LINE
  5
279B
330
15
100
AcDbEntity
 67
     1
  8
ﾀｲﾄﾙ枠
  6
Continuous
370
    40
100
AcDbLine
 10
393.7213476393311
 20
11.66329660505539
 30
0.0
 11
393.2734172176021
 21
11.66329660505539
 31
0.0
  0
LINE
  5
279C
330
15
100
AcDbEntity
 67
     1
  8
ﾀｲﾄﾙ枠
  6
Continuous
370
    40
100
AcDbLine
 10
392.473417217602
 20
11.66329660505539
 30
0.0
 11
392.0136070226161
 21
11.66329660505539
 31
0.0
  0
LINE
  5
279D
330
15
100
AcDbEntity
 67
     1
  8
ﾀｲﾄﾙ枠
  6
Continuous
370
    40
100
AcDbLine
 10
391.9534172176021
 20
14.51329660505535
 30
0.0
 11
393.6634172176021
 21
14.51329660505535
 31
0.0
  0
LINE
  5
279E
330
15
100
AcDbEntity
 67
     1
  8
ﾀｲﾄﾙ枠
  6
Continuous
370
    40
100
AcDbLine
 10
392.473417217602
 20
9.433296605055375
 30
0.0
 11
393.2734172176021
 21
9.433296605055375
 31
0.0
  0
LINE
  5
279F
330
15
100
AcDbEntity
 67
     1
  8
ﾀｲﾄﾙ枠
  6
Continuous
370
    40
100
AcDbLine
 10
392.473417217602
 20
12.82329660505536
 30
0.0
 11
392.473417217602
 21
9.433296605055375
 31
0.0
  0
LINE
  5
27A0
330
15
100
AcDbEntity
 67
     1
  8
ﾀｲﾄﾙ枠
  6
Continuous
370
    40
100
AcDbLine
 10
393.2734172176021
 20
9.433296605055375
 30
0.0
 11
393.2734172176021
 21
12.82329660505536
 31
0.0
  0
LINE
  5
27A1
330
15
100
AcDbEntity
 67
     1
  8
ﾀｲﾄﾙ枠
  6
Continuous
370
    40
100
AcDbLine
 10
392.8734172176021
 20
12.57329660505536
 30
0.0
 11
392.8734172176021
 21
9.683296605055375
 31
0.0
  0
LINE
  5
27A2
330
15
100
AcDbEntity
 67
     1
  8
ﾀｲﾄﾙ枠
  6
Continuous
370
    40
100
AcDbLine
 10
391.6883875722911
 20
10.2132966050554
 30
0.0
 11
392.1717209056244
 21
11.66329660505539
 31
0.0
  0
LINE
  5
27A3
330
15
100
AcDbEntity
 67
     1
  8
ﾀｲﾄﾙ枠
  6
Continuous
370
    40
100
AcDbLine
 10
393.0734172176021
 20
12.57329660505536
 30
0.0
 11
393.0734172176021
 21
9.683296605055375
 31
0.0
  0
LINE
  5
27A4
330
15
100
AcDbEntity
 67
     1
  8
ﾀｲﾄﾙ枠
  6
Continuous
370
    40
100
AcDbLine
 10
392.6734172176021
 20
12.57329660505536
 30
0.0
 11
392.6734172176021
 21
9.683296605055375
 31
0.0
  0
LINE
  5
27A5
330
15
100
AcDbEntity
 67
     1
  8
ﾀｲﾄﾙ枠
  6
Continuous
370
    40
100
AcDbLine
 10
393.9527725590354
 20
10.2132966050554
 30
0.0
 11
393.5661058923684
 21
11.66329660505539
 31
0.0
  0
LINE
  5
27A6
330
15
100
AcDbEntity
 67
     1
  8
ﾀｲﾄﾙ枠
  6
Continuous
370
    40
100
AcDbLine
 10
393.7213476393311
 20
11.66329660505539
 30
0.0
 11
394.1080143059977
 21
10.2132966050554
 31
0.0
  0
ENDSEC
  0
SECTION
  2
OBJECTS
  0
DICTIONARY
  5
C
330
0
100
AcDbDictionary
281
     1
  3
ACAD_GROUP
350
D
  3
ACAD_LAYOUT
350
1F52
  3
ACAD_MLINESTYLE
350
1B
  3
ACAD_PLOTSETTINGS
350
1F53
  3
ACAD_PLOTSTYLENAME
350
1F50
  3
ACDBVARIABLEDICTIONARY
350
2CE
  3
CONTENTDICTIONARY
350
23
  0
DICTIONARY
  5
24EC
330
2
100
AcDbDictionary
280
     1
281
     1
  3
ACAD_LAYERFILTERS
360
24ED
  0
DICTIONARY
  5
D
102
{ACAD_REACTORS
330
C
102
}
330
C
100
AcDbDictionary
281
     1
  0
DICTIONARY
  5
1F52
102
{ACAD_REACTORS
330
C
102
}
330
C
100
AcDbDictionary
281
     1
  3
Model
350
1F54
  3
ﾚｲｱｳﾄ1
350
1F55
  0
DICTIONARY
  5
1B
102
{ACAD_REACTORS
330
C
102
}
330
C
100
AcDbDictionary
281
     1
  3
STANDARD
350
1C
  0
DICTIONARY
  5
1F53
102
{ACAD_REACTORS
330
C
102
}
330
C
100
AcDbDictionary
281
     1
  0
ACDBDICTIONARYWDFLT
  5
1F50
102
{ACAD_REACTORS
330
C
102
}
330
C
100
AcDbDictionary
281
     1
  3
Normal
350
1F51
100
AcDbDictionaryWithDefault
340
1F51
  0
DICTIONARY
  5
2CE
102
{ACAD_REACTORS
330
C
102
}
330
C
100
AcDbDictionary
281
     1
  3
DIMADEC
350
2CF
  3
SORTENTS
350
1857
  0
DICTIONARY
  5
23
102
{ACAD_REACTORS
330
C
102
}
330
C
100
AcDbDictionary
281
     1
  0
DICTIONARY
  5
24ED
102
{ACAD_REACTORS
330
24EC
102
}
330
24EC
100
AcDbDictionary
280
     1
281
     1
  3
\U+663E示所有\U+56FE\U+5C42
360
24EE
  3
\U+9EC3色
360
24EF
  3
1
360
24F0
  3
1-L
360
24F1
  3
1stFloor
360
24F2
  3
2
360
24F3
  3
200
360
24F4
  3
2ndFloor
360
24F5
  3
3
360
24F6
  3
400
360
24F7
  3
A
360
24F8
  3
A-
360
24F9
  3
A-ELEV
360
24FA
  3
ac
360
24FB
  3
ALL-TXT
360
24FC
  3
ap平面圖
360
24FD
  3
AR-TXT
360
24FE
  3
ARCHITECTS
360
24FF
  3
area
360
2500
  3
asd
360
2501
  3
B
360
2502
  3
Basci
360
2503
  3
base_map
360
2504
  3
BB
360
2505
  3
BLUE
360
2506
  3
boun地籍資料
360
2507
  3
BROWNLINES
360
2508
  3
BW-TXT
360
2509
  3
C-
360
250A
  3
CEILING
360
250B
  3
cloud
360
250C
  3
co
360
250D
  3
co-
360
250E
  3
color-7
360
250F
  3
columns-propose
360
2510
  3
columns-proposed
360
2511
  3
Combo
360
2512
  3
complete-services
360
2513
  3
CONSTRUCTION-DOC
360
2514
  3
cont整地
360
2515
  3
Core
360
2516
  3
CSD
360
2517
  3
CSD-TXT
360
2518
  3
CYAN
360
2519
  3
ｄ
360
27CA
  3
D
360
251B
  3
dim尺寸
360
251C
  3
dnf
360
251D
  3
drain
360
251E
  3
DT
360
251F
  3
DW-GRID
360
2520
  3
electrical
360
2521
  3
ELEV
360
2522
  3
es立剖面
360
2523
  3
extg
360
2524
  3
EXTG-~
360
2525
  3
F.S.
360
2526
  3
fire
360
2527
  3
fireline
360
2528
  3
floor layout
360
2529
  3
Freeze
360
252A
  3
Frez
360
252B
  3
FROOZEN
360
252C
  3
FROZEN
360
252D
  3
FS
360
252E
  3
FUR
360
252F
  3
furn\U+50A2\U+4FF1
360
2530
  3
furniture
360
2531
  3
GREEN
360
2532
  3
Grid
360
2533
  3
Grid and Fireline
360
2534
  3
hatches
360
2535
  3
hat鋪面質感
360
2536
  3
hd
360
2537
  3
ian1
360
2538
  3
ian2
360
2539
  3
ian3
360
253A
  3
idx索引圖
360
253B
  3
ims
360
253C
  3
Karsten
360
253D
  3
L-TEMP
360
253E
  3
LANDSCAP
360
253F
  3
LANDSCAPE
360
2540
  3
law法規檢討
360
2541
  3
lea
360
2542
  3
list表格
360
2543
  3
MAGENTA
360
2544
  3
move
360
2545
  3
N
360
2546
  3
Off
360
2547
  3
P
360
2548
  3
Pen weight
360
2549
  3
PHA
360
254A
  3
poche
360
254B
  3
PORT
360
254C
  3
R
360
254D
  3
RAIL
360
254E
  3
RED
360
254F
  3
S
360
2550
  3
search
360
2551
  3
sec
360
2552
  3
section
360
2553
  3
Show all thawed Layers
360
2554
  3
show all thawed no xref
360
2555
  3
Show No xref layers
360
2556
  3
ｓｉｔｅ
360
2557
  3
Site
360
27CB
  3
ST-UG-OL
360
2559
  3
stair
360
255A
  3
sta樓梯
360
255B
  3
sym符號
360
255C
  3
t
360
255D
  3
test
360
255E
  3
TEXT
360
255F
  3
TEXT-0NLY
360
2560
  3
TEXT-ONLY
360
2561
  3
text文字
360
2562
  3
TL
360
2563
  3
toil衛浴
360
2564
  3
txt
360
2565
  3
TXT-BW
360
2566
  3
unlock all layers
360
2567
  3
VP THAW
360
2568
  3
vsit景觀環境
360
2569
  3
W
360
256A
  3
WA
360
256B
  3
walk-distance
360
256C
  3
WALL
360
256D
  3
WALL-90
360
256E
  3
wd門窗
360
256F
  3
WHITE
360
2570
  3
WIN
360
2571
  3
YELLOW
360
2572
  3
ｚｚｚ
360
2573
  3
ZZZ
360
27CC
  3
紅色
360
2575
  3
青色
360
2576
  3
白色
360
2577
  0
LAYOUT
  5
1F54
102
{ACAD_REACTORS
330
1F52
102
}
330
1F52
100
AcDbPlotSettings
  1

  2
\\YOSHISV\LP-8300C
  4

  6

 40
0.0
 41
0.0
 42
0.0
 43
0.0
 44
0.0
 45
0.0
 46
0.0
 47
0.0
 48
0.0
 49
0.0
140
0.0
141
0.0
142
1.0
143
1.0
 70
  1712
 72
     0
 73
     0
 74
     0
  7

 75
     0
147
1.0
148
0.0
149
0.0
100
AcDbLayout
  1
Model
 70
     1
 71
     0
 10
0.0
 20
0.0
 11
12.0
 21
9.0
 12
0.0
 22
0.0
 32
0.0
 14
0.0
 24
0.0
 34
0.0
 15
0.0
 25
0.0
 35
0.0
146
0.0
 13
0.0
 23
0.0
 33
0.0
 16
1.0
 26
0.0
 36
0.0
 17
0.0
 27
1.0
 37
0.0
 76
     0
330
18
  0
LAYOUT
  5
1F55
102
{ACAD_REACTORS
330
1F52
102
}
330
1F52
100
AcDbPlotSettings
  1

  2
Acrobat Distiller
  4
A3
  6

 40
3.174999952316284
 41
3.174999952316284
 42
3.17498779296875
 43
3.17498779296875
 44
297.0318298339843
 45
420.1583251953125
 46
0.0
 47
0.0
 48
0.0
 49
0.0
140
0.0
141
0.0
142
1.0
143
1.0
 70
   688
 72
     1
 73
     1
 74
     5
  7
monochrome.ctb
 75
    16
147
1.0
148
0.0
149
0.0
100
AcDbLayout
  1
ﾚｲｱｳﾄ1
 70
     1
 71
     1
 10
-3.17498779296875
 20
-3.174999952316284
 11
416.9833374023437
 21
293.856829881668
 12
0.0
 22
0.0
 32
0.0
 14
23.64208133093075
 24
5.973648938110727
 34
0.0
 15
409.6420813309307
 25
285.9736489381107
 35
0.0
146
0.0
 13
0.0
 23
0.0
 33
0.0
 16
1.0
 26
0.0
 36
0.0
 17
0.0
 27
1.0
 37
0.0
 76
     0
330
15
331
47
  0
MLINESTYLE
  5
1C
102
{ACAD_REACTORS
330
1B
102
}
330
1B
100
AcDbMlineStyle
  2
STANDARD
 70
     0
  3

 62
   256
 51
90.0
 52
90.0
 71
     2
 49
0.5
 62
   256
  6
BYLAYER
 49
-0.5
 62
   256
  6
BYLAYER
  0
ACDBPLACEHOLDER
  5
1F51
102
{ACAD_REACTORS
330
1F50
102
}
330
1F50
  0
DICTIONARYVAR
  5
2CF
102
{ACAD_REACTORS
330
2CE
102
}
330
2CE
100
DictionaryVariables
280
     0
  1
0
  0
DICTIONARYVAR
  5
1857
102
{ACAD_REACTORS
330
2CE
102
}
330
2CE
100
DictionaryVariables
280
     0
  1
96
  0
XRECORD
  5
24EE
102
{ACAD_REACTORS
330
24ED
102
}
330
24ED
100
AcDbXrecord
280
     1
  1
\U+663E示所有\U+56FE\U+5C42
  1
\U+5899
  1
*
  1
*
 70
     0
  1
*
  1
*
  0
XRECORD
  5
24EF
102
{ACAD_REACTORS
330
24ED
102
}
330
24ED
100
AcDbXrecord
280
     1
  1
\U+9EC3色
  1
*
  1
yellow*
  1
*
 70
     0
  1
*
  1
*
  0
XRECORD
  5
24F0
102
{ACAD_REACTORS
330
24ED
102
}
330
24ED
100
AcDbXrecord
280
     1
  1
1
  1
*
  1
*
  1
*
 70
     1
  1
*
  1
*
  0
XRECORD
  5
24F1
102
{ACAD_REACTORS
330
24ED
102
}
330
24ED
100
AcDbXrecord
280
     1
  1
1-L
  1
*
  1
*
  1
*
 70
     0
  1
*
  1
*
  0
XRECORD
  5
24F2
102
{ACAD_REACTORS
330
24ED
102
}
330
24ED
100
AcDbXrecord
280
     1
  1
1stFloor
  1
*F1
  1
*
  1
*
 70
     0
  1
*
  1
*
  0
XRECORD
  5
24F3
102
{ACAD_REACTORS
330
24ED
102
}
330
24ED
100
AcDbXrecord
280
     1
  1
2
  1
*
  1
*
  1
*
 70
   768
  1
*
  1
*
  0
XRECORD
  5
24F4
102
{ACAD_REACTORS
330
24ED
102
}
330
24ED
100
AcDbXrecord
280
     1
  1
200
  1
*200*
  1
*
  1
*
 70
     0
  1
*
  1
*
  0
XRECORD
  5
24F5
102
{ACAD_REACTORS
330
24ED
102
}
330
24ED
100
AcDbXrecord
280
     1
  1
2ndFloor
  1
*F2
  1
*
  1
*
 70
     0
  1
*
  1
*
  0
XRECORD
  5
24F6
102
{ACAD_REACTORS
330
24ED
102
}
330
24ED
100
AcDbXrecord
280
     1
  1
3
  1
*
  1
*
  1
*
 70
     0
  1
*
  1
*
  0
XRECORD
  5
24F7
102
{ACAD_REACTORS
330
24ED
102
}
330
24ED
100
AcDbXrecord
280
     1
  1
400
  1
*400*
  1
*
  1
*
 70
     0
  1
*
  1
*
  0
XRECORD
  5
24F8
102
{ACAD_REACTORS
330
24ED
102
}
330
24ED
100
AcDbXrecord
280
     1
  1
A
  1
*SOLID*
  1
*
  1
*
 70
     0
  1
*
  1
*
  0
XRECORD
  5
24F9
102
{ACAD_REACTORS
330
24ED
102
}
330
24ED
100
AcDbXrecord
280
     1
  1
A-
  1
*
  1
*
  1
*
 70
     0
  1
*
  1
*
  0
XRECORD
  5
24FA
102
{ACAD_REACTORS
330
24ED
102
}
330
24ED
100
AcDbXrecord
280
     1
  1
A-ELEV
  1
A-ELEV*
  1
*
  1
*
 70
     0
  1
*
  1
*
  0
XRECORD
  5
24FB
102
{ACAD_REACTORS
330
24ED
102
}
330
24ED
100
AcDbXrecord
280
     1
  1
ac
  1
*ac*
  1
*
  1
*
 70
     0
  1
*
  1
*
  0
XRECORD
  5
24FC
102
{ACAD_REACTORS
330
24ED
102
}
330
24ED
100
AcDbXrecord
280
     1
  1
ALL-TXT
  1
*TXT*
  1
*
  1
*
 70
     0
  1
*
  1
*
  0
XRECORD
  5
24FD
102
{ACAD_REACTORS
330
24ED
102
}
330
24ED
100
AcDbXrecord
280
     1
  1
ap平面圖
  1
ap*
  1
*
  1
*
 70
     0
  1
*
  1
*
  0
XRECORD
  5
24FE
102
{ACAD_REACTORS
330
24ED
102
}
330
24ED
100
AcDbXrecord
280
     1
  1
AR-TXT
  1
*TXT-CSD
  1
*
  1
*
 70
     0
  1
*
  1
*
  0
XRECORD
  5
24FF
102
{ACAD_REACTORS
330
24ED
102
}
330
24ED
100
AcDbXrecord
280
     1
  1
ARCHITECTS
  1
AR*
  1
*
  1
*
 70
     0
  1
*
  1
*
  0
XRECORD
  5
2500
102
{ACAD_REACTORS
330
24ED
102
}
330
24ED
100
AcDbXrecord
280
     1
  1
area
  1
area*
  1
*
  1
*
 70
     0
  1
*
  1
*
  0
XRECORD
  5
2501
102
{ACAD_REACTORS
330
24ED
102
}
330
24ED
100
AcDbXrecord
280
     1
  1
asd
  1
1389p00|*
  1
*
  1
*
 70
     0
  1
*
  1
*
  0
XRECORD
  5
2502
102
{ACAD_REACTORS
330
24ED
102
}
330
24ED
100
AcDbXrecord
280
     1
  1
B
  1
KK*
  1
*
  1
*
 70
     3
  1
*
  1
*
  0
XRECORD
  5
2503
102
{ACAD_REACTORS
330
24ED
102
}
330
24ED
100
AcDbXrecord
280
     1
  1
Basci
  1
*
  1
*
  1
*
 70
     0
  1
*
  1
*
  0
XRECORD
  5
2504
102
{ACAD_REACTORS
330
24ED
102
}
330
24ED
100
AcDbXrecord
280
     1
  1
base_map
  1
9*
  1
*
  1
*
 70
     0
  1
*
  1
*
  0
XRECORD
  5
2505
102
{ACAD_REACTORS
330
24ED
102
}
330
24ED
100
AcDbXrecord
280
     1
  1
BB
  1
*
  1
*
  1
*
 70
     0
  1
*
  1
*
  0
XRECORD
  5
2506
102
{ACAD_REACTORS
330
24ED
102
}
330
24ED
100
AcDbXrecord
280
     1
  1
BLUE
  1
*
  1
BLUE
  1
*
 70
     0
  1
*
  1
*
  0
XRECORD
  5
2507
102
{ACAD_REACTORS
330
24ED
102
}
330
24ED
100
AcDbXrecord
280
     1
  1
boun地籍資料
  1
boun*
  1
*
  1
*
 70
     0
  1
*
  1
*
  0
XRECORD
  5
2508
102
{ACAD_REACTORS
330
24ED
102
}
330
24ED
100
AcDbXrecord
280
     1
  1
BROWNLINES
  1
*
  1
*
  1
*
 70
     0
  1
*
  1
*
  0
XRECORD
  5
2509
102
{ACAD_REACTORS
330
24ED
102
}
330
24ED
100
AcDbXrecord
280
     1
  1
BW-TXT
  1
*TXT-BW
  1
*
  1
*
 70
     0
  1
*
  1
*
  0
XRECORD
  5
250A
102
{ACAD_REACTORS
330
24ED
102
}
330
24ED
100
AcDbXrecord
280
     1
  1
C-
  1
*
  1
*
  1
*
 70
     0
  1
*
  1
*
  0
XRECORD
  5
250B
102
{ACAD_REACTORS
330
24ED
102
}
330
24ED
100
AcDbXrecord
280
     1
  1
CEILING
  1
CEILING
  1
*
  1
*
 70
     4
  1
*
  1
*
  0
XRECORD
  5
250C
102
{ACAD_REACTORS
330
24ED
102
}
330
24ED
100
AcDbXrecord
280
     1
  1
cloud
  1
*cloud*
  1
*
  1
*
 70
     0
  1
*
  1
*
  0
XRECORD
  5
250D
102
{ACAD_REACTORS
330
24ED
102
}
330
24ED
100
AcDbXrecord
280
     1
  1
co
  1
*
  1
*
  1
*
 70
     0
  1
*
  1
*
  0
XRECORD
  5
250E
102
{ACAD_REACTORS
330
24ED
102
}
330
24ED
100
AcDbXrecord
280
     1
  1
co-
  1
*
  1
*
  1
*
 70
     0
  1
*
  1
*
  0
XRECORD
  5
250F
102
{ACAD_REACTORS
330
24ED
102
}
330
24ED
100
AcDbXrecord
280
     1
  1
color-7
  1
*
  1
7
  1
*
 70
     0
  1
*
  1
*
  0
XRECORD
  5
2510
102
{ACAD_REACTORS
330
24ED
102
}
330
24ED
100
AcDbXrecord
280
     1
  1
columns-propose
  1
*propose*
  1
*
  1
*
 70
     0
  1
*
  1
*
  0
XRECORD
  5
2511
102
{ACAD_REACTORS
330
24ED
102
}
330
24ED
100
AcDbXrecord
280
     1
  1
columns-proposed
  1
*propose*
  1
*
  1
*
 70
     0
  1
*
  1
*
  0
XRECORD
  5
2512
102
{ACAD_REACTORS
330
24ED
102
}
330
24ED
100
AcDbXrecord
280
     1
  1
Combo
  1
*Fc
  1
*
  1
*
 70
     0
  1
*
  1
*
  0
XRECORD
  5
2513
102
{ACAD_REACTORS
330
24ED
102
}
330
24ED
100
AcDbXrecord
280
     1
  1
complete-services
  1
*
  1
*
  1
*
 70
    13
  1
*
  1
*
  0
XRECORD
  5
2514
102
{ACAD_REACTORS
330
24ED
102
}
330
24ED
100
AcDbXrecord
280
     1
  1
CONSTRUCTION-DOC
  1
*
  1
*
  1
*
 70
     3
  1
*
  1
*
  0
XRECORD
  5
2515
102
{ACAD_REACTORS
330
24ED
102
}
330
24ED
100
AcDbXrecord
280
     1
  1
cont整地
  1
cont*
  1
*
  1
*
 70
     0
  1
*
  1
*
  0
XRECORD
  5
2516
102
{ACAD_REACTORS
330
24ED
102
}
330
24ED
100
AcDbXrecord
280
     1
  1
Core
  1
Core*
  1
*
  1
*
 70
     0
  1
*
  1
*
  0
XRECORD
  5
2517
102
{ACAD_REACTORS
330
24ED
102
}
330
24ED
100
AcDbXrecord
280
     1
  1
CSD
  1
csd*
  1
*
  1
*
 70
     0
  1
*
  1
*
  0
XRECORD
  5
2518
102
{ACAD_REACTORS
330
24ED
102
}
330
24ED
100
AcDbXrecord
280
     1
  1
CSD-TXT
  1
*TXT-CSD
  1
*
  1
*
 70
     0
  1
*
  1
*
  0
XRECORD
  5
2519
102
{ACAD_REACTORS
330
24ED
102
}
330
24ED
100
AcDbXrecord
280
     1
  1
CYAN
  1
*
  1
CYAN
  1
*
 70
     0
  1
*
  1
*
  0
XRECORD
  5
27CA
102
{ACAD_REACTORS
330
24ED
102
}
330
24ED
100
AcDbXrecord
280
     1
  1
ｄ
  1
ｄ*
  1
*
  1
*
 70
     0
  1
*
  1
*
  0
XRECORD
  5
251B
102
{ACAD_REACTORS
330
24ED
102
}
330
24ED
100
AcDbXrecord
280
     1
  1
D
  1
T_*$0$WALL*
  1
*
  1
*
 70
     0
  1
*
  1
*
  0
XRECORD
  5
251C
102
{ACAD_REACTORS
330
24ED
102
}
330
24ED
100
AcDbXrecord
280
     1
  1
dim尺寸
  1
dim*
  1
*
  1
*
 70
     0
  1
*
  1
*
  0
XRECORD
  5
251D
102
{ACAD_REACTORS
330
24ED
102
}
330
24ED
100
AcDbXrecord
280
     1
  1
dnf
  1
dnf*
  1
*
  1
*
 70
     0
  1
*
  1
*
  0
XRECORD
  5
251E
102
{ACAD_REACTORS
330
24ED
102
}
330
24ED
100
AcDbXrecord
280
     1
  1
drain
  1
ar-dr*
  1
*
  1
*
 70
     0
  1
*
  1
*
  0
XRECORD
  5
251F
102
{ACAD_REACTORS
330
24ED
102
}
330
24ED
100
AcDbXrecord
280
     1
  1
DT
  1
*DOOR*,*TEXT*
  1
*
  1
*
 70
     0
  1
*
  1
*
  0
XRECORD
  5
2520
102
{ACAD_REACTORS
330
24ED
102
}
330
24ED
100
AcDbXrecord
280
     1
  1
DW-GRID
  1
*DW-GRID
  1
*
  1
*
 70
     0
  1
*
  1
*
  0
XRECORD
  5
2521
102
{ACAD_REACTORS
330
24ED
102
}
330
24ED
100
AcDbXrecord
280
     1
  1
electrical
  1
elec*
  1
*
  1
*
 70
     0
  1
*
  1
*
  0
XRECORD
  5
2522
102
{ACAD_REACTORS
330
24ED
102
}
330
24ED
100
AcDbXrecord
280
     1
  1
ELEV
  1
EL_*
  1
*
  1
*
 70
    61
  1
*
  1
*
  0
XRECORD
  5
2523
102
{ACAD_REACTORS
330
24ED
102
}
330
24ED
100
AcDbXrecord
280
     1
  1
es立剖面
  1
es*
  1
*
  1
*
 70
     0
  1
*
  1
*
  0
XRECORD
  5
2524
102
{ACAD_REACTORS
330
24ED
102
}
330
24ED
100
AcDbXrecord
280
     1
  1
extg
  1
*extg*
  1
*
  1
*
 70
     0
  1
*
  1
*
  0
XRECORD
  5
2525
102
{ACAD_REACTORS
330
24ED
102
}
330
24ED
100
AcDbXrecord
280
     1
  1
EXTG-~
  1
*
  1
*
  1
*
 70
   256
  1
*
  1
*
  0
XRECORD
  5
2526
102
{ACAD_REACTORS
330
24ED
102
}
330
24ED
100
AcDbXrecord
280
     1
  1
F.S.
  1
3-*
  1
*
  1
*
 70
     0
  1
*
  1
*
  0
XRECORD
  5
2527
102
{ACAD_REACTORS
330
24ED
102
}
330
24ED
100
AcDbXrecord
280
     1
  1
fire
  1
*fire*
  1
*
  1
*
 70
     0
  1
*
  1
*
  0
XRECORD
  5
2528
102
{ACAD_REACTORS
330
24ED
102
}
330
24ED
100
AcDbXrecord
280
     1
  1
fireline
  1
fire*
  1
*
  1
*
 70
     0
  1
*
  1
*
  0
XRECORD
  5
2529
102
{ACAD_REACTORS
330
24ED
102
}
330
24ED
100
AcDbXrecord
280
     1
  1
floor layout
  1
*
  1
*
  1
*
 70
     0
  1
*
  1
*
  0
XRECORD
  5
252A
102
{ACAD_REACTORS
330
24ED
102
}
330
24ED
100
AcDbXrecord
280
     1
  1
Freeze
  1
*
  1
*
  1
*
 70
     4
  1
*
  1
*
  0
XRECORD
  5
252B
102
{ACAD_REACTORS
330
24ED
102
}
330
24ED
100
AcDbXrecord
280
     1
  1
Frez
  1
*Frez
  1
*
  1
*
 70
     0
  1
*
  1
*
  0
XRECORD
  5
252C
102
{ACAD_REACTORS
330
24ED
102
}
330
24ED
100
AcDbXrecord
280
     1
  1
FROOZEN
  1
*
  1
*
  1
*
 70
     4
  1
*
  1
*
  0
XRECORD
  5
252D
102
{ACAD_REACTORS
330
24ED
102
}
330
24ED
100
AcDbXrecord
280
     1
  1
FROZEN
  1
*
  1
*
  1
*
 70
     4
  1
*
  1
*
  0
XRECORD
  5
252E
102
{ACAD_REACTORS
330
24ED
102
}
330
24ED
100
AcDbXrecord
280
     1
  1
FS
  1
3-*
  1
*
  1
*
 70
     0
  1
*
  1
*
  0
XRECORD
  5
252F
102
{ACAD_REACTORS
330
24ED
102
}
330
24ED
100
AcDbXrecord
280
     1
  1
FUR
  1
*FUR*
  1
*
  1
*
 70
     0
  1
*
  1
*
  0
XRECORD
  5
2530
102
{ACAD_REACTORS
330
24ED
102
}
330
24ED
100
AcDbXrecord
280
     1
  1
furn\U+50A2\U+4FF1
  1
furn*
  1
*
  1
*
 70
     0
  1
*
  1
*
  0
XRECORD
  5
2531
102
{ACAD_REACTORS
330
24ED
102
}
330
24ED
100
AcDbXrecord
280
     1
  1
furniture
  1
fur*
  1
*
  1
*
 70
     0
  1
*
  1
*
  0
XRECORD
  5
2532
102
{ACAD_REACTORS
330
24ED
102
}
330
24ED
100
AcDbXrecord
280
     1
  1
GREEN
  1
*
  1
GREEN
  1
*
 70
     0
  1
*
  1
*
  0
XRECORD
  5
2533
102
{ACAD_REACTORS
330
24ED
102
}
330
24ED
100
AcDbXrecord
280
     1
  1
Grid
  1
Grid*
  1
*
  1
*
 70
     0
  1
*
  1
*
  0
XRECORD
  5
2534
102
{ACAD_REACTORS
330
24ED
102
}
330
24ED
100
AcDbXrecord
280
     1
  1
Grid and Fireline
  1
grid*
  1
*
  1
*
 70
     0
  1
*
  1
*
  0
XRECORD
  5
2535
102
{ACAD_REACTORS
330
24ED
102
}
330
24ED
100
AcDbXrecord
280
     1
  1
hatches
  1
*h*
  1
*
  1
*
 70
     0
  1
*
  1
*
  0
XRECORD
  5
2536
102
{ACAD_REACTORS
330
24ED
102
}
330
24ED
100
AcDbXrecord
280
     1
  1
hat鋪面質感
  1
hat*
  1
*
  1
*
 70
     0
  1
*
  1
*
  0
XRECORD
  5
2537
102
{ACAD_REACTORS
330
24ED
102
}
330
24ED
100
AcDbXrecord
280
     1
  1
hd
  1
hd*
  1
*
  1
*
 70
     0
  1
*
  1
*
  0
XRECORD
  5
2538
102
{ACAD_REACTORS
330
24ED
102
}
330
24ED
100
AcDbXrecord
280
     1
  1
ian1
  1
*door
  1
*
  1
*
 70
     0
  1
*
  1
*
  0
XRECORD
  5
2539
102
{ACAD_REACTORS
330
24ED
102
}
330
24ED
100
AcDbXrecord
280
     1
  1
ian2
  1
*w*d*
  1
*
  1
*
 70
     0
  1
*
  1
*
  0
XRECORD
  5
253A
102
{ACAD_REACTORS
330
24ED
102
}
330
24ED
100
AcDbXrecord
280
     1
  1
ian3
  1
*wall*
  1
*
  1
*
 70
     0
  1
*
  1
*
  0
XRECORD
  5
253B
102
{ACAD_REACTORS
330
24ED
102
}
330
24ED
100
AcDbXrecord
280
     1
  1
idx索引圖
  1
idx*
  1
*
  1
*
 70
     0
  1
*
  1
*
  0
XRECORD
  5
253C
102
{ACAD_REACTORS
330
24ED
102
}
330
24ED
100
AcDbXrecord
280
     1
  1
ims
  1
ims*
  1
*
  1
*
 70
     0
  1
*
  1
*
  0
XRECORD
  5
253D
102
{ACAD_REACTORS
330
24ED
102
}
330
24ED
100
AcDbXrecord
280
     1
  1
Karsten
  1
k-*
  1
*
  1
*
 70
     0
  1
*
  1
*
  0
XRECORD
  5
253E
102
{ACAD_REACTORS
330
24ED
102
}
330
24ED
100
AcDbXrecord
280
     1
  1
L-TEMP
  1
*L-TEMP
  1
*
  1
*
 70
     0
  1
*
  1
*
  0
XRECORD
  5
253F
102
{ACAD_REACTORS
330
24ED
102
}
330
24ED
100
AcDbXrecord
280
     1
  1
LANDSCAP
  1
L-*
  1
*
  1
*
 70
     0
  1
*
  1
*
  0
XRECORD
  5
2540
102
{ACAD_REACTORS
330
24ED
102
}
330
24ED
100
AcDbXrecord
280
     1
  1
LANDSCAPE
  1
L-*
  1
*
  1
*
 70
     0
  1
*
  1
*
  0
XRECORD
  5
2541
102
{ACAD_REACTORS
330
24ED
102
}
330
24ED
100
AcDbXrecord
280
     1
  1
law法規檢討
  1
law*
  1
*
  1
*
 70
     0
  1
*
  1
*
  0
XRECORD
  5
2542
102
{ACAD_REACTORS
330
24ED
102
}
330
24ED
100
AcDbXrecord
280
     1
  1
lea
  1
*lea*
  1
*
  1
*
 70
     0
  1
*
  1
*
  0
XRECORD
  5
2543
102
{ACAD_REACTORS
330
24ED
102
}
330
24ED
100
AcDbXrecord
280
     1
  1
list表格
  1
list*
  1
*
  1
*
 70
     0
  1
*
  1
*
  0
XRECORD
  5
2544
102
{ACAD_REACTORS
330
24ED
102
}
330
24ED
100
AcDbXrecord
280
     1
  1
MAGENTA
  1
*
  1
MAGENTA
  1
*
 70
     0
  1
*
  1
*
  0
XRECORD
  5
2545
102
{ACAD_REACTORS
330
24ED
102
}
330
24ED
100
AcDbXrecord
280
     1
  1
move
  1
*
  1
*
  1
*
 70
     0
  1
*
  1
*
  0
XRECORD
  5
2546
102
{ACAD_REACTORS
330
24ED
102
}
330
24ED
100
AcDbXrecord
280
     1
  1
N
  1
*NON-*
  1
*
  1
*
 70
     0
  1
*
  1
*
  0
XRECORD
  5
2547
102
{ACAD_REACTORS
330
24ED
102
}
330
24ED
100
AcDbXrecord
280
     1
  1
Off
  1
*
  1
*
  1
*
 70
     3
  1
*
  1
*
  0
XRECORD
  5
2548
102
{ACAD_REACTORS
330
24ED
102
}
330
24ED
100
AcDbXrecord
280
     1
  1
P
  1
*PAR*,*WIN*,*CURB*
  1
*
  1
*
 70
     0
  1
*
  1
*
  0
XRECORD
  5
2549
102
{ACAD_REACTORS
330
24ED
102
}
330
24ED
100
AcDbXrecord
280
     1
  1
Pen weight
  1
*
  1
*
  1
*
 70
     0
  1
*
  1
*
  0
XRECORD
  5
254A
102
{ACAD_REACTORS
330
24ED
102
}
330
24ED
100
AcDbXrecord
280
     1
  1
PHA
  1
*PHA*
  1
*
  1
*
 70
     0
  1
*
  1
*
  0
XRECORD
  5
254B
102
{ACAD_REACTORS
330
24ED
102
}
330
24ED
100
AcDbXrecord
280
     1
  1
poche
  1
*poch*
  1
*
  1
*
 70
     0
  1
*
  1
*
  0
XRECORD
  5
254C
102
{ACAD_REACTORS
330
24ED
102
}
330
24ED
100
AcDbXrecord
280
     1
  1
PORT
  1
*PORT
  1
*
  1
*
 70
     0
  1
*
  1
*
  0
XRECORD
  5
254D
102
{ACAD_REACTORS
330
24ED
102
}
330
24ED
100
AcDbXrecord
280
     1
  1
R
  1
*RAIL*,*VOID*
  1
*
  1
*
 70
     0
  1
*
  1
*
  0
XRECORD
  5
254E
102
{ACAD_REACTORS
330
24ED
102
}
330
24ED
100
AcDbXrecord
280
     1
  1
RAIL
  1
*RAIL
  1
*
  1
*
 70
     0
  1
*
  1
*
  0
XRECORD
  5
254F
102
{ACAD_REACTORS
330
24ED
102
}
330
24ED
100
AcDbXrecord
280
     1
  1
RED
  1
*
  1
RED
  1
*
 70
     0
  1
*
  1
*
  0
XRECORD
  5
2550
102
{ACAD_REACTORS
330
24ED
102
}
330
24ED
100
AcDbXrecord
280
     1
  1
S
  1
*SOLID*
  1
*
  1
*
 70
     0
  1
*
  1
*
  0
XRECORD
  5
2551
102
{ACAD_REACTORS
330
24ED
102
}
330
24ED
100
AcDbXrecord
280
     1
  1
search
  1
*comments*
  1
red
  1
*
 70
     0
  1
*
  1
*
  0
XRECORD
  5
2552
102
{ACAD_REACTORS
330
24ED
102
}
330
24ED
100
AcDbXrecord
280
     1
  1
sec
  1
*sec*
  1
*
  1
*
 70
     0
  1
*
  1
*
  0
XRECORD
  5
2553
102
{ACAD_REACTORS
330
24ED
102
}
330
24ED
100
AcDbXrecord
280
     1
  1
section
  1
*
  1
*
  1
*
 70
     0
  1
*
  1
*
  0
XRECORD
  5
2554
102
{ACAD_REACTORS
330
24ED
102
}
330
24ED
100
AcDbXrecord
280
     1
  1
Show all thawed Layers
  1
*
  1
*
  1
*
 70
    12
  1
*
  1
*
  0
XRECORD
  5
2555
102
{ACAD_REACTORS
330
24ED
102
}
330
24ED
100
AcDbXrecord
280
     1
  1
show all thawed no xref
  1
~###*
  1
*
  1
*
 70
    12
  1
*
  1
*
  0
XRECORD
  5
2556
102
{ACAD_REACTORS
330
24ED
102
}
330
24ED
100
AcDbXrecord
280
     1
  1
Show No xref layers
  1
~####*
  1
*
  1
*
 70
     0
  1
*
  1
*
  0
XRECORD
  5
2557
102
{ACAD_REACTORS
330
24ED
102
}
330
24ED
100
AcDbXrecord
280
     1
  1
ｓｉｔｅ
  1
*
  1
*
  1
*
 70
     0
  1
*
  1
*
  0
XRECORD
  5
27CB
102
{ACAD_REACTORS
330
24ED
102
}
330
24ED
100
AcDbXrecord
280
     1
  1
Site
  1
*S-*
  1
*
  1
*
 70
     0
  1
*
  1
*
  0
XRECORD
  5
2559
102
{ACAD_REACTORS
330
24ED
102
}
330
24ED
100
AcDbXrecord
280
     1
  1
ST-UG-OL
  1
*ST-UG-OL
  1
*
  1
*
 70
     0
  1
*
  1
*
  0
XRECORD
  5
255A
102
{ACAD_REACTORS
330
24ED
102
}
330
24ED
100
AcDbXrecord
280
     1
  1
stair
  1
*stair*
  1
*
  1
*
 70
     0
  1
*
  1
*
  0
XRECORD
  5
255B
102
{ACAD_REACTORS
330
24ED
102
}
330
24ED
100
AcDbXrecord
280
     1
  1
sta樓梯
  1
sta*
  1
*
  1
*
 70
     0
  1
*
  1
*
  0
XRECORD
  5
255C
102
{ACAD_REACTORS
330
24ED
102
}
330
24ED
100
AcDbXrecord
280
     1
  1
sym符號
  1
sym*
  1
*
  1
*
 70
     0
  1
*
  1
*
  0
XRECORD
  5
255D
102
{ACAD_REACTORS
330
24ED
102
}
330
24ED
100
AcDbXrecord
280
     1
  1
t
  1
*
  1
*
  1
*
 70
     4
  1
*
  1
*
  0
XRECORD
  5
255E
102
{ACAD_REACTORS
330
24ED
102
}
330
24ED
100
AcDbXrecord
280
     1
  1
test
  1
*
  1
*
  1
*
 70
     4
  1
*
  1
*
  0
XRECORD
  5
255F
102
{ACAD_REACTORS
330
24ED
102
}
330
24ED
100
AcDbXrecord
280
     1
  1
TEXT
  1
*text*
  1
*
  1
*
 70
     0
  1
*
  1
*
  0
XRECORD
  5
2560
102
{ACAD_REACTORS
330
24ED
102
}
330
24ED
100
AcDbXrecord
280
     1
  1
TEXT-0NLY
  1
*TXT*
  1
*
  1
*
 70
     0
  1
*
  1
*
  0
XRECORD
  5
2561
102
{ACAD_REACTORS
330
24ED
102
}
330
24ED
100
AcDbXrecord
280
     1
  1
TEXT-ONLY
  1
*TXT*
  1
*
  1
*
 70
     0
  1
*
  1
*
  0
XRECORD
  5
2562
102
{ACAD_REACTORS
330
24ED
102
}
330
24ED
100
AcDbXrecord
280
     1
  1
text文字
  1
text*
  1
*
  1
*
 70
     0
  1
*
  1
*
  0
XRECORD
  5
2563
102
{ACAD_REACTORS
330
24ED
102
}
330
24ED
100
AcDbXrecord
280
     1
  1
TL
  1
*tl*
  1
*
  1
*
 70
     0
  1
*
  1
*
  0
XRECORD
  5
2564
102
{ACAD_REACTORS
330
24ED
102
}
330
24ED
100
AcDbXrecord
280
     1
  1
toil衛浴
  1
toil*
  1
*
  1
*
 70
     0
  1
*
  1
*
  0
XRECORD
  5
2565
102
{ACAD_REACTORS
330
24ED
102
}
330
24ED
100
AcDbXrecord
280
     1
  1
txt
  1
*txt*
  1
*
  1
*
 70
     0
  1
*
  1
*
  0
XRECORD
  5
2566
102
{ACAD_REACTORS
330
24ED
102
}
330
24ED
100
AcDbXrecord
280
     1
  1
TXT-BW
  1
*-TXT-BW
  1
*
  1
*
 70
     0
  1
*
  1
*
  0
XRECORD
  5
2567
102
{ACAD_REACTORS
330
24ED
102
}
330
24ED
100
AcDbXrecord
280
     1
  1
unlock all layers
  1
*
  1
*
  1
*
 70
     0
  1
*
  1
*
  0
XRECORD
  5
2568
102
{ACAD_REACTORS
330
24ED
102
}
330
24ED
100
AcDbXrecord
280
     1
  1
VP THAW
  1
*
  1
*
  1
*
 70
    61
  1
*
  1
*
  0
XRECORD
  5
2569
102
{ACAD_REACTORS
330
24ED
102
}
330
24ED
100
AcDbXrecord
280
     1
  1
vsit景觀環境
  1
vsit*
  1
*
  1
*
 70
     0
  1
*
  1
*
  0
XRECORD
  5
256A
102
{ACAD_REACTORS
330
24ED
102
}
330
24ED
100
AcDbXrecord
280
     1
  1
W
  1
*WALL*
  1
*
  1
*
 70
     0
  1
*
  1
*
  0
XRECORD
  5
256B
102
{ACAD_REACTORS
330
24ED
102
}
330
24ED
100
AcDbXrecord
280
     1
  1
WA
  1
*
  1
*
  1
*
 70
     0
  1
*
  1
*
  0
XRECORD
  5
256C
102
{ACAD_REACTORS
330
24ED
102
}
330
24ED
100
AcDbXrecord
280
     1
  1
walk-distance
  1
*walk-distance*
  1
*
  1
*
 70
     0
  1
*
  1
*
  0
XRECORD
  5
256D
102
{ACAD_REACTORS
330
24ED
102
}
330
24ED
100
AcDbXrecord
280
     1
  1
WALL
  1
*WALL
  1
*
  1
*
 70
     0
  1
*
  1
*
  0
XRECORD
  5
256E
102
{ACAD_REACTORS
330
24ED
102
}
330
24ED
100
AcDbXrecord
280
     1
  1
WALL-90
  1
*WALL*
  1
*
  1
*
 70
     0
  1
*
  1
*
  0
XRECORD
  5
256F
102
{ACAD_REACTORS
330
24ED
102
}
330
24ED
100
AcDbXrecord
280
     1
  1
wd門窗
  1
wd*
  1
*
  1
*
 70
     0
  1
*
  1
*
  0
XRECORD
  5
2570
102
{ACAD_REACTORS
330
24ED
102
}
330
24ED
100
AcDbXrecord
280
     1
  1
WHITE
  1
*
  1
WHITE
  1
*
 70
     0
  1
*
  1
*
  0
XRECORD
  5
2571
102
{ACAD_REACTORS
330
24ED
102
}
330
24ED
100
AcDbXrecord
280
     1
  1
WIN
  1
*WIN*
  1
*
  1
*
 70
     0
  1
*
  1
*
  0
XRECORD
  5
2572
102
{ACAD_REACTORS
330
24ED
102
}
330
24ED
100
AcDbXrecord
280
     1
  1
YELLOW
  1
*
  1
YELLOW
  1
*
 70
     0
  1
*
  1
*
  0
XRECORD
  5
2573
102
{ACAD_REACTORS
330
24ED
102
}
330
24ED
100
AcDbXrecord
280
     1
  1
ｚｚｚ
  1
*
  1
*
  1
*
 70
     1
  1
*
  1
*
  0
XRECORD
  5
27CC
102
{ACAD_REACTORS
330
24ED
102
}
330
24ED
100
AcDbXrecord
280
     1
  1
ZZZ
  1
*
  1
254
  1
*
 70
     0
  1
*
  1
*
  0
XRECORD
  5
2575
102
{ACAD_REACTORS
330
24ED
102
}
330
24ED
100
AcDbXrecord
280
     1
  1
紅色
  1
*
  1
red*
  1
*
 70
     0
  1
*
  1
*
  0
XRECORD
  5
2576
102
{ACAD_REACTORS
330
24ED
102
}
330
24ED
100
AcDbXrecord
280
     1
  1
青色
  1
*
  1
cyan*
  1
*
 70
     0
  1
*
  1
*
  0
XRECORD
  5
2577
102
{ACAD_REACTORS
330
24ED
102
}
330
24ED
100
AcDbXrecord
280
     1
  1
白色
  1
*
  1
white*
  1
*
 70
     0
  1
*
  1
*
  0
ENDSEC
  0
EOF
